osu file format v5

[General]
AudioFilename: 05 Naengmyeon (Park Myung Soo, Jessica, E-Tribe).mp3
AudioLeadIn: 0
PreviewTime: 20901
Countdown: 0
SampleSet: Normal
StackLeniency: 0.7
Mode: 0
LetterboxInBreaks: 1
EditorBookmarks: 21134,52529,80669,126948
EditorDistanceSpacing: 0.800000011920929

[Metadata]
Title:Naengmyeon
Artist:Park Myung Soo & Jessica
Creator:m980
Version:Hard
Source:
Tags:

[Difficulty]
HPDrainRate:6
CircleSize:3
OverallDifficulty:6
SliderMultiplier:1.9
SliderTickRate:2

[Events]
//Background and Video events
0,0,"Naengmyon.jpg"
//Break Periods
2,37620,51486
2,119015,125905
//Storyboard Layer 0 (Background)
//Storyboard Layer 1 (Fail)
//Storyboard Layer 2 (Pass)
//Storyboard Layer 3 (Foreground)
//Storyboard Sound Samples
//Background Colour Transformations
3,100,163,162,255

[TimingPoints]
7652.84732781753,465.116279069767,4,1,0,100,1,0

[HitObjects]
256,32,21141,1,0
256,192,21606,1,0
256,352,22071,1,4
104,352,22536,2,0,B|-15:265|-16:112|108:28,1,380
160,88,23699,1,2
352,88,24164,1,4
256,352,24862,5,0
256,192,25327,1,0
256,32,25792,1,4
408,32,26257,2,0,B|527:119|528:272|404:356,1,380
352,296,27420,1,2
160,296,27885,1,4
256,296,28350,5,0
256,216,28583,1,0
336,216,28815,1,0
398,136,29048,2,0,B|110:136,1,285,4|0
48,32,29978,5,8
464,32,30443,1,0
464,32,30676,1,8
256,352,31141,1,0
256,352,31373,1,8
256,352,31606,1,8
256,88,32071,5,0
256,168,32304,1,0
176,168,32536,1,0
114,248,32769,2,0,B|402:248,1,285,4|0
464,352,33699,5,8
48,352,34164,1,0
48,352,34397,1,8
256,32,34862,1,0
256,32,35094,1,8
256,32,35327,1,8
256,192,35792,12,4,37420
256,176,52536,5,0
216,104,52769,1,0
296,104,53001,1,0
360,56,53234,2,2,B|416:120|368:192|368:192|320:264|376:336,1,285
150,368,54397,2,4,B|-26:320|-34:64|158:16,1,475
257,371,56257,6,0,B|201:275|321:283|256:195,1,190
184,232,56955,1,8
136,168,57187,1,0
208,136,57420,1,0
152,80,57652,1,10
362,16,58117,2,4,B|538:64|546:320|354:368,1,475
344,96,59978,6,0,B|256:32|161:99,1,190
136,168,60676,2,4,B|72:144|72:56|120:40,2,142.5
184,320,61838,5,0
240,264,62071,1,0
312,296,62304,1,0
377,340,62536,2,4,B|400:312|408:248|336:216,2,142.5
256,184,63699,1,0
400,64,64164,5,4
112,64,64629,1,0
256,328,65094,2,0,B|224:280|256:240|256:240|296:192|248:144,1,190,4|0
176,136,65792,1,0
104,168,66024,1,0
160,224,66257,1,4
88,256,66490,1,0
16,288,66722,1,6
424,56,67420,5,0
462,125,67652,2,2,B|428:173|464:212|464:212|502:253|454:309,1,190,2|8
392,256,68350,1,8
256,40,68815,5,0
256,192,69280,2,0,B|56:192,1,190
72,271,69978,2,0,B|120:359|256:359,1,190,4|4
336,256,70908,1,4
448,192,71141,5,0
410,124,71373,1,0
348,72,71606,2,2,B|252:24|148:80,1,190,2|8
256,192,72536,1,0
96,192,73001,1,0
16,192,73234,1,0
56,120,73466,1,0
56,296,73931,2,0,B|192:376|336:296,1,285,8|4
256,48,75094,5,0
216,232,75559,1,0
216,152,75792,1,0
296,152,76024,1,0
296,232,76257,1,4
48,192,76722,1,0
48,192,76955,1,0
48,192,77187,1,4
464,192,77652,1,0
464,192,77885,1,0
464,192,78117,1,4
343,317,78583,2,4,B|255:381|161:312,3,190
256,32,80676,5,0
256,192,81141,1,0
256,352,81606,1,4
408,352,82071,2,0,B|527:265|528:112|404:28,1,380
352,88,83234,1,2
160,88,83699,1,4
256,352,84397,5,0
256,192,84862,1,0
256,32,85327,1,4
104,32,85792,2,0,B|-15:119|-16:272|108:356,1,380
160,296,86955,1,2
352,296,87420,1,4
256,296,87885,5,0
256,216,88117,1,0
176,216,88350,1,0
114,136,88583,2,0,B|402:136,1,285,4|0
464,32,89513,5,8
48,32,89978,1,0
48,32,90210,1,8
256,352,90676,1,0
256,352,90908,1,8
256,352,91141,1,8
256,88,91606,5,0
256,168,91838,1,0
336,168,92071,1,0
398,248,92304,2,0,B|110:248,1,285,4|0
48,352,93234,5,8
464,352,93699,1,0
464,352,93931,1,8
256,32,94397,1,0
256,32,94629,1,8
256,32,94862,1,8
184,312,95327,5,4
256,352,95559,1,4
256,272,95792,1,0
256,192,96024,1,4
256,32,96490,1,4
408,32,96955,2,0,B|527:119|528:272|404:356,1,380
352,296,98117,1,2
160,296,98583,1,4
328,72,99048,5,4
256,32,99280,1,4
256,112,99513,1,0
256,192,99745,1,4
256,352,100210,1,4
104,352,100676,2,0,B|-15:265|-16:112|108:28,1,380
160,88,101838,1,2
352,88,102304,1,4
256,48,102769,6,0,B|256:248,1,190
256,320,103466,1,0
336,320,103699,1,0
416,320,103931,1,4
496,320,104164,1,0
496,240,104397,5,8
256,24,104862,1,0
256,24,105094,1,8
16,240,105559,1,0
16,240,105792,1,8
16,240,106024,1,8
256,296,106490,5,0
256,216,106722,1,4
256,136,106955,1,0
256,56,107187,2,4,B|112:0|-31:60,1,285,4|0
16,144,108117,5,8
256,360,108583,1,0
256,360,108815,1,8
496,144,109280,1,0
496,144,109513,1,8
496,144,109745,1,8
256,192,110210,12,4,111838
216,56,112304,5,0
296,56,112536,1,4
336,192,113001,1,0
256,192,113234,1,4
176,192,113466,1,0
216,328,113931,1,4
296,328,114164,1,0
448,64,114629,5,2
448,64,114862,2,2,B|504:160|448:256,1,190
456,328,115559,5,4
296,328,116024,1,0
216,328,116257,1,4
176,192,116722,1,0
256,192,116955,1,4
336,192,117187,1,0
296,56,117652,1,4
216,56,117885,1,0
56,56,118350,5,2
456,328,118815,1,8
150,16,126955,6,4,B|-26:64|-34:320|158:368,1,475,0|0
209,312,128350,1,4
256,72,128815,1,0
328,112,129048,1,4
328,192,129280,1,0
256,232,129513,1,8
184,192,129745,1,0
184,112,129978,1,8
362,16,130676,6,0,B|538:64|546:320|354:368,1,475
304,312,132071,1,4
256,72,132536,1,0
184,112,132769,1,4
184,192,133001,1,0
256,232,133234,1,8
328,192,133466,1,0
328,112,133699,1,8
96,368,134397,6,0,B|0:336|-24:224,1,190
40,176,135094,1,4
136,96,135443,1,4
240,16,135792,1,4
416,16,136257,6,0,B|512:48|536:160,1,190
472,208,136955,1,4
336,208,137304,1,4
368,80,137652,5,2
144,80,138117,1,2
144,304,138583,1,2
368,304,139048,1,2
256,32,139513,6,4,B|256:224,1,190
336,216,140210,1,8
408,184,140443,1,0
336,136,140676,1,8
408,104,140908,1,0
480,72,141141,1,4
32,40,141838,5,0
96,88,142071,2,2,B|152:104|160:176,1,95
72,167,142536,2,2,B|77:218|133:234,1,95
256,360,143234,5,0
440,280,143699,2,4,B|528:160|480:40|352:0|256:32|208:144,1,475
392,352,145559,5,0
320,312,145792,1,0
256,264,146024,2,0,B|144:296|88:200,1,190
104,128,146722,1,0
168,80,146955,2,2,B|256:16|352:80,1,190
408,128,147652,1,0
408,208,147885,1,0
256,168,148350,1,4
256,360,149513,5,0
256,192,149978,1,0
336,192,150210,1,0
416,192,150443,1,0
416,112,150676,1,4
96,112,151141,1,0
96,112,151373,1,0
96,112,151606,1,4
256,280,152071,1,0
256,280,152304,1,0
256,280,152536,1,4
256,48,153001,1,4
80,320,153466,1,4
432,320,153931,1,4
256,152,154397,1,4
48,192,155094,5,0
256,320,155559,1,0
464,192,156024,1,4
256,32,156490,2,0,B|192:32|176:104,1,95,0|8
256,112,156955,2,8,B|320:112|336:184,1,95
256,192,157420,1,8
184,232,157652,5,2
328,360,158117,1,4
464,192,158815,5,0
256,64,159280,1,0
48,192,159745,1,4
256,352,160210,2,0,B|320:352|336:280,1,95,0|8
256,272,160676,2,8,B|192:272|176:200,1,95
256,192,161141,1,8
328,152,161373,5,2
184,24,161838,1,4
88,344,162304,5,0
24,296,162536,1,0
80,240,162769,1,0
144,192,163001,1,4
80,144,163234,1,0
24,88,163466,1,4
88,40,163699,1,0
256,64,163931,6,0,B|192:64|176:136,1,95,8|0
256,144,164397,1,0
256,144,164629,2,0,B|320:144|336:216,1,95,8|0
256,224,165094,1,0
256,224,165327,2,0,B|192:224|176:296,1,95,8|8
424,344,166024,5,0
488,296,166257,1,0
432,240,166490,1,0
368,192,166722,1,4
432,144,166955,1,0
488,88,167187,1,4
424,40,167420,1,0
256,64,167652,6,0,B|320:64|336:136,1,95,8|0
256,144,168117,1,0
256,144,168350,2,0,B|192:144|176:216,1,95,8|0
256,224,168815,1,0
256,224,169048,2,0,B|320:224|336:296,1,95,8|8
464,112,169745,5,4
464,192,169978,1,4
256,320,170443,1,4
48,192,170908,1,4
256,32,171373,2,0,B|320:32|336:104,1,95,0|8
256,112,171838,1,8
184,152,172071,1,8
256,192,172304,1,8
328,232,172536,5,2
184,360,173001,1,4
48,192,173699,5,0
256,64,174164,1,0
464,192,174629,1,4
256,352,175094,1,0
184,312,175327,1,8
256,272,175559,2,8,B|320:272|336:200,1,95
256,192,176024,1,8
184,152,176257,5,2
328,24,176722,1,4
0,272,177187,5,0
0,192,177420,1,0
0,112,177652,1,0
72,72,177885,1,4
72,152,178117,1,0
72,232,178350,1,4
72,312,178583,1,0
256,312,178815,5,0
0,32,179280,1,8
167,139,179745,1,0
344,248,180210,1,0
512,352,180676,1,4
512,272,180908,5,0
440,312,181141,1,0
440,232,181373,1,0
512,192,181606,1,4
512,112,181838,1,0
440,152,182071,1,4
440,72,182304,1,0
256,112,182536,6,0,B|192:112|176:184,1,95,8|0
184,240,183001,1,0
256,272,183234,2,0,B|320:272|336:200,1,95,8|0
328,144,183699,1,0
256,192,183931,1,8
256,192,184164,1,8
256,32,184629,5,0
184,72,184862,1,0
184,152,185094,1,0
256,192,185327,1,0
328,232,185559,1,0
328,312,185792,1,0
256,352,186024,1,0
184,312,186257,1,4
