osu file format v5

[General]
AudioFilename: 05 Naengmyeon (Park Myung Soo, Jessica, E-Tribe).mp3
AudioLeadIn: 0
PreviewTime: 20901
Countdown: 0
SampleSet: Normal
StackLeniency: 0.7
Mode: 0
LetterboxInBreaks: 1

[Editor]
Bookmarks: 21134,52529,80669,126948,155087
DistanceSpacing: 0.800000011920929
BeatDivisor: 4
GridSize: 8

[Metadata]
Title:Naengmyeon
Artist:Park Myung Soo & Jessica
Creator:m980
Version:Easy
Source:
Tags:

[Difficulty]
HPDrainRate:2
CircleSize:3
OverallDifficulty:4
SliderMultiplier:1.4
SliderTickRate:2

[Events]
//Background and Video events
0,0,"Naengmyon.jpg"
//Break Periods
2,37619,51216
2,119015,125635
//Storyboard Layer 0 (Background)
//Storyboard Layer 1 (Fail)
//Storyboard Layer 2 (Pass)
//Storyboard Layer 3 (Foreground)
//Storyboard Sound Samples
//Background Colour Transformations
3,100,163,162,255

[TimingPoints]
7653,465.116279069767,4,1,0,100,1,0

[HitObjects]
256,56,21141,2,0,B|256:344,1,280,0|4
72,336,22536,2,0,B|-24:280|-24:192|-24:192|-24:96|72:56,1,350,0|2
160,184,24164,1,4
256,328,24862,6,0,B|256:40,1,280,0|4
440,48,26257,2,0,B|536:104|536:192|536:192|536:288|440:328,1,350,0|2
352,200,27885,1,4
256,40,28350,6,0,B|256:264,1,210
128,280,29513,1,0
24,192,29978,5,8
256,344,30676,1,8
488,192,31373,1,8
488,192,31606,1,8
256,344,32071,6,0,B|256:120,1,210
384,104,33234,1,0
488,192,33699,5,8
256,40,34397,1,8
24,192,35094,1,8
24,192,35327,1,8
11,336,35792,6,0,B|507:336,1,490,0|4
256,176,52536,5,0
256,176,52769,1,0
112,176,53234,2,0,B|112:296|240:336,1,210
367,329,54397,2,4,B|487:281|487:89|358:50,1,350
256,176,56257,5,0
256,176,56490,1,0
400,176,56955,2,0,B|400:296|272:336,1,210
144,328,58118,2,4,B|24:280|24:88|153:49,1,350
360,152,59978,5,0
360,328,60676,2,0,B|144:328,1,210,0|4
152,216,61839,5,0
152,40,62536,2,0,B|368:40,1,210,0|4
480,112,63699,5,0
392,208,64164,1,4
296,304,64629,1,0
256,176,65094,6,0,B|40:176,1,210,4|0
56,304,66257,1,0
176,344,66722,1,2
256,56,67653,5,0
376,104,68118,1,0
376,104,68350,1,0
448,208,68815,2,0,B|448:320|312:376,1,210
256,248,69978,2,4,B|192:200|120:256,1,140
256,56,71373,5,0
136,104,71839,1,0
136,104,72071,1,0
256,176,72536,1,0
376,232,73001,1,0
280,312,73466,2,4,B|80:368|0:160,1,350
256,48,75094,5,0
256,160,75559,2,0,B|480:160,1,210,0|4
408,304,76722,2,0,B|368:360|256:360,1,140,0|4
136,320,77652,2,0,B|56:296|40:208,1,140,0|4
24,72,78583,2,4,B|88:16|152:72,3,140
256,328,80676,6,0,B|256:40,1,280,0|4
440,48,82071,2,0,B|536:104|536:192|536:192|536:288|440:328,1,350,0|2
352,200,83699,1,4
256,56,84397,6,0,B|256:344,1,280,0|4
72,336,85792,2,0,B|-24:280|-24:192|-24:192|-24:96|72:56,1,350,0|2
160,184,87420,1,4
256,344,87885,6,0,B|256:120,1,210
384,104,89048,1,0
488,192,89513,5,8
256,40,90211,1,8
24,192,90908,1,8
24,192,91141,1,8
256,40,91606,6,0,B|256:264,1,210
128,280,92769,1,0
24,192,93234,5,8
256,344,93932,1,8
488,192,94629,1,8
488,192,94862,1,8
168,88,95559,5,0
256,192,96025,1,0
344,296,96490,1,4
224,344,96955,2,0,B|16:344|16:96,1,350,0|2
160,192,98583,1,4
344,296,99280,5,0
256,192,99746,1,0
168,88,100211,1,4
288,40,100676,2,0,B|496:40|496:288,1,350,0|2
352,192,102304,1,4
256,344,102769,6,0,B|256:120,1,210
128,104,103932,1,4
24,192,104397,5,8
256,40,105094,1,8
488,192,105792,1,8
488,192,106025,1,8
256,40,106490,6,0,B|256:264,1,210
384,280,107652,1,4
488,192,108118,5,8
256,344,108815,1,8
24,192,109513,1,8
24,192,109746,1,8
80,48,110211,6,0,B|434:49,1,350
464,144,111839,5,8
256,192,112536,1,8
48,144,113234,1,8
48,144,113466,1,8
48,280,113932,1,8
48,280,114164,1,8
256,328,114629,6,0,B|424:328,1,140
464,240,115559,5,8
256,192,116257,1,8
48,240,116955,1,8
48,240,117187,1,8
48,104,117652,1,8
48,104,117885,1,8
256,56,118350,6,0,B|424:56,1,140,2|2
129,350,126955,6,0,B|-15:310|-33:73|136:30,1,420
152,192,128815,1,0
152,192,129048,1,0
272,120,129513,1,4
272,264,129978,1,4
383,34,130676,6,0,B|527:74|545:311|376:354,1,420
360,192,132536,1,0
360,192,132769,1,0
240,264,133234,1,4
240,120,133699,1,4
152,232,134397,5,0
152,56,135094,2,0,B|368:56,1,210,0|4
360,168,136257,5,0
360,344,136955,2,0,B|144:344,1,210,0|4
32,272,138118,5,0
120,176,138583,1,4
216,80,139048,1,0
256,208,139513,6,0,B|472:208,1,210
456,80,140676,1,0
336,40,141141,1,2
256,120,141839,5,0
256,120,142071,1,4
256,296,142536,1,4
256,296,142769,1,0
104,344,143234,2,2,B|0:248|8:112|112:32,1,350
168,152,144862,1,4
256,264,145559,5,0
256,264,145792,1,4
256,88,146257,1,4
256,88,146490,1,0
408,40,146955,2,2,B|496:80|512:232|456:312,1,280
336,224,148350,1,4
256,336,149513,5,0
256,224,149978,2,0,B|32:224,1,210,0|4
104,80,151141,2,0,B|144:24|256:24,1,140,0|4
376,64,152071,2,0,B|456:88|472:176,1,140,0|4
488,312,153001,2,4,B|424:368|360:312,3,140
256,32,155094,5,0
144,112,155559,1,0
32,192,156025,1,4
120,296,156490,2,8,B|168:368|248:336,2,140
200,264,157652,1,2
312,176,158118,1,4
256,352,158815,5,0
368,272,159280,1,0
480,192,159746,1,4
392,88,160211,2,8,B|344:16|264:48,2,140
312,120,161373,1,2
200,208,161839,1,4
56,56,162536,5,0
0,192,163001,1,0
56,328,163466,1,0
256,368,163932,5,4
352,240,164397,1,0
352,56,164862,1,0
160,56,165327,1,0
160,240,165792,1,0
256,96,166257,5,0
128,152,166722,2,0,B|40:168|8:248,1,140
56,352,167652,5,8
256,248,168350,1,8
456,352,169048,1,8
456,352,169280,1,8
256,352,169978,5,0
368,272,170443,1,0
480,192,170908,1,4
392,88,171373,2,8,B|344:16|264:48,2,140
312,120,172536,1,2
200,208,173001,1,4
256,32,173699,5,0
144,112,174164,1,0
32,192,174629,1,4
120,296,175094,2,8,B|168:368|248:336,2,140
200,264,176257,1,2
312,176,176722,1,4
456,328,177420,5,0
512,192,177885,1,0
456,56,178350,1,0
256,16,178815,5,4
160,144,179280,1,0
160,328,179746,1,0
352,328,180211,1,0
352,144,180676,1,0
256,288,181141,5,0
384,232,181606,2,0,B|472:216|504:136,1,140
456,32,182536,5,8
256,136,183234,1,8
56,32,183932,1,8
56,32,184164,1,8
256,192,184397,12,4,186257
