osu file format v5

[General]
AudioFilename: Hair.mp3
AudioLeadIn: 0
PreviewTime: 41946
Countdown: 0
SampleSet: Normal

[Metadata]
Title:Hair Scare
Artist:Parappa 2
Creator:MOOMANiBE
Version:Frizzy

[Difficulty]
HPDrainRate:5
CircleSize:4
OverallDifficulty:5
SliderMultiplier:2
SliderTickRate:1

[Events]
//Background and Video events
1,-3000,"Parappa the Rapper 2_ Hair Scare (Original Soundtrack)_.AVI"
//Break Periods
2,41870,49898
2,87429,95601
2,123714,129886
2,133001,134458
2,137572,139029
2,142143,143600
2,146572,148172
2,151286,152743
2,156000,157314
2,160571,161886
2,165000,166457
//Storyboard Layer 0 (Background)
//Storyboard Layer 1 (Failing)
//Storyboard Layer 2 (Passing)
//Storyboard Layer 3 (Foreground)
//Storyboard Sound Samples
//Background Colour Transformations
3,100,163,162,255

[TimingPoints]
3090,571.416100000001,4,1,0,100

[HitObjects]
208,96,23660,1,0
304,96,24089,1,0
304,256,24803,1,0
208,256,25231,1,0
128,128,25946,5,0
128,224,26374,1,0
384,224,27089,1,0
384,128,27517,1,0
144,112,28231,5,0
208,64,28660,1,0
144,256,29374,1,0
208,304,29803,1,0
304,64,30517,5,0
368,112,30946,1,0
368,256,31660,1,0
304,304,32088,1,0
112,112,32803,2,0,B|288:112,1,150
384,112,33660,1,0
384,192,33946,2,0,B|208:192,1,150
112,192,34803,1,0
112,272,35088,2,0,B|288:272,1,150
384,272,35946,5,0
384,192,36231,2,0,B|224:192,1,150
112,192,37088,1,0
112,112,37374,2,0,B|272:112,1,150
384,112,38231,1,0
384,192,38517,2,0,B|384:352,1,150
256,336,39374,5,0
256,256,39660,2,0,B|256:96,1,150
128,112,40517,1,0
128,192,40803,2,0,B|128:352,1,150
256,336,41660,1,0
80,64,51088,6,0,B|160:64,1,50
80,160,51517,2,0,B|112:160,1,50
80,256,51945,2,0,B|96:256,1,50
256,160,52517,2,0,B|304:160,1,50
384,160,52802,1,4
416,64,53374,6,0,B|368:64,1,50
416,160,53802,2,0,B|384:160,1,50
416,256,54231,2,0,B|368:256,1,50
240,160,54802,2,0,B|224:160,1,50
128,160,55088,1,4
96,32,55659,2,0,B|208:144,1,150
288,224,56516,1,4
432,112,57088,2,0,B|320:208,1,100
432,32,57945,2,0,B|304:144,1,150
224,224,58802,1,4
80,96,59374,2,0,B|160:176,1,100
176,112,60231,6,0,B|336:112,2,150
224,208,61659,2,4,B|272:208,2,50
176,304,62516,2,0,B|336:304,2,150
224,208,63945,2,4,B|272:208,2,50
192,64,64802,6,0,B|304:64,1,100
352,64,65231,2,0,B|352:176,1,100
352,224,65660,2,0,B|256:224,1,50
160,208,67088,2,0,B|160:80,1,100
160,48,67517,2,0,B|272:48,1,100
320,48,67945,2,0,B|320:80,1,50
144,64,69373,6,0,B|240:176,1,100
256,192,69802,1,0
400,192,70516,6,0,B|368:192,1,50
400,256,70802,2,0,B|352:256,1,50
384,64,71659,2,0,B|304:144,1,100
256,192,72088,1,0
96,192,72802,2,0,B|128:192,1,50
96,256,73088,2,0,B|128:256,1,50
224,96,73945,6,0,B|304:96,2,50
176,96,74373,1,0
304,320,75088,2,0,B|288:320,1,50
224,320,75373,2,0,B|224:304,1,50
400,144,76230,2,0,B|400:160,2,50
400,96,76659,1,0
96,144,77373,2,0,B|96:176,1,50
96,240,77659,2,0,B|128:240,1,50
336,288,78516,6,0,B|288:288,2,50
384,288,78945,2,0,B|240:144,1,200
176,144,79659,2,0,B|64:144,1,100
80,208,80087,2,0,B|112:208,1,50
160,304,80802,2,0,B|208:304,2,50
96,304,81230,2,0,B|256:144,1,200
288,160,81945,2,0,B|400:160,1,100
384,224,82373,2,0,B|368:224,1,50
304,320,83087,6,0,B|208:240,1,100
176,256,83516,2,0,B|160:256,1,50
128,96,84230,2,0,B|240:96,1,100
224,160,84659,2,0,B|192:160,2,50
176,320,85373,2,0,B|256:240,1,100
304,240,85802,2,0,B|336:240,1,50
384,80,86516,2,0,B|272:80,1,100
288,144,86944,2,0,B|320:144,2,50
128,64,96801,6,0,B|96:64,2,50
80,176,97373,2,0,B|192:288,1,150
288,288,98087,2,0,B|320:288,2,50
384,64,99087,2,0,B|352:64,2,50
432,192,99658,2,0,B|304:304,1,150
224,288,100373,2,0,B|192:288,2,50
96,96,101373,2,0,B|94:17|192:48,1,100
192,128,101944,2,0,B|304:240,1,150
384,256,102658,2,0,B|383:326|320:320,1,100
336,32,103658,2,0,B|398:33|400:96,1,100
304,128,104230,2,0,B|176:256,1,150
96,256,104944,2,0,B|96:320|160:320,1,100
96,64,105944,6,0,B|192:160,1,100
176,240,106515,2,0,B|274:249|272:128,1,150
320,64,107230,2,0,B|416:160,1,100
464,64,108230,2,0,B|384:144,1,100
384,224,108801,2,0,B|285:239|288:128,1,150
240,48,109515,2,0,B|160:128,1,100
192,192,110515,6,0,B|192:240,1,50
256,192,110801,2,0,B|256:224,1,50
320,192,111087,1,0
336,64,111515,1,0
256,64,111801,2,0,B|256:96,1,50
192,64,112087,2,0,B|192:96,1,50
80,128,112801,2,0,B|112:128,1,50
80,192,113087,2,0,B|160:192,1,50
80,256,113372,1,0
400,112,113801,1,0
400,192,114087,2,0,B|368:192,1,50
400,256,114372,2,0,B|352:256,1,50
288,80,115087,5,0
224,144,115372,1,0
160,208,115658,2,0,B|128:208,1,50
160,336,116087,2,0,B|128:336,1,50
256,336,116372,2,0,B|336:240,1,100
80,64,117372,5,0
144,128,117658,1,0
208,192,117944,1,0
256,64,118372,2,0,B|272:64,1,50
400,64,118658,2,0,B|304:144,1,100
432,192,119658,2,0,B|448:192,2,50
336,192,120229,1,0
176,192,120658,1,0
80,192,120944,2,0,B|48:192,2,50
208,64,121944,6,0,B|160:64,2,50
304,64,122515,5,0
304,192,122944,5,0
208,192,123229,6,0,B|144:192,2,50
256,192,131086,5,0
256,192,131658,1,0
256,192,132229,1,0
256,192,132801,1,0
224,96,135658,5,0
256,96,135800,1,0
288,96,135943,1,0
368,96,136229,1,0
368,176,136658,1,0
368,176,136801,1,0
368,224,136943,1,0
368,224,137086,1,0
368,272,137229,1,0
368,272,137372,1,0
256,96,140229,6,0,B|384:96,1,100
416,96,140658,1,0
416,224,141229,1,0
368,224,141372,1,0
320,224,141515,1,0
272,224,141658,1,0
160,224,141943,1,0
256,80,144800,6,0,B|320:74|336:160,1,100
336,192,145229,1,0
176,192,145657,1,0
96,208,145943,2,0,B|96:96,1,100
96,272,146372,1,0
176,32,149372,5,0
176,80,149514,1,0
256,80,149800,1,0
176,176,150229,1,0
176,224,150372,1,0
256,176,150657,1,0
256,224,150800,1,0
256,352,151086,1,0
16,80,153943,5,0
96,80,154229,1,0
128,80,154371,1,0
240,80,154800,1,0
320,80,155086,1,0
352,80,155229,1,0
464,80,155657,1,0
496,80,155800,1,0
208,112,158514,6,0,B|352:112,2,100
184,208,159514,1,0
232,208,159657,1,0
280,208,159800,1,0
328,208,159943,1,0
232,304,160229,2,0,B|296:304,1,50
96,80,163086,6,0,B|176:144,1,100
224,144,163514,1,0
320,144,163943,1,0
400,144,164228,1,0
400,176,164371,1,0
400,208,164514,1,0
256,208,164800,1,0
192,112,167657,5,0
224,64,167800,1,0
288,64,167943,1,0
320,112,168085,1,0
256,192,168371,1,0
256,336,168943,2,0,B|336:336,1,50
384,336,169371,1,0
256,192,169800,12,0,172228
