osu file format v5

[General]
AudioFilename: Hair.mp3
AudioLeadIn: 0
PreviewTime: 41624
Countdown: 0
SampleSet: Normal

[Metadata]
Title:Hair Scare
Artist:Parappa 2
Creator:MOOMANiBE
Version:Fluffy

[Difficulty]
HPDrainRate:2
CircleSize:2
OverallDifficulty:3
SliderMultiplier:1.7
SliderTickRate:1

[Events]
//Background and Video events
1,-3000,"Parappa the Rapper 2_ Hair Scare (Original Soundtrack)_.AVI"
//Break Periods
2,41539,49567
2,87108,95280
2,155679,156993
2,160250,161565
//Storyboard Layer 0 (Background)
//Storyboard Layer 1 (Failing)
//Storyboard Layer 2 (Passing)
//Storyboard Layer 3 (Foreground)
//Storyboard Sound Samples
//Background Colour Transformations
3,100,163,162,255

[TimingPoints]
3090,571.416100000001,4,1,0,100

[HitObjects]
160,80,23660,1,0
272,80,24089,1,0
160,256,24803,1,0
272,256,25231,1,0
432,80,25946,1,0
432,192,26374,1,0
256,80,27089,1,0
256,192,27517,1,0
80,80,28231,5,0
80,192,28660,1,0
256,80,29374,1,0
256,192,29803,1,0
432,80,30517,1,0
432,192,30946,1,0
256,192,31660,1,0
256,192,32088,1,0
176,80,32803,6,0,B|352:80,1,170
352,192,33946,2,0,B|176:192,1,170
176,304,35088,2,0,B|352:304,1,170
352,192,36231,2,0,B|176:192,1,170
176,80,37374,2,0,B|352:80,1,170
384,144,38517,2,0,B|384:336,1,170
256,304,39660,2,0,B|256:128,1,170
128,144,40803,2,0,B|128:336,1,170
80,64,51088,5,0
80,160,51517,1,0
80,256,51945,1,0
256,160,52517,2,0,B|384:160,1,85
416,64,53374,5,0
416,160,53802,1,0
416,256,54231,1,0
240,160,54802,2,0,B|144:160,1,85
112,48,55659,2,0,B|304:240,1,255
160,208,57088,2,0,B|224:272,1,85
416,48,57945,2,0,B|224:240,1,255
352,224,59374,2,0,B|288:288,1,85
192,64,60231,6,0,B|352:64,2,127.5
208,192,61659,2,4,B|336:192,1,85
192,304,62516,2,0,B|352:304,2,127.5
208,192,63945,2,4,B|304:192,1,85
128,64,64802,6,0,B|416:64,1,255
384,288,67088,2,0,B|112:288,1,255
256,128,69373,6,0,B|256:32,2,85
144,192,70516,2,0,B|48:192,2,85
368,192,71659,2,0,B|464:192,2,85
256,256,72802,2,0,B|256:352,2,85
64,48,73945,6,0,B|160:48,1,85
256,48,74516,1,0
64,192,75088,2,0,B|160:192,1,85
256,192,75659,1,0
64,320,76230,2,0,B|160:320,1,85
256,320,76802,1,0
432,320,77373,2,0,B|432:224,1,85
432,128,77945,1,0
192,48,78516,5,0
320,48,78945,1,0
184,176,79659,2,0,B|344:176,1,141.666666666667
192,304,80802,1,0
320,304,81230,1,0
256,176,81945,2,0,B|256:16,1,127.5
400,320,83087,6,0,B|288:216,1,141.666666666667
176,224,84230,2,0,B|280:328,1,141.666666666667
88,144,85373,2,0,B|208:32,1,141.666666666667
408,56,86516,2,0,B|296:160,1,141.666666666667
48,128,96801,6,0,B|48:32,2,85
176,48,97849,1,0
176,112,98135,1,0
176,176,98420,1,0
464,48,99087,2,0,B|464:144,2,85
368,48,100135,1,0
368,112,100420,1,0
368,176,100706,1,0
112,320,101373,6,0,B|57:329|64:256,2,85
176,224,102420,1,0
240,176,102705,1,0
304,128,102991,1,0
432,272,103658,2,0,B|427:342|352:320,2,85
320,240,104705,1,0
256,176,104991,1,0
192,112,105277,1,0
64,192,105944,6,0,B|176:192,1,85
256,272,106515,1,0
464,192,106992,2,0,B|352:192,1,85
256,112,107563,1,0
64,192,108230,2,0,B|160:192,1,85
256,272,108801,1,0
448,192,109277,2,0,B|352:192,1,85
256,112,109849,1,0
48,192,110515,5,0
128,192,110801,1,0
208,192,111087,2,0,B|368:192,1,141.666666666667
352,96,111849,1,0
272,96,112135,1,0
80,48,112801,1,0
160,48,113087,1,0
240,48,113372,2,0,B|240:200,1,127.5
240,248,114087,1,0
240,320,114372,1,0
104,64,115087,6,0,B|224:64,1,85
304,64,115658,1,0
304,208,116087,2,0,B|192:208,1,85
96,208,116658,1,0
416,320,117372,6,0,B|288:320,1,85
224,320,117944,1,0
224,192,118372,2,0,B|320:192,1,85
416,192,118944,1,0
480,112,119658,2,0,B|359:89|464:224,1,170
368,272,120658,2,0,B|240:272|368:128,1,170
32,128,121944,6,0,B|129:122|16:272,1,170
144,304,122944,2,0,B|240:304|128:160,1,170
176,112,131086,5,0
336,112,131658,1,0
176,272,132229,1,0
336,272,132801,1,0
64,64,135658,5,0
160,128,135943,1,0
160,240,136229,1,0
352,240,136658,1,0
352,240,136801,1,0
352,128,137086,1,0
448,48,137372,1,0
80,104,140229,6,0,B|80:200,1,85
80,240,140658,2,0,B|80:328,1,85
256,256,141372,1,0
256,160,141657,1,0
256,64,141943,1,0
160,96,144800,6,0,B|192:128,1,42.5
352,96,145229,2,0,B|320:128,1,42.5
256,256,145657,2,0,B|256:144,3,85
64,32,149372,5,0
128,96,149800,1,0
256,224,150372,1,0
320,288,150801,1,0
352,320,151086,1,0
16,80,153943,6,0,B|112:80,1,85
144,80,154371,1,0
240,80,154800,2,0,B|336:80,1,85
368,80,155229,1,0
464,80,155657,1,0
208,112,158514,6,0,B|400:112|400:144|70:223|73:256|416:288,1,510
96,48,163086,6,0,B|96:128,1,42.5
176,96,163371,2,0,B|176:128,1,42.5
256,192,163943,2,0,B|256:288,2,85
256,80,164800,1,0
176,112,167657,6,0,B|208:64,1,42.5
304,80,167943,2,0,B|336:128,1,42.5
256,192,168371,1,0
256,336,168943,2,0,B|336:336,1,42.5
384,336,169371,1,0
256,192,169800,12,0,172228
