osu file format v13

[General]
AudioFilename: 02 Chaosmaid.mp3
AudioLeadIn: 0
PreviewTime: 67933
Countdown: 0
SampleSet: None
StackLeniency: 0.7
Mode: 3
LetterboxInBreaks: 0
SpecialStyle: 0
WidescreenStoryboard: 0

[Editor]
DistanceSpacing: 1
BeatDivisor: 2
GridSize: 4
TimelineZoom: 1.7

[Metadata]
Title:Chaosmaid
TitleUnicode:Chaosmaid
Artist:Paraoka Feat. Iku Akume
ArtistUnicode:Paraoka Feat. Iku Akume
Creator:Ripazhakgggdkp
Version:Normal
Source:
Tags:
BeatmapID:280359
BeatmapSetID:106856

[Difficulty]
HPDrainRate:7
CircleSize:7
OverallDifficulty:7
ApproachRate:5
SliderMultiplier:1.4
SliderTickRate:1

[Events]
//Background and Video events
0,0,"Chaosmaid.full.129153.jpg",0,0
//Break Periods
//Storyboard Layer 0 (Background)
//Storyboard Layer 1 (Fail)
//Storyboard Layer 2 (Pass)
//Storyboard Layer 3 (Foreground)
//Storyboard Sound Samples
//Background Colour Transformations
3,100,163,162,255

[TimingPoints]
632,317.460317460317,4,2,1,43,1,0
83489,-200,4,2,1,43,0,0
83806,-100,4,2,1,43,0,0
84124,-200,4,2,1,43,0,0
84441,-100,4,2,1,43,0,0
84758,-200,4,2,1,43,0,0
85076,-100,4,2,1,43,0,0
126425,-133.333333333333,4,2,1,43,0,0
126505,-200,4,2,1,43,0,0
126663,-100,4,2,1,43,0,0
127060,-133.333333333333,4,2,1,43,0,0
127139,-200,4,2,1,43,0,0
127298,-100,4,2,1,43,0,0
127695,-133.333333333333,4,2,1,43,0,0
127774,-200,4,2,1,43,0,0
127933,-100,4,2,1,43,0,0
128330,-133.333333333333,4,2,1,43,0,0
128409,-200,4,2,1,43,0,0
128568,-100,4,2,1,43,0,0
204124,-133.333333333333,4,2,1,43,0,0
204441,-100,4,2,1,43,0,0
204758,-133.333333333333,4,2,1,43,0,0
205076,-100,4,2,1,43,0,0
205393,-133.333333333333,4,2,1,43,0,0
205711,-100,4,2,1,43,0,0

[HitObjects]
180,192,632,128,0,791:0:0:0:0:
36,192,791,128,0,949:0:0:0:0:
180,192,949,128,0,1108:0:0:0:0:
36,192,1108,128,0,1267:0:0:0:0:
324,192,1267,128,0,1426:0:0:0:0:
108,192,1426,128,0,1584:0:0:0:0:
324,192,1584,128,0,1743:0:0:0:0:
396,192,1743,128,0,1902:0:0:0:0:
180,192,1902,128,0,2061:0:0:0:0:
468,192,2061,128,0,2219:0:0:0:0:
180,192,2219,128,0,2378:0:0:0:0:
324,192,2378,128,0,2457:0:0:0:0:
396,192,2457,128,0,2537:0:0:0:0:
36,192,2537,128,0,2695:0:0:0:0:
252,192,2695,128,0,2854:0:0:0:0:
324,192,2854,128,0,3013:0:0:0:0:
108,192,3013,128,0,3172:0:0:0:0:
324,192,3172,128,0,3330:0:0:0:0:
108,192,3330,128,0,3489:0:0:0:0:
324,192,3489,128,0,3648:0:0:0:0:
108,192,3648,128,0,3807:0:0:0:0:
468,192,3807,128,0,3965:0:0:0:0:
252,192,3965,128,0,4124:0:0:0:0:
396,192,4124,128,0,4283:0:0:0:0:
468,192,4283,128,0,4442:0:0:0:0:
180,192,4442,128,0,4600:0:0:0:0:
468,192,4600,128,0,4759:0:0:0:0:
324,192,4759,128,0,4918:0:0:0:0:
36,192,4918,128,0,5076:0:0:0:0:
252,192,5076,128,0,5235:0:0:0:0:
108,192,5235,128,0,5394:0:0:0:0:
324,192,5394,128,0,5553:0:0:0:0:
252,192,5553,128,0,5711:0:0:0:0:
180,192,5711,128,0,5870:0:0:0:0:
36,192,5870,128,0,6029:0:0:0:0:
180,192,6029,128,0,6188:0:0:0:0:
36,192,6188,128,0,6346:0:0:0:0:
324,192,6346,128,0,6505:0:0:0:0:
108,192,6505,128,0,6664:0:0:0:0:
324,192,6664,128,0,6822:0:0:0:0:
396,192,6822,128,0,6981:0:0:0:0:
180,192,6981,128,0,7140:0:0:0:0:
468,192,7140,128,0,7299:0:0:0:0:
180,192,7299,128,0,7457:0:0:0:0:
324,192,7457,128,0,7537:0:0:0:0:
396,192,7537,128,0,7616:0:0:0:0:
36,192,7616,128,0,7775:0:0:0:0:
252,192,7775,128,0,7934:0:0:0:0:
324,192,7934,128,0,8092:0:0:0:0:
108,192,8092,128,0,8251:0:0:0:0:
324,192,8251,128,0,8410:0:0:0:0:
108,192,8410,128,0,8569:0:0:0:0:
324,192,8569,128,0,8727:0:0:0:0:
108,192,8727,128,0,8886:0:0:0:0:
468,192,8886,128,0,9045:0:0:0:0:
252,192,9045,128,0,9203:0:0:0:0:
396,192,9203,128,0,9362:0:0:0:0:
468,192,9362,128,0,9521:0:0:0:0:
180,192,9521,128,0,9680:0:0:0:0:
468,192,9680,128,0,9838:0:0:0:0:
324,192,9838,128,0,9997:0:0:0:0:
36,192,9997,128,0,10156:0:0:0:0:
252,192,10156,128,0,10315:0:0:0:0:
108,192,10315,128,0,10473:0:0:0:0:
324,192,10473,128,0,10632:0:0:0:0:
252,192,10632,128,0,10791:0:0:0:0:
36,192,10791,1,4,0:0:0:0:
36,192,10949,1,0,0:0:0:0:
180,192,11029,1,0,0:0:0:0:
396,192,11108,1,0,0:0:0:0:
324,192,11188,1,0,0:0:0:0:
252,192,11267,1,0,0:0:0:0:
180,192,11346,1,0,0:0:0:0:
108,192,11426,1,8,0:0:0:0:
108,192,11584,1,0,0:0:0:0:
252,192,11664,1,0,0:0:0:0:
468,192,11743,1,0,0:0:0:0:
396,192,11822,1,0,0:0:0:0:
324,192,11902,1,0,0:0:0:0:
252,192,11981,1,0,0:0:0:0:
180,192,12061,1,8,0:0:0:0:
180,192,12219,1,0,0:0:0:0:
252,192,12299,1,0,0:0:0:0:
324,192,12378,1,0,0:0:0:0:
108,192,12457,1,0,0:0:0:0:
252,192,12537,1,0,0:0:0:0:
468,192,12616,1,0,0:0:0:0:
396,192,12695,1,0,0:0:0:0:
324,192,12775,1,0,0:0:0:0:
252,192,12854,1,0,0:0:0:0:
180,192,12934,1,0,0:0:0:0:
108,192,13013,1,0,0:0:0:0:
36,192,13092,1,0,0:0:0:0:
324,192,13172,1,0,0:0:0:0:
252,192,13251,1,0,0:0:0:0:
180,192,13330,1,8,0:0:0:0:
180,192,13489,1,0,0:0:0:0:
324,192,13569,1,0,0:0:0:0:
468,192,13648,1,0,0:0:0:0:
396,192,13727,1,0,0:0:0:0:
324,192,13807,1,0,0:0:0:0:
252,192,13886,1,0,0:0:0:0:
108,192,13965,1,8,0:0:0:0:
108,192,14124,1,0,0:0:0:0:
252,192,14203,1,0,0:0:0:0:
396,192,14283,1,0,0:0:0:0:
324,192,14362,1,0,0:0:0:0:
252,192,14442,1,0,0:0:0:0:
180,192,14521,1,0,0:0:0:0:
468,192,14600,128,8,14680:0:0:0:0:
108,192,14759,128,0,14838:0:0:0:0:
324,192,14918,128,0,14997:0:0:0:0:
36,192,15076,128,0,15156:0:0:0:0:
324,192,15235,1,8,0:0:0:0:
252,192,15315,1,0,0:0:0:0:
180,192,15394,1,0,0:0:0:0:
468,192,15473,1,0,0:0:0:0:
396,192,15553,1,0,0:0:0:0:
324,192,15632,1,0,0:0:0:0:
180,192,15711,1,0,0:0:0:0:
108,192,15791,1,0,0:0:0:0:
468,192,15870,1,4,0:0:0:0:
468,192,16029,1,0,0:0:0:0:
324,192,16108,1,0,0:0:0:0:
108,192,16188,1,0,0:0:0:0:
180,192,16267,1,0,0:0:0:0:
252,192,16346,1,0,0:0:0:0:
324,192,16426,1,0,0:0:0:0:
396,192,16505,1,8,0:0:0:0:
396,192,16664,1,0,0:0:0:0:
252,192,16743,1,0,0:0:0:0:
36,192,16822,1,0,0:0:0:0:
108,192,16902,1,0,0:0:0:0:
180,192,16981,1,0,0:0:0:0:
252,192,17061,1,0,0:0:0:0:
324,192,17140,1,8,0:0:0:0:
324,192,17299,1,0,0:0:0:0:
252,192,17378,1,0,0:0:0:0:
180,192,17457,1,0,0:0:0:0:
108,192,17537,1,0,0:0:0:0:
36,192,17616,1,0,0:0:0:0:
396,192,17695,1,0,0:0:0:0:
252,192,17775,1,8,0:0:0:0:
324,192,17854,1,0,0:0:0:0:
396,192,17934,1,0,0:0:0:0:
468,192,18013,1,0,0:0:0:0:
36,192,18092,1,0,0:0:0:0:
108,192,18172,1,0,0:0:0:0:
180,192,18251,1,0,0:0:0:0:
252,192,18330,1,0,0:0:0:0:
324,192,18410,1,4,0:0:0:0:
324,192,18569,1,0,0:0:0:0:
180,192,18648,1,0,0:0:0:0:
108,192,18727,1,0,0:0:0:0:
180,192,18807,1,0,0:0:0:0:
252,192,18886,1,0,0:0:0:0:
324,192,18965,1,0,0:0:0:0:
396,192,19045,1,8,0:0:0:0:
396,192,19203,1,0,0:0:0:0:
252,192,19283,1,0,0:0:0:0:
180,192,19362,1,0,0:0:0:0:
252,192,19442,1,0,0:0:0:0:
324,192,19521,1,0,0:0:0:0:
396,192,19600,1,0,0:0:0:0:
468,192,19680,128,8,19759:0:0:0:0:
180,192,19838,128,0,19918:0:0:0:0:
396,192,19997,128,0,20076:0:0:0:0:
108,192,20156,128,0,20235:0:0:0:0:
36,192,20315,1,8,0:0:0:0:
108,192,20394,1,0,0:0:0:0:
252,192,20473,1,0,0:0:0:0:
468,192,20553,1,0,0:0:0:0:
180,192,20632,1,0,0:0:0:0:
252,192,20711,1,0,0:0:0:0:
324,192,20791,1,0,0:0:0:0:
396,192,20870,1,0,0:0:0:0:
180,192,20949,128,4,21108:0:0:0:0:
36,192,21108,128,0,21267:0:0:0:0:
180,192,21267,128,0,21426:0:0:0:0:
36,192,21426,128,0,21584:0:0:0:0:
324,192,21584,128,0,21743:0:0:0:0:
108,192,21743,128,0,21902:0:0:0:0:
324,192,21902,128,0,22061:0:0:0:0:
396,192,22061,128,0,22219:0:0:0:0:
180,192,22219,128,0,22378:0:0:0:0:
324,192,22378,128,0,22537:0:0:0:0:
468,192,22537,128,0,22695:0:0:0:0:
108,192,22695,128,0,22854:0:0:0:0:
396,192,22854,128,0,23013:0:0:0:0:
180,192,23013,128,0,23172:0:0:0:0:
324,192,23172,128,0,23330:0:0:0:0:
108,192,23330,128,0,23489:0:0:0:0:
468,192,23489,1,4,0:0:0:0:
468,192,23648,1,0,0:0:0:0:
468,192,23807,1,0,0:0:0:0:
396,192,23965,1,0,0:0:0:0:
252,192,24124,1,8,0:0:0:0:
252,192,24283,1,0,0:0:0:0:
252,192,24600,1,0,0:0:0:0:
180,192,24759,1,8,0:0:0:0:
180,192,24918,1,0,0:0:0:0:
180,192,25076,1,0,0:0:0:0:
324,192,25235,1,0,0:0:0:0:
252,192,25394,1,8,0:0:0:0:
180,192,25553,1,0,0:0:0:0:
108,192,25711,1,0,0:0:0:0:
252,192,25870,1,0,0:0:0:0:
180,192,26029,1,8,0:0:0:0:
256,192,26187,1,0,0:0:0:0:
468,192,26505,1,0,0:0:0:0:
468,192,26664,1,8,0:0:0:0:
468,192,26981,1,0,0:0:0:0:
108,192,27299,1,8,0:0:0:0:
108,192,27457,1,0,0:0:0:0:
324,192,27775,1,0,0:0:0:0:
402,192,27933,1,0,0:0:0:0:
402,192,28251,1,0,0:0:0:0:
36,192,28569,1,0,0:0:0:0:
468,192,29045,1,0,0:0:0:0:
396,192,29203,1,8,0:0:0:0:
324,192,29362,1,0,0:0:0:0:
252,192,29521,1,0,0:0:0:0:
180,192,29680,1,0,0:0:0:0:
252,192,29838,1,8,0:0:0:0:
324,192,30156,1,0,0:0:0:0:
180,192,30473,1,8,0:0:0:0:
36,192,30949,1,0,0:0:0:0:
108,192,31108,1,8,0:0:0:0:
252,192,31584,1,0,0:0:0:0:
396,192,31743,1,8,0:0:0:0:
180,192,32219,1,0,0:0:0:0:
108,192,32378,1,8,0:0:0:0:
36,192,32854,1,0,0:0:0:0:
108,192,33013,1,8,0:0:0:0:
396,192,33648,1,4,0:0:0:0:
396,192,33807,1,0,0:0:0:0:
468,192,34124,1,0,0:0:0:0:
252,192,34283,1,8,0:0:0:0:
252,192,34442,1,0,0:0:0:0:
252,192,34759,1,0,0:0:0:0:
180,192,34918,1,8,0:0:0:0:
324,192,35394,1,0,0:0:0:0:
252,192,35553,1,8,0:0:0:0:
180,192,35711,1,0,0:0:0:0:
108,192,35870,1,0,0:0:0:0:
252,192,36029,1,0,0:0:0:0:
180,192,36188,1,8,0:0:0:0:
256,192,36346,1,0,0:0:0:0:
468,192,36664,1,0,0:0:0:0:
468,192,36822,1,8,0:0:0:0:
468,192,37140,1,0,0:0:0:0:
108,192,37457,1,8,0:0:0:0:
108,192,37616,1,0,0:0:0:0:
324,192,37934,1,0,0:0:0:0:
324,192,38092,1,8,0:0:0:0:
324,192,38410,1,0,0:0:0:0:
36,192,38727,1,8,0:0:0:0:
468,192,39203,1,0,0:0:0:0:
396,192,39362,1,8,0:0:0:0:
324,192,39521,1,0,0:0:0:0:
252,192,39680,1,0,0:0:0:0:
108,192,39838,1,0,0:0:0:0:
180,192,39997,1,8,0:0:0:0:
252,192,40315,1,0,0:0:0:0:
468,192,40632,1,8,0:0:0:0:
180,192,40949,1,0,0:0:0:0:
108,192,41267,1,8,0:0:0:0:
324,192,41584,1,0,0:0:0:0:
180,192,41902,1,8,0:0:0:0:
468,192,42219,1,0,0:0:0:0:
36,192,42537,1,8,0:0:0:0:
108,192,42854,1,0,0:0:0:0:
180,192,43172,1,8,0:0:0:0:
396,192,43489,1,0,0:0:0:0:
36,192,43807,1,4,0:0:0:0:
468,192,43807,1,0,0:0:0:0:
396,192,43965,1,0,0:0:0:0:
324,192,44124,1,0,0:0:0:0:
252,192,44283,1,4,0:0:0:0:
36,192,44283,1,0,0:0:0:0:
324,192,44600,1,0,0:0:0:0:
468,192,44918,1,0,0:0:0:0:
252,192,45235,1,0,0:0:0:0:
180,192,45394,1,0,0:0:0:0:
108,192,45553,1,0,0:0:0:0:
180,192,45711,1,8,0:0:0:0:
180,192,45870,1,0,0:0:0:0:
468,192,46188,1,0,0:0:0:0:
36,192,46346,1,4,0:0:0:0:
468,192,46346,1,0,0:0:0:0:
396,192,46505,1,0,0:0:0:0:
324,192,46664,1,0,0:0:0:0:
252,192,46822,1,4,0:0:0:0:
36,192,46822,1,0,0:0:0:0:
324,192,47140,1,0,0:0:0:0:
468,192,47457,1,0,0:0:0:0:
396,192,47775,1,0,0:0:0:0:
324,192,47934,1,0,0:0:0:0:
252,192,48092,1,0,0:0:0:0:
324,192,48251,1,8,0:0:0:0:
324,192,48410,1,0,0:0:0:0:
468,192,48886,1,4,0:0:0:0:
252,192,48886,1,0,0:0:0:0:
180,192,49045,1,0,0:0:0:0:
108,192,49203,1,0,0:0:0:0:
36,192,49362,1,4,0:0:0:0:
468,192,49362,1,4,0:0:0:0:
108,192,49680,1,0,0:0:0:0:
36,192,49997,1,0,0:0:0:0:
108,192,50315,1,0,0:0:0:0:
180,192,50473,1,0,0:0:0:0:
252,192,50632,1,0,0:0:0:0:
180,192,50791,1,8,0:0:0:0:
180,192,50949,1,0,0:0:0:0:
468,192,51426,1,4,0:0:0:0:
36,192,51426,1,4,0:0:0:0:
108,192,51584,1,0,0:0:0:0:
180,192,51743,1,4,0:0:0:0:
468,192,51902,1,0,0:0:0:0:
252,192,51902,1,0,0:0:0:0:
180,192,52219,1,0,0:0:0:0:
36,192,52537,1,0,0:0:0:0:
396,192,52854,1,0,0:0:0:0:
108,192,53013,1,0,0:0:0:0:
324,192,53172,1,0,0:0:0:0:
180,192,53330,1,8,0:0:0:0:
180,192,53489,1,0,0:0:0:0:
36,192,53648,1,0,0:0:0:0:
108,192,53727,1,0,0:0:0:0:
180,192,53807,1,0,0:0:0:0:
252,192,53886,1,0,0:0:0:0:
324,192,53965,1,4,0:0:0:0:
252,192,54124,1,0,0:0:0:0:
180,192,54283,1,0,0:0:0:0:
108,192,54442,1,8,0:0:0:0:
180,192,54759,1,8,0:0:0:0:
36,192,55076,128,4,57775:0:0:0:0:
468,192,56505,128,0,57775:0:0:0:0:
108,192,57775,1,0,0:0:0:0:
180,192,57934,1,0,0:0:0:0:
252,192,58092,1,0,0:0:0:0:
468,192,58251,1,0,0:0:0:0:
324,192,58410,1,0,0:0:0:0:
108,192,58886,1,0,0:0:0:0:
36,192,59045,1,0,0:0:0:0:
108,192,59203,1,0,0:0:0:0:
180,192,59362,1,0,0:0:0:0:
396,192,59521,1,0,0:0:0:0:
252,192,59838,1,0,0:0:0:0:
108,192,60315,1,0,0:0:0:0:
180,192,60473,1,0,0:0:0:0:
252,192,60632,1,0,0:0:0:0:
468,192,60791,1,0,0:0:0:0:
396,192,61108,1,0,0:0:0:0:
252,192,61426,1,0,0:0:0:0:
36,192,61584,1,0,0:0:0:0:
252,192,61743,1,0,0:0:0:0:
324,192,61902,1,0,0:0:0:0:
396,192,62061,1,0,0:0:0:0:
468,192,62378,1,0,0:0:0:0:
108,192,62854,1,0,0:0:0:0:
180,192,63013,1,0,0:0:0:0:
252,192,63172,1,0,0:0:0:0:
324,192,63330,1,0,0:0:0:0:
180,192,63648,1,0,0:0:0:0:
108,192,63965,1,0,0:0:0:0:
36,192,64124,1,0,0:0:0:0:
108,192,64283,1,0,0:0:0:0:
180,192,64442,1,0,0:0:0:0:
396,192,64600,1,0,0:0:0:0:
252,192,64918,1,0,0:0:0:0:
108,192,65394,1,0,0:0:0:0:
180,192,65553,1,0,0:0:0:0:
252,192,65711,1,0,0:0:0:0:
396,192,65870,1,0,0:0:0:0:
324,192,66188,1,0,0:0:0:0:
36,192,66664,1,8,0:0:0:0:
252,192,66664,1,0,0:0:0:0:
396,192,66822,1,0,0:0:0:0:
180,192,66902,1,0,0:0:0:0:
396,192,66981,1,0,0:0:0:0:
180,192,67061,1,0,0:0:0:0:
108,192,67140,1,0,0:0:0:0:
36,192,67299,1,0,0:0:0:0:
180,192,67378,1,0,0:0:0:0:
324,192,67457,1,0,0:0:0:0:
396,192,67537,1,0,0:0:0:0:
108,192,67616,1,0,0:0:0:0:
180,192,67695,1,0,0:0:0:0:
324,192,67775,1,0,0:0:0:0:
468,192,67854,1,0,0:0:0:0:
36,192,67934,1,4,0:0:0:0:
108,192,68013,1,0,0:0:0:0:
180,192,68092,1,0,0:0:0:0:
252,192,68172,1,0,0:0:0:0:
468,192,68251,1,0,0:0:0:0:
396,192,68330,1,0,0:0:0:0:
180,192,68410,1,0,0:0:0:0:
108,192,68489,1,0,0:0:0:0:
36,192,68569,1,8,0:0:0:0:
252,192,68648,1,0,0:0:0:0:
324,192,68727,1,0,0:0:0:0:
396,192,68807,1,0,0:0:0:0:
468,192,68886,1,0,0:0:0:0:
252,192,68965,1,0,0:0:0:0:
180,192,69045,1,0,0:0:0:0:
108,192,69124,1,0,0:0:0:0:
36,192,69203,1,8,0:0:0:0:
108,192,69283,1,0,0:0:0:0:
180,192,69362,1,0,0:0:0:0:
252,192,69442,1,0,0:0:0:0:
324,192,69521,1,0,0:0:0:0:
396,192,69600,1,0,0:0:0:0:
252,192,69680,1,0,0:0:0:0:
468,192,69759,1,0,0:0:0:0:
396,192,69838,1,8,0:0:0:0:
324,192,69918,1,0,0:0:0:0:
252,192,69997,1,0,0:0:0:0:
180,192,70076,1,0,0:0:0:0:
324,192,70156,1,0,0:0:0:0:
252,192,70235,1,0,0:0:0:0:
180,192,70315,1,0,0:0:0:0:
108,192,70394,1,0,0:0:0:0:
36,192,70473,1,4,0:0:0:0:
108,192,70553,1,0,0:0:0:0:
180,192,70632,1,0,0:0:0:0:
252,192,70711,1,0,0:0:0:0:
468,192,70791,1,0,0:0:0:0:
396,192,70870,1,0,0:0:0:0:
324,192,70949,1,0,0:0:0:0:
252,192,71029,1,0,0:0:0:0:
108,192,71108,1,8,0:0:0:0:
180,192,71188,1,0,0:0:0:0:
252,192,71267,1,0,0:0:0:0:
324,192,71346,1,0,0:0:0:0:
396,192,71426,1,0,0:0:0:0:
252,192,71505,1,0,0:0:0:0:
180,192,71584,1,0,0:0:0:0:
108,192,71664,1,0,0:0:0:0:
468,192,71743,128,8,71822:0:0:0:0:
180,192,71902,128,0,71981:0:0:0:0:
324,192,72061,128,0,72140:0:0:0:0:
108,192,72219,128,0,72299:0:0:0:0:
252,192,72378,128,8,72457:0:0:0:0:
36,192,72537,128,0,72616:0:0:0:0:
468,192,72695,1,0,0:0:0:0:
324,192,72775,1,0,0:0:0:0:
180,192,72854,1,0,0:0:0:0:
36,192,72934,1,0,0:0:0:0:
108,192,73013,1,4,0:0:0:0:
180,192,73092,1,0,0:0:0:0:
252,192,73172,1,0,0:0:0:0:
324,192,73251,1,0,0:0:0:0:
468,192,73330,1,0,0:0:0:0:
396,192,73410,1,0,0:0:0:0:
324,192,73489,1,0,0:0:0:0:
252,192,73569,1,0,0:0:0:0:
180,192,73648,1,8,0:0:0:0:
252,192,73727,1,0,0:0:0:0:
324,192,73807,1,0,0:0:0:0:
396,192,73886,1,0,0:0:0:0:
468,192,73965,1,0,0:0:0:0:
324,192,74045,1,0,0:0:0:0:
252,192,74124,1,0,0:0:0:0:
180,192,74203,1,0,0:0:0:0:
36,192,74283,1,0,0:0:0:0:
252,192,74362,1,0,0:0:0:0:
324,192,74442,1,0,0:0:0:0:
396,192,74521,1,0,0:0:0:0:
108,192,74600,1,0,0:0:0:0:
180,192,74680,1,0,0:0:0:0:
252,192,74759,1,0,0:0:0:0:
468,192,74838,1,0,0:0:0:0:
396,192,74918,1,8,0:0:0:0:
324,192,74997,1,0,0:0:0:0:
180,192,75076,1,0,0:0:0:0:
108,192,75156,1,0,0:0:0:0:
324,192,75235,1,0,0:0:0:0:
252,192,75315,1,0,0:0:0:0:
180,192,75394,1,0,0:0:0:0:
108,192,75473,1,0,0:0:0:0:
36,192,75553,1,4,0:0:0:0:
108,192,75632,1,0,0:0:0:0:
180,192,75711,1,0,0:0:0:0:
324,192,75791,1,0,0:0:0:0:
468,192,75870,1,0,0:0:0:0:
324,192,75949,1,0,0:0:0:0:
252,192,76029,1,0,0:0:0:0:
180,192,76108,1,0,0:0:0:0:
36,192,76188,1,8,0:0:0:0:
108,192,76267,1,0,0:0:0:0:
180,192,76346,1,0,0:0:0:0:
252,192,76426,1,0,0:0:0:0:
468,192,76505,1,0,0:0:0:0:
252,192,76584,1,0,0:0:0:0:
180,192,76664,1,0,0:0:0:0:
108,192,76743,1,0,0:0:0:0:
468,192,76822,128,8,76902:0:0:0:0:
252,192,76981,128,0,77061:0:0:0:0:
396,192,77140,128,0,77219:0:0:0:0:
180,192,77299,128,0,77378:0:0:0:0:
324,192,77457,128,8,77537:0:0:0:0:
108,192,77616,128,0,77696:0:0:0:0:
468,192,77775,1,0,0:0:0:0:
324,192,77854,1,0,0:0:0:0:
180,192,77934,1,0,0:0:0:0:
108,192,78013,1,0,0:0:0:0:
36,192,78092,128,4,78172:0:0:0:0:
252,192,78092,128,4,78172:0:0:0:0:
396,192,78251,128,0,78330:0:0:0:0:
180,192,78251,128,0,78330:0:0:0:0:
324,192,78410,128,0,78489:0:0:0:0:
468,192,78410,128,0,78489:0:0:0:0:
180,192,78569,128,0,78648:0:0:0:0:
396,192,78569,128,0,78648:0:0:0:0:
108,192,78727,128,8,78807:0:0:0:0:
252,192,78727,128,0,78807:0:0:0:0:
180,192,78886,128,0,78965:0:0:0:0:
396,192,78886,128,0,78965:0:0:0:0:
324,192,79045,128,0,79124:0:0:0:0:
468,192,79045,128,0,79124:0:0:0:0:
180,192,79203,128,0,79283:0:0:0:0:
396,192,79203,128,0,79283:0:0:0:0:
108,192,79362,128,8,79442:0:0:0:0:
36,192,79362,128,0,79442:0:0:0:0:
180,192,79521,128,0,79600:0:0:0:0:
252,192,79521,128,0,79600:0:0:0:0:
324,192,79680,128,0,79759:0:0:0:0:
396,192,79680,128,0,79759:0:0:0:0:
252,192,79838,128,0,79918:0:0:0:0:
468,192,79838,128,0,79918:0:0:0:0:
180,192,79997,128,8,80076:0:0:0:0:
396,192,79997,128,8,80076:0:0:0:0:
324,192,80156,128,0,80235:0:0:0:0:
108,192,80156,128,0,80235:0:0:0:0:
36,192,80315,128,0,80394:0:0:0:0:
252,192,80315,128,0,80394:0:0:0:0:
108,192,80473,128,0,80553:0:0:0:0:
180,192,80473,128,0,80553:0:0:0:0:
36,192,80632,128,8,80711:0:0:0:0:
252,192,80632,128,8,80711:0:0:0:0:
180,192,80791,128,0,80870:0:0:0:0:
396,192,80791,128,0,80870:0:0:0:0:
324,192,80949,128,0,81029:0:0:0:0:
468,192,80949,128,0,81029:0:0:0:0:
180,192,81108,128,0,81188:0:0:0:0:
396,192,81108,128,0,81188:0:0:0:0:
36,192,81267,128,8,81346:0:0:0:0:
108,192,81267,128,8,81346:0:0:0:0:
324,192,81426,128,0,81505:0:0:0:0:
180,192,81426,128,0,81505:0:0:0:0:
396,192,81584,128,0,81664:0:0:0:0:
468,192,81584,128,0,81664:0:0:0:0:
180,192,81743,128,0,81822:0:0:0:0:
324,192,81743,128,0,81822:0:0:0:0:
252,192,81902,128,8,81981:0:0:0:0:
468,192,81902,128,0,81981:0:0:0:0:
36,192,82061,128,0,82140:0:0:0:0:
324,192,82061,128,0,82140:0:0:0:0:
180,192,82219,128,0,82299:0:0:0:0:
396,192,82219,128,0,82299:0:0:0:0:
108,192,82378,128,0,82457:0:0:0:0:
252,192,82378,128,0,82457:0:0:0:0:
324,192,82537,128,8,82616:0:0:0:0:
396,192,82537,128,0,82616:0:0:0:0:
36,192,82695,128,0,82775:0:0:0:0:
180,192,82695,128,0,82775:0:0:0:0:
252,192,82854,128,0,82934:0:0:0:0:
396,192,82854,128,0,82934:0:0:0:0:
180,192,83013,128,0,83092:0:0:0:0:
108,192,83013,128,0,83092:0:0:0:0:
252,192,83172,1,4,0:0:0:0:
36,192,83172,1,0,0:0:0:0:
468,192,83330,1,0,0:0:0:0:
252,192,83330,1,0,0:0:0:0:
108,192,83807,1,4,0:0:0:0:
252,192,83807,1,0,0:0:0:0:
252,192,83965,1,0,0:0:0:0:
396,192,83965,1,0,0:0:0:0:
252,192,84442,1,4,0:0:0:0:
180,192,84442,1,0,0:0:0:0:
252,192,84600,1,0,0:0:0:0:
324,192,84600,1,0,0:0:0:0:
468,192,85076,1,4,0:0:0:0:
396,192,85156,1,0,0:0:0:0:
324,192,85235,1,0,0:0:0:0:
252,192,85315,1,0,0:0:0:0:
324,192,85394,1,0,0:0:0:0:
252,192,85473,1,0,0:0:0:0:
180,192,85553,1,0,0:0:0:0:
108,192,85632,1,0,0:0:0:0:
36,192,85711,1,4,0:0:0:0:
324,192,85791,1,0,0:0:0:0:
180,192,85870,1,0,0:0:0:0:
396,192,85949,1,0,0:0:0:0:
468,192,86029,1,0,0:0:0:0:
324,192,86108,1,0,0:0:0:0:
180,192,86188,1,0,0:0:0:0:
108,192,86267,1,0,0:0:0:0:
324,192,86346,1,8,0:0:0:0:
180,192,86426,1,0,0:0:0:0:
396,192,86505,1,0,0:0:0:0:
108,192,86584,1,0,0:0:0:0:
468,192,86664,1,0,0:0:0:0:
324,192,86743,1,0,0:0:0:0:
180,192,86822,1,0,0:0:0:0:
36,192,86902,1,0,0:0:0:0:
324,192,86981,1,8,0:0:0:0:
108,192,87061,1,0,0:0:0:0:
252,192,87140,1,0,0:0:0:0:
180,192,87219,1,0,0:0:0:0:
396,192,87299,1,0,0:0:0:0:
252,192,87378,1,0,0:0:0:0:
108,192,87457,1,0,0:0:0:0:
180,192,87537,1,0,0:0:0:0:
36,192,87616,1,8,0:0:0:0:
252,192,87695,1,0,0:0:0:0:
108,192,87775,1,0,0:0:0:0:
324,192,87854,1,0,0:0:0:0:
468,192,87934,1,0,0:0:0:0:
252,192,88013,1,0,0:0:0:0:
108,192,88092,1,0,0:0:0:0:
180,192,88172,1,0,0:0:0:0:
396,192,88251,128,4,89203:0:0:0:0:
36,192,88251,128,4,89203:0:0:0:0:
252,192,89362,128,0,89521:0:0:0:0:
468,192,89521,128,0,90791:0:0:0:0:
180,192,89521,128,0,89838:0:0:0:0:
108,192,89838,128,0,89997:0:0:0:0:
36,192,89997,128,0,90156:0:0:0:0:
108,192,90156,128,0,90473:0:0:0:0:
324,192,90473,128,0,90632:0:0:0:0:
252,192,90632,128,0,90791:0:0:0:0:
36,192,90791,128,4,92061:0:0:0:0:
324,192,90791,128,0,91584:0:0:0:0:
396,192,91902,128,0,92061:0:0:0:0:
324,192,92061,128,0,92166:0:0:0:0:
108,192,92061,128,0,93330:0:0:0:0:
396,192,92166,128,0,92272:0:0:0:0:
324,192,92272,128,0,92378:0:0:0:0:
252,192,92378,128,0,92537:0:0:0:0:
324,192,92537,128,0,92695:0:0:0:0:
396,192,92695,128,0,92854:0:0:0:0:
180,192,93013,128,0,93172:0:0:0:0:
468,192,93172,128,0,93330:0:0:0:0:
180,192,93330,128,4,94283:0:0:0:0:
324,192,93330,128,0,94283:0:0:0:0:
252,192,94442,128,0,94600:0:0:0:0:
180,192,94600,128,0,94706:0:0:0:0:
396,192,94600,128,0,95870:0:0:0:0:
252,192,94706,128,0,94812:0:0:0:0:
180,192,94812,128,0,94918:0:0:0:0:
108,192,94918,128,0,95076:0:0:0:0:
36,192,95076,128,0,95235:0:0:0:0:
108,192,95235,128,0,95553:0:0:0:0:
324,192,95553,128,0,95711:0:0:0:0:
252,192,95711,128,0,95870:0:0:0:0:
36,192,95870,128,4,98410:0:0:0:0:
468,192,95870,128,0,98410:0:0:0:0:
108,192,98410,1,4,0:0:0:0:
180,192,98569,1,0,0:0:0:0:
252,192,98727,1,0,0:0:0:0:
396,192,98886,1,0,0:0:0:0:
468,192,99362,1,0,0:0:0:0:
108,192,99521,1,0,0:0:0:0:
468,192,99997,1,0,0:0:0:0:
108,192,100156,1,0,0:0:0:0:
468,192,100632,1,0,0:0:0:0:
108,192,100791,128,0,103489:0:0:0:0:
180,192,100949,1,4,0:0:0:0:
252,192,101108,1,0,0:0:0:0:
324,192,101267,1,0,0:0:0:0:
180,192,101426,1,0,0:0:0:0:
324,192,101584,1,0,0:0:0:0:
180,192,101743,1,0,0:0:0:0:
324,192,101902,1,0,0:0:0:0:
396,192,102061,1,0,0:0:0:0:
180,192,102219,1,0,0:0:0:0:
396,192,102378,1,0,0:0:0:0:
468,192,102537,1,0,0:0:0:0:
252,192,102695,1,0,0:0:0:0:
324,192,102854,1,0,0:0:0:0:
180,192,103013,1,0,0:0:0:0:
396,192,103172,1,0,0:0:0:0:
252,192,103330,1,0,0:0:0:0:
36,192,103489,1,4,0:0:0:0:
108,192,103648,1,0,0:0:0:0:
180,192,103807,1,8,0:0:0:0:
324,192,103965,1,0,0:0:0:0:
468,192,104442,1,8,0:0:0:0:
108,192,104600,1,0,0:0:0:0:
468,192,105076,1,8,0:0:0:0:
108,192,105235,1,0,0:0:0:0:
468,192,105711,1,8,0:0:0:0:
108,192,105870,128,0,108569:0:0:0:0:
180,192,106029,1,4,0:0:0:0:
252,192,106188,1,0,0:0:0:0:
324,192,106346,1,0,0:0:0:0:
180,192,106505,1,0,0:0:0:0:
324,192,106664,1,0,0:0:0:0:
252,192,106822,1,0,0:0:0:0:
396,192,106981,1,0,0:0:0:0:
468,192,107140,1,0,0:0:0:0:
252,192,107299,1,0,0:0:0:0:
396,192,107457,1,0,0:0:0:0:
468,192,107616,1,0,0:0:0:0:
252,192,107775,1,0,0:0:0:0:
396,192,107934,1,0,0:0:0:0:
180,192,108092,1,0,0:0:0:0:
324,192,108251,1,0,0:0:0:0:
252,192,108410,1,0,0:0:0:0:
468,192,108569,128,4,109838:0:0:0:0:
180,192,108569,128,0,109203:0:0:0:0:
108,192,109203,128,8,109838:0:0:0:0:
36,192,109838,128,8,110473:0:0:0:0:
324,192,109838,128,8,111108:0:0:0:0:
108,192,110473,128,8,110791:0:0:0:0:
180,192,110791,128,0,111108:0:0:0:0:
252,192,111108,128,4,111743:0:0:0:0:
396,192,111108,128,4,112378:0:0:0:0:
180,192,111743,128,8,112061:0:0:0:0:
36,192,112061,128,0,112378:0:0:0:0:
108,192,112378,128,8,112695:0:0:0:0:
324,192,112378,128,0,113648:0:0:0:0:
180,192,112695,128,0,113013:0:0:0:0:
108,192,113013,128,8,113330:0:0:0:0:
36,192,113330,128,0,113648:0:0:0:0:
468,192,113648,128,4,114918:0:0:0:0:
180,192,113648,128,4,114283:0:0:0:0:
324,192,114283,128,8,114918:0:0:0:0:
108,192,114918,128,8,116188:0:0:0:0:
396,192,114918,128,0,115235:0:0:0:0:
468,192,115235,128,0,115394:0:0:0:0:
396,192,115473,1,0,0:0:0:0:
324,192,115553,128,8,115870:0:0:0:0:
180,192,115870,128,0,116188:0:0:0:0:
36,192,116188,128,4,116822:0:0:0:0:
252,192,116188,128,4,116822:0:0:0:0:
180,192,116822,128,8,117457:0:0:0:0:
324,192,116822,128,0,117457:0:0:0:0:
108,192,117457,128,8,118092:0:0:0:0:
396,192,117457,128,0,118092:0:0:0:0:
468,192,118092,128,8,118727:0:0:0:0:
36,192,118092,128,8,118727:0:0:0:0:
180,192,118727,128,4,119362:0:0:0:0:
396,192,118727,128,4,119997:0:0:0:0:
324,192,118727,1,0,0:0:0:0:
108,192,119362,128,8,119997:0:0:0:0:
324,192,119997,128,8,121267:0:0:0:0:
36,192,119997,128,0,120632:0:0:0:0:
180,192,119997,1,0,0:0:0:0:
108,192,120632,128,8,120949:0:0:0:0:
180,192,120949,128,0,121267:0:0:0:0:
396,192,121267,128,4,122537:0:0:0:0:
252,192,121267,128,4,121902:0:0:0:0:
108,192,121267,1,0,0:0:0:0:
180,192,121902,128,8,122219:0:0:0:0:
36,192,122219,128,0,122537:0:0:0:0:
324,192,122537,128,0,123807:0:0:0:0:
108,192,122537,128,0,122854:0:0:0:0:
468,192,122537,1,0,0:0:0:0:
180,192,122854,128,0,123172:0:0:0:0:
108,192,123172,128,8,123489:0:0:0:0:
36,192,123489,128,0,123807:0:0:0:0:
180,192,123807,128,4,124442:0:0:0:0:
468,192,123807,128,0,125076:0:0:0:0:
108,192,123807,1,0,0:0:0:0:
324,192,124442,128,8,125076:0:0:0:0:
396,192,125076,128,8,125394:0:0:0:0:
108,192,125076,128,0,126346:0:0:0:0:
252,192,125076,1,0,0:0:0:0:
468,192,125394,128,0,125553:0:0:0:0:
396,192,125632,1,0,0:0:0:0:
324,192,125711,128,8,126029:0:0:0:0:
180,192,126029,128,0,126346:0:0:0:0:
36,192,126346,128,4,126664:0:0:0:0:
396,192,126346,128,0,126664:0:0:0:0:
108,192,126664,1,0,0:0:0:0:
180,192,126743,1,0,0:0:0:0:
252,192,126822,1,0,0:0:0:0:
324,192,126902,1,0,0:0:0:0:
468,192,126981,128,4,127299:0:0:0:0:
108,192,126981,128,4,127299:0:0:0:0:
180,192,127299,1,0,0:0:0:0:
252,192,127378,1,0,0:0:0:0:
324,192,127457,1,0,0:0:0:0:
396,192,127537,1,0,0:0:0:0:
36,192,127616,128,4,127934:0:0:0:0:
468,192,127616,128,4,127934:0:0:0:0:
108,192,127934,1,0,0:0:0:0:
180,192,128013,1,0,0:0:0:0:
252,192,128092,1,0,0:0:0:0:
324,192,128172,1,0,0:0:0:0:
108,192,128251,128,4,128569:0:0:0:0:
396,192,128251,128,4,128569:0:0:0:0:
36,192,128569,1,0,0:0:0:0:
180,192,128648,1,0,0:0:0:0:
324,192,128727,1,0,0:0:0:0:
468,192,128807,1,0,0:0:0:0:
108,192,128886,128,4,131426:0:0:0:0:
180,192,128886,128,4,129521:0:0:0:0:
252,192,129521,128,8,129680:0:0:0:0:
324,192,129680,128,0,129838:0:0:0:0:
468,192,129838,128,0,129997:0:0:0:0:
252,192,129997,128,0,130473:0:0:0:0:
180,192,130473,128,0,130949:0:0:0:0:
396,192,130949,128,0,131267:0:0:0:0:
324,192,131267,1,0,0:0:0:0:
252,192,131346,1,0,0:0:0:0:
36,192,131426,128,4,132537:0:0:0:0:
180,192,131426,128,0,132061:0:0:0:0:
108,192,132061,128,8,132219:0:0:0:0:
180,192,132219,128,0,132378:0:0:0:0:
396,192,132378,128,0,132537:0:0:0:0:
252,192,132537,128,0,132854:0:0:0:0:
180,192,132537,128,0,133807:0:0:0:0:
396,192,132854,128,0,133013:0:0:0:0:
468,192,133013,128,0,133172:0:0:0:0:
324,192,133172,128,0,133330:0:0:0:0:
396,192,133330,128,8,133489:0:0:0:0:
252,192,133489,128,0,133648:0:0:0:0:
324,192,133648,128,0,133807:0:0:0:0:
36,192,133807,128,0,133965:0:0:0:0:
108,192,133965,128,4,134600:0:0:0:0:
396,192,133965,128,4,135076:0:0:0:0:
36,192,134600,128,8,134759:0:0:0:0:
180,192,134759,128,0,134918:0:0:0:0:
324,192,134918,128,0,135076:0:0:0:0:
36,192,135076,1,4,0:0:0:0:
36,192,135394,1,4,0:0:0:0:
468,192,135553,128,0,136505:0:0:0:0:
324,192,136505,128,8,136584:0:0:0:0:
180,192,136505,128,0,136584:0:0:0:0:
252,192,136505,128,0,136584:0:0:0:0:
180,192,136664,1,0,0:0:0:0:
252,192,136664,1,0,0:0:0:0:
324,192,136664,1,0,0:0:0:0:
396,192,136822,128,8,136902:0:0:0:0:
324,192,136822,128,0,136902:0:0:0:0:
468,192,136822,128,0,136902:0:0:0:0:
396,192,136981,1,0,0:0:0:0:
324,192,136981,1,0,0:0:0:0:
468,192,136981,1,0,0:0:0:0:
36,192,137140,128,8,137219:0:0:0:0:
180,192,137140,128,0,137219:0:0:0:0:
108,192,137140,128,0,137219:0:0:0:0:
36,192,137299,1,0,0:0:0:0:
108,192,137299,1,0,0:0:0:0:
180,192,137299,1,0,0:0:0:0:
180,192,137457,1,8,0:0:0:0:
324,192,137616,1,8,0:0:0:0:
108,192,137775,128,8,137854:0:0:0:0:
36,192,137775,128,0,137854:0:0:0:0:
180,192,137775,128,0,137854:0:0:0:0:
36,192,137934,1,0,0:0:0:0:
108,192,137934,1,0,0:0:0:0:
180,192,137934,1,0,0:0:0:0:
468,192,138092,1,8,0:0:0:0:
324,192,138251,1,8,0:0:0:0:
108,192,138410,128,8,138489:0:0:0:0:
252,192,138410,128,0,138489:0:0:0:0:
36,192,138410,128,0,138489:0:0:0:0:
108,192,138569,1,0,0:0:0:0:
36,192,138569,1,0,0:0:0:0:
252,192,138569,1,0,0:0:0:0:
180,192,138727,128,8,138885:0:0:0:0:
324,192,138727,128,0,138885:0:0:0:0:
396,192,138727,128,0,138885:0:0:0:0:
252,192,139044,128,4,140314:0:0:0:0:
468,192,139045,128,0,142854:0:0:0:0:
36,192,139045,128,0,142854:0:0:0:0:
324,192,140314,128,0,141584:0:0:0:0:
180,192,141584,128,4,142854:0:0:0:0:
108,192,142854,1,4,0:0:0:0:
324,192,143013,1,0,0:0:0:0:
252,192,143092,1,0,0:0:0:0:
108,192,143172,1,4,0:0:0:0:
324,192,143330,1,0,0:0:0:0:
252,192,143410,1,0,0:0:0:0:
36,192,143489,1,4,0:0:0:0:
108,192,143569,1,0,0:0:0:0:
180,192,143648,1,0,0:0:0:0:
252,192,143727,1,0,0:0:0:0:
36,192,143807,1,4,0:0:0:0:
108,192,143886,1,0,0:0:0:0:
180,192,143965,1,0,0:0:0:0:
252,192,144045,1,0,0:0:0:0:
468,192,144124,1,4,0:0:0:0:
108,192,144124,1,0,0:0:0:0:
468,192,144283,1,0,0:0:0:0:
468,192,144442,1,0,0:0:0:0:
396,192,144600,1,0,0:0:0:0:
252,192,144759,1,8,0:0:0:0:
252,192,144918,1,0,0:0:0:0:
252,192,145235,1,0,0:0:0:0:
180,192,145394,1,8,0:0:0:0:
396,192,145394,1,8,0:0:0:0:
180,192,145553,1,0,0:0:0:0:
180,192,145711,1,0,0:0:0:0:
324,192,145870,1,0,0:0:0:0:
252,192,146029,1,8,0:0:0:0:
180,192,146188,1,0,0:0:0:0:
108,192,146346,1,0,0:0:0:0:
252,192,146505,1,0,0:0:0:0:
324,192,146664,1,8,0:0:0:0:
180,192,146664,1,0,0:0:0:0:
180,192,146822,1,0,0:0:0:0:
402,192,147139,1,0,0:0:0:0:
468,192,147299,1,8,0:0:0:0:
468,192,147616,1,0,0:0:0:0:
468,192,147934,1,8,0:0:0:0:
108,192,147934,1,8,0:0:0:0:
108,192,148092,1,0,0:0:0:0:
402,192,148409,1,0,0:0:0:0:
256,192,148568,1,0,0:0:0:0:
329,192,148727,1,0,0:0:0:0:
180,192,149203,1,8,0:0:0:0:
36,192,149203,1,8,0:0:0:0:
468,192,149680,1,0,0:0:0:0:
396,192,149838,1,8,0:0:0:0:
324,192,149997,1,0,0:0:0:0:
252,192,150156,1,0,0:0:0:0:
180,192,150315,1,0,0:0:0:0:
252,192,150473,1,8,0:0:0:0:
36,192,150473,1,8,0:0:0:0:
324,192,150791,1,0,0:0:0:0:
180,192,151108,1,8,0:0:0:0:
36,192,151584,1,0,0:0:0:0:
108,192,151743,1,8,0:0:0:0:
396,192,151743,1,0,0:0:0:0:
252,192,152219,1,0,0:0:0:0:
396,192,152378,1,8,0:0:0:0:
180,192,152854,1,0,0:0:0:0:
108,192,153013,1,8,0:0:0:0:
324,192,153013,1,0,0:0:0:0:
36,192,153489,1,0,0:0:0:0:
108,192,153648,1,8,0:0:0:0:
396,192,154283,1,4,0:0:0:0:
108,192,154283,1,0,0:0:0:0:
396,192,154442,1,0,0:0:0:0:
468,192,154759,1,0,0:0:0:0:
252,192,154918,1,8,0:0:0:0:
252,192,155076,1,0,0:0:0:0:
252,192,155394,1,0,0:0:0:0:
180,192,155553,1,8,0:0:0:0:
36,192,155553,1,0,0:0:0:0:
324,192,156029,1,0,0:0:0:0:
252,192,156188,1,0,0:0:0:0:
180,192,156346,1,0,0:0:0:0:
108,192,156505,1,0,0:0:0:0:
252,192,156664,1,0,0:0:0:0:
468,192,156822,1,8,0:0:0:0:
180,192,156822,1,0,0:0:0:0:
180,192,156981,1,0,0:0:0:0:
468,192,157299,1,0,0:0:0:0:
468,192,157457,1,8,0:0:0:0:
468,192,157775,1,0,0:0:0:0:
252,192,158092,1,8,0:0:0:0:
108,192,158092,1,0,0:0:0:0:
108,192,158251,1,0,0:0:0:0:
324,192,158569,1,0,0:0:0:0:
324,192,158727,1,8,0:0:0:0:
324,192,159045,1,0,0:0:0:0:
180,192,159362,1,8,0:0:0:0:
36,192,159362,1,8,0:0:0:0:
468,192,159838,1,0,0:0:0:0:
396,192,159997,1,8,0:0:0:0:
324,192,160156,1,0,0:0:0:0:
252,192,160315,1,0,0:0:0:0:
108,192,160473,1,0,0:0:0:0:
180,192,160632,1,8,0:0:0:0:
324,192,160632,1,8,0:0:0:0:
252,192,160949,1,0,0:0:0:0:
468,192,161267,1,8,0:0:0:0:
180,192,161584,1,0,0:0:0:0:
108,192,161902,1,8,0:0:0:0:
36,192,161902,1,0,0:0:0:0:
324,192,162219,1,0,0:0:0:0:
180,192,162537,1,8,0:0:0:0:
468,192,162854,1,0,0:0:0:0:
36,192,163172,1,8,0:0:0:0:
252,192,163172,1,0,0:0:0:0:
108,192,163489,1,0,0:0:0:0:
180,192,163807,1,8,0:0:0:0:
396,192,164124,1,0,0:0:0:0:
468,192,164442,1,4,0:0:0:0:
36,192,164442,1,0,0:0:0:0:
396,192,164600,1,0,0:0:0:0:
324,192,164759,1,0,0:0:0:0:
36,192,164918,1,4,0:0:0:0:
252,192,164918,1,0,0:0:0:0:
324,192,165235,1,0,0:0:0:0:
468,192,165553,1,0,0:0:0:0:
252,192,165870,1,0,0:0:0:0:
180,192,166029,1,0,0:0:0:0:
108,192,166188,1,0,0:0:0:0:
180,192,166346,1,8,0:0:0:0:
180,192,166505,1,0,0:0:0:0:
468,192,166822,1,0,0:0:0:0:
468,192,166981,1,4,0:0:0:0:
36,192,166981,1,0,0:0:0:0:
396,192,167140,1,0,0:0:0:0:
324,192,167299,1,0,0:0:0:0:
36,192,167457,1,4,0:0:0:0:
252,192,167457,1,0,0:0:0:0:
324,192,167775,1,0,0:0:0:0:
468,192,168092,1,0,0:0:0:0:
396,192,168410,1,0,0:0:0:0:
324,192,168569,1,0,0:0:0:0:
252,192,168727,1,0,0:0:0:0:
324,192,168886,1,8,0:0:0:0:
324,192,169045,1,0,0:0:0:0:
252,192,169521,1,4,0:0:0:0:
468,192,169521,1,4,0:0:0:0:
180,192,169680,1,0,0:0:0:0:
108,192,169838,1,0,0:0:0:0:
468,192,169997,1,4,0:0:0:0:
36,192,169997,1,0,0:0:0:0:
108,192,170315,1,0,0:0:0:0:
36,192,170632,1,0,0:0:0:0:
108,192,170949,1,0,0:0:0:0:
180,192,171108,1,0,0:0:0:0:
252,192,171267,1,0,0:0:0:0:
180,192,171426,1,8,0:0:0:0:
180,192,171584,1,0,0:0:0:0:
36,192,172061,1,4,0:0:0:0:
468,192,172061,1,4,0:0:0:0:
108,192,172219,1,0,0:0:0:0:
180,192,172378,1,0,0:0:0:0:
252,192,172537,1,4,0:0:0:0:
468,192,172537,1,0,0:0:0:0:
180,192,172854,1,0,0:0:0:0:
36,192,173172,1,0,0:0:0:0:
396,192,173489,1,0,0:0:0:0:
108,192,173648,1,0,0:0:0:0:
324,192,173807,1,0,0:0:0:0:
180,192,173965,1,8,0:0:0:0:
180,192,174124,1,0,0:0:0:0:
36,192,174283,1,0,0:0:0:0:
108,192,174362,1,0,0:0:0:0:
180,192,174442,1,0,0:0:0:0:
252,192,174521,1,0,0:0:0:0:
324,192,174600,1,4,0:0:0:0:
252,192,174759,1,0,0:0:0:0:
180,192,174918,1,0,0:0:0:0:
108,192,175076,1,4,0:0:0:0:
180,192,175394,1,4,0:0:0:0:
468,192,175711,128,4,178410:0:0:0:0:
36,192,177140,128,0,178410:0:0:0:0:
108,192,178410,1,0,0:0:0:0:
180,192,178569,1,0,0:0:0:0:
252,192,178727,1,0,0:0:0:0:
468,192,178886,1,0,0:0:0:0:
324,192,179045,1,0,0:0:0:0:
108,192,179521,1,0,0:0:0:0:
36,192,179680,1,0,0:0:0:0:
108,192,179838,1,0,0:0:0:0:
180,192,179997,1,0,0:0:0:0:
396,192,180156,1,0,0:0:0:0:
252,192,180473,1,0,0:0:0:0:
108,192,180949,1,0,0:0:0:0:
180,192,181108,1,0,0:0:0:0:
252,192,181267,1,0,0:0:0:0:
468,192,181426,1,0,0:0:0:0:
396,192,181743,1,0,0:0:0:0:
252,192,182061,1,0,0:0:0:0:
36,192,182219,1,0,0:0:0:0:
252,192,182378,1,0,0:0:0:0:
324,192,182537,1,0,0:0:0:0:
396,192,182695,1,0,0:0:0:0:
468,192,183013,1,0,0:0:0:0:
108,192,183489,1,0,0:0:0:0:
180,192,183648,1,0,0:0:0:0:
252,192,183807,1,0,0:0:0:0:
324,192,183965,1,0,0:0:0:0:
180,192,184283,1,0,0:0:0:0:
108,192,184600,1,0,0:0:0:0:
36,192,184759,1,0,0:0:0:0:
108,192,184918,1,0,0:0:0:0:
180,192,185076,1,0,0:0:0:0:
396,192,185235,1,0,0:0:0:0:
252,192,185553,1,0,0:0:0:0:
108,192,186029,1,0,0:0:0:0:
180,192,186188,1,0,0:0:0:0:
252,192,186346,1,0,0:0:0:0:
396,192,186505,1,0,0:0:0:0:
324,192,186822,1,0,0:0:0:0:
252,192,187299,1,4,0:0:0:0:
36,192,187299,1,0,0:0:0:0:
396,192,187457,1,0,0:0:0:0:
180,192,187537,1,0,0:0:0:0:
396,192,187616,1,0,0:0:0:0:
180,192,187695,1,0,0:0:0:0:
108,192,187775,1,0,0:0:0:0:
36,192,187934,1,8,0:0:0:0:
180,192,188013,1,0,0:0:0:0:
324,192,188092,1,0,0:0:0:0:
396,192,188172,1,0,0:0:0:0:
108,192,188251,1,0,0:0:0:0:
180,192,188330,1,0,0:0:0:0:
324,192,188410,1,0,0:0:0:0:
468,192,188489,1,0,0:0:0:0:
36,192,188569,1,0,0:0:0:0:
108,192,188648,1,0,0:0:0:0:
180,192,188727,1,0,0:0:0:0:
252,192,188807,1,0,0:0:0:0:
468,192,188886,1,0,0:0:0:0:
396,192,188965,1,0,0:0:0:0:
180,192,189045,1,0,0:0:0:0:
108,192,189124,1,0,0:0:0:0:
36,192,189203,1,8,0:0:0:0:
252,192,189283,1,0,0:0:0:0:
324,192,189362,1,0,0:0:0:0:
396,192,189442,1,0,0:0:0:0:
468,192,189521,1,0,0:0:0:0:
252,192,189600,1,0,0:0:0:0:
180,192,189680,1,0,0:0:0:0:
108,192,189759,1,0,0:0:0:0:
36,192,189838,1,8,0:0:0:0:
108,192,189918,1,0,0:0:0:0:
180,192,189997,1,0,0:0:0:0:
252,192,190076,1,0,0:0:0:0:
324,192,190156,1,0,0:0:0:0:
396,192,190235,1,0,0:0:0:0:
252,192,190315,1,0,0:0:0:0:
468,192,190394,1,0,0:0:0:0:
396,192,190473,1,8,0:0:0:0:
324,192,190553,1,0,0:0:0:0:
252,192,190632,1,0,0:0:0:0:
180,192,190711,1,0,0:0:0:0:
324,192,190791,1,0,0:0:0:0:
252,192,190870,1,0,0:0:0:0:
180,192,190949,1,0,0:0:0:0:
108,192,191029,1,0,0:0:0:0:
36,192,191108,1,8,0:0:0:0:
108,192,191188,1,0,0:0:0:0:
180,192,191267,1,0,0:0:0:0:
252,192,191346,1,0,0:0:0:0:
468,192,191426,1,0,0:0:0:0:
396,192,191505,1,0,0:0:0:0:
324,192,191584,1,0,0:0:0:0:
252,192,191664,1,0,0:0:0:0:
108,192,191743,1,8,0:0:0:0:
180,192,191822,1,0,0:0:0:0:
252,192,191902,1,0,0:0:0:0:
324,192,191981,1,0,0:0:0:0:
396,192,192061,1,0,0:0:0:0:
252,192,192140,1,0,0:0:0:0:
180,192,192219,1,0,0:0:0:0:
108,192,192299,1,0,0:0:0:0:
468,192,192378,128,8,192457:0:0:0:0:
180,192,192537,128,0,192616:0:0:0:0:
324,192,192695,128,0,192775:0:0:0:0:
108,192,192854,128,0,192934:0:0:0:0:
252,192,193013,128,8,193092:0:0:0:0:
36,192,193172,128,0,193251:0:0:0:0:
468,192,193330,1,0,0:0:0:0:
324,192,193410,1,0,0:0:0:0:
180,192,193489,1,0,0:0:0:0:
36,192,193569,1,0,0:0:0:0:
108,192,193648,1,4,0:0:0:0:
468,192,193648,1,0,0:0:0:0:
180,192,193727,1,0,0:0:0:0:
252,192,193807,1,0,0:0:0:0:
324,192,193886,1,0,0:0:0:0:
468,192,193965,1,0,0:0:0:0:
396,192,194045,1,0,0:0:0:0:
324,192,194124,1,0,0:0:0:0:
252,192,194203,1,0,0:0:0:0:
180,192,194283,1,8,0:0:0:0:
36,192,194283,1,8,0:0:0:0:
252,192,194362,1,0,0:0:0:0:
324,192,194442,1,0,0:0:0:0:
396,192,194521,1,0,0:0:0:0:
468,192,194600,1,0,0:0:0:0:
324,192,194680,1,0,0:0:0:0:
252,192,194759,1,0,0:0:0:0:
180,192,194838,1,0,0:0:0:0:
36,192,194918,1,8,0:0:0:0:
468,192,194918,1,0,0:0:0:0:
252,192,194997,1,0,0:0:0:0:
324,192,195076,1,0,0:0:0:0:
396,192,195156,1,0,0:0:0:0:
108,192,195235,1,0,0:0:0:0:
180,192,195315,1,0,0:0:0:0:
252,192,195394,1,0,0:0:0:0:
468,192,195473,1,0,0:0:0:0:
396,192,195553,1,8,0:0:0:0:
36,192,195553,1,0,0:0:0:0:
324,192,195632,1,0,0:0:0:0:
180,192,195711,1,0,0:0:0:0:
108,192,195791,1,0,0:0:0:0:
324,192,195870,1,0,0:0:0:0:
252,192,195949,1,0,0:0:0:0:
180,192,196029,1,0,0:0:0:0:
108,192,196108,1,0,0:0:0:0:
36,192,196188,1,8,0:0:0:0:
468,192,196188,1,8,0:0:0:0:
108,192,196267,1,0,0:0:0:0:
180,192,196346,1,0,0:0:0:0:
324,192,196426,1,0,0:0:0:0:
468,192,196505,1,0,0:0:0:0:
324,192,196584,1,0,0:0:0:0:
252,192,196664,1,0,0:0:0:0:
180,192,196743,1,0,0:0:0:0:
468,192,196822,1,8,0:0:0:0:
36,192,196822,1,8,0:0:0:0:
108,192,196902,1,0,0:0:0:0:
180,192,196981,1,0,0:0:0:0:
252,192,197061,1,0,0:0:0:0:
468,192,197140,1,0,0:0:0:0:
252,192,197219,1,0,0:0:0:0:
180,192,197299,1,0,0:0:0:0:
108,192,197378,1,0,0:0:0:0:
468,192,197457,128,8,197537:0:0:0:0:
252,192,197616,128,0,197695:0:0:0:0:
396,192,197775,128,0,197854:0:0:0:0:
180,192,197934,128,0,198013:0:0:0:0:
324,192,198092,128,8,198172:0:0:0:0:
108,192,198251,128,0,198330:0:0:0:0:
468,192,198410,1,0,0:0:0:0:
324,192,198489,1,0,0:0:0:0:
180,192,198569,1,0,0:0:0:0:
108,192,198648,1,0,0:0:0:0:
36,192,198727,128,4,198807:0:0:0:0:
252,192,198727,128,4,198807:0:0:0:0:
468,192,198727,1,0,0:0:0:0:
180,192,198886,128,0,198965:0:0:0:0:
396,192,198886,128,0,198965:0:0:0:0:
468,192,199045,128,0,199124:0:0:0:0:
324,192,199045,128,0,199124:0:0:0:0:
396,192,199203,128,0,199283:0:0:0:0:
180,192,199203,128,0,199283:0:0:0:0:
252,192,199362,128,8,199442:0:0:0:0:
108,192,199362,128,0,199442:0:0:0:0:
396,192,199521,128,0,199600:0:0:0:0:
180,192,199521,128,0,199600:0:0:0:0:
468,192,199680,128,0,199759:0:0:0:0:
324,192,199680,128,0,199759:0:0:0:0:
396,192,199838,128,0,199918:0:0:0:0:
180,192,199838,128,0,199918:0:0:0:0:
324,192,199997,1,8,0:0:0:0:
36,192,199997,128,0,200076:0:0:0:0:
108,192,199997,128,0,200076:0:0:0:0:
252,192,200156,128,0,200235:0:0:0:0:
180,192,200156,128,0,200235:0:0:0:0:
396,192,200315,128,0,200394:0:0:0:0:
324,192,200315,128,0,200394:0:0:0:0:
468,192,200473,128,0,200553:0:0:0:0:
252,192,200473,128,0,200553:0:0:0:0:
396,192,200632,128,8,200711:0:0:0:0:
180,192,200632,128,0,200711:0:0:0:0:
108,192,200791,128,0,200870:0:0:0:0:
324,192,200791,128,0,200870:0:0:0:0:
252,192,200949,128,0,201029:0:0:0:0:
36,192,200949,128,0,201029:0:0:0:0:
180,192,201108,128,0,201188:0:0:0:0:
108,192,201108,128,0,201188:0:0:0:0:
252,192,201267,128,8,201346:0:0:0:0:
36,192,201267,128,0,201346:0:0:0:0:
468,192,201267,1,0,0:0:0:0:
396,192,201426,128,0,201505:0:0:0:0:
180,192,201426,128,0,201505:0:0:0:0:
468,192,201584,128,0,201664:0:0:0:0:
324,192,201584,128,0,201664:0:0:0:0:
396,192,201743,128,0,201822:0:0:0:0:
180,192,201743,128,0,201822:0:0:0:0:
108,192,201902,128,8,201981:0:0:0:0:
36,192,201902,128,8,201981:0:0:0:0:
180,192,202061,128,0,202140:0:0:0:0:
324,192,202061,128,0,202140:0:0:0:0:
468,192,202219,128,0,202299:0:0:0:0:
396,192,202219,128,0,202299:0:0:0:0:
324,192,202378,128,0,202457:0:0:0:0:
180,192,202378,128,0,202457:0:0:0:0:
468,192,202537,128,8,202616:0:0:0:0:
252,192,202537,128,0,202616:0:0:0:0:
108,192,202537,1,0,0:0:0:0:
324,192,202695,128,0,202775:0:0:0:0:
36,192,202695,128,0,202775:0:0:0:0:
396,192,202854,128,0,202934:0:0:0:0:
180,192,202854,128,0,202934:0:0:0:0:
252,192,203013,128,0,203092:0:0:0:0:
108,192,203013,128,0,203092:0:0:0:0:
396,192,203172,128,8,203251:0:0:0:0:
324,192,203172,128,8,203251:0:0:0:0:
180,192,203330,128,0,203410:0:0:0:0:
36,192,203330,128,0,203410:0:0:0:0:
396,192,203489,128,0,203569:0:0:0:0:
252,192,203489,128,0,203569:0:0:0:0:
108,192,203648,128,0,203727:0:0:0:0:
180,192,203648,128,0,203727:0:0:0:0:
36,192,203807,1,4,0:0:0:0:
252,192,203807,1,4,0:0:0:0:
252,192,203965,1,0,0:0:0:0:
468,192,203965,1,0,0:0:0:0:
252,192,204442,1,4,0:0:0:0:
108,192,204442,1,4,0:0:0:0:
396,192,204600,1,0,0:0:0:0:
252,192,204600,1,0,0:0:0:0:
180,192,205076,1,4,0:0:0:0:
252,192,205076,1,4,0:0:0:0:
324,192,205235,1,0,0:0:0:0:
252,192,205235,1,0,0:0:0:0:
468,192,205711,1,4,0:0:0:0:
396,192,205791,1,0,0:0:0:0:
324,192,205870,1,0,0:0:0:0:
252,192,205949,1,0,0:0:0:0:
324,192,206029,1,0,0:0:0:0:
252,192,206108,1,0,0:0:0:0:
180,192,206188,1,0,0:0:0:0:
108,192,206267,1,0,0:0:0:0:
36,192,206346,1,4,0:0:0:0:
324,192,206426,1,0,0:0:0:0:
180,192,206505,1,0,0:0:0:0:
396,192,206584,1,0,0:0:0:0:
468,192,206664,1,0,0:0:0:0:
324,192,206743,1,0,0:0:0:0:
180,192,206822,1,0,0:0:0:0:
108,192,206902,1,0,0:0:0:0:
324,192,206981,1,8,0:0:0:0:
180,192,207061,1,0,0:0:0:0:
396,192,207140,1,0,0:0:0:0:
108,192,207219,1,0,0:0:0:0:
468,192,207299,1,0,0:0:0:0:
324,192,207378,1,0,0:0:0:0:
180,192,207457,1,0,0:0:0:0:
36,192,207537,1,0,0:0:0:0:
324,192,207616,1,8,0:0:0:0:
108,192,207695,1,0,0:0:0:0:
252,192,207775,1,0,0:0:0:0:
180,192,207854,1,0,0:0:0:0:
396,192,207934,1,0,0:0:0:0:
252,192,208013,1,0,0:0:0:0:
108,192,208092,1,0,0:0:0:0:
180,192,208172,1,0,0:0:0:0:
36,192,208251,1,8,0:0:0:0:
252,192,208330,1,0,0:0:0:0:
108,192,208410,1,0,0:0:0:0:
324,192,208489,1,0,0:0:0:0:
468,192,208569,1,0,0:0:0:0:
252,192,208648,1,0,0:0:0:0:
108,192,208727,1,0,0:0:0:0:
180,192,208807,1,0,0:0:0:0:
36,192,208886,1,4,0:0:0:0:
108,192,208965,1,0,0:0:0:0:
180,192,209045,1,0,0:0:0:0:
252,192,209124,1,0,0:0:0:0:
396,192,209203,1,0,0:0:0:0:
324,192,209283,1,0,0:0:0:0:
252,192,209362,1,0,0:0:0:0:
180,192,209442,1,0,0:0:0:0:
108,192,209521,1,0,0:0:0:0:
180,192,209600,1,0,0:0:0:0:
324,192,209680,1,0,0:0:0:0:
396,192,209759,1,0,0:0:0:0:
468,192,209838,1,0,0:0:0:0:
252,192,209918,1,0,0:0:0:0:
180,192,209997,1,0,0:0:0:0:
108,192,210076,1,0,0:0:0:0:
36,192,210156,1,0,0:0:0:0:
108,192,210235,1,0,0:0:0:0:
252,192,210315,1,0,0:0:0:0:
324,192,210394,1,0,0:0:0:0:
468,192,210473,1,0,0:0:0:0:
396,192,210553,1,0,0:0:0:0:
180,192,210632,1,0,0:0:0:0:
108,192,210711,1,0,0:0:0:0:
36,192,210791,1,0,0:0:0:0:
108,192,210870,1,0,0:0:0:0:
252,192,210949,1,0,0:0:0:0:
324,192,211029,1,0,0:0:0:0:
468,192,211108,1,0,0:0:0:0:
252,192,211188,1,0,0:0:0:0:
180,192,211267,1,0,0:0:0:0:
108,192,211346,1,0,0:0:0:0:
36,192,211426,1,4,0:0:0:0:
108,192,211505,1,0,0:0:0:0:
252,192,211584,1,0,0:0:0:0:
324,192,211664,1,0,0:0:0:0:
468,192,211743,1,0,0:0:0:0:
396,192,211822,1,0,0:0:0:0:
324,192,211902,1,0,0:0:0:0:
252,192,211981,1,0,0:0:0:0:
108,192,212061,1,0,0:0:0:0:
180,192,212140,1,0,0:0:0:0:
252,192,212219,1,0,0:0:0:0:
324,192,212299,1,0,0:0:0:0:
468,192,212378,1,0,0:0:0:0:
324,192,212457,1,0,0:0:0:0:
180,192,212537,1,0,0:0:0:0:
108,192,212616,1,0,0:0:0:0:
36,192,212695,1,0,0:0:0:0:
180,192,212775,1,0,0:0:0:0:
252,192,212854,1,0,0:0:0:0:
324,192,212934,1,0,0:0:0:0:
468,192,213013,1,0,0:0:0:0:
324,192,213092,1,0,0:0:0:0:
180,192,213172,1,0,0:0:0:0:
108,192,213251,1,0,0:0:0:0:
468,192,213330,1,0,0:0:0:0:
324,192,213410,1,0,0:0:0:0:
252,192,213489,1,0,0:0:0:0:
180,192,213569,1,0,0:0:0:0:
468,192,213648,1,0,0:0:0:0:
324,192,213727,1,0,0:0:0:0:
252,192,213807,1,0,0:0:0:0:
180,192,213886,1,0,0:0:0:0:
36,192,213965,1,4,0:0:0:0:
108,192,214045,1,0,0:0:0:0:
252,192,214124,1,0,0:0:0:0:
324,192,214203,1,0,0:0:0:0:
468,192,214283,1,0,0:0:0:0:
252,192,214362,1,0,0:0:0:0:
180,192,214442,1,0,0:0:0:0:
108,192,214521,1,0,0:0:0:0:
36,192,214600,1,0,0:0:0:0:
108,192,214680,1,0,0:0:0:0:
252,192,214759,1,0,0:0:0:0:
324,192,214838,1,0,0:0:0:0:
468,192,214918,1,0,0:0:0:0:
396,192,214997,1,0,0:0:0:0:
252,192,215076,1,0,0:0:0:0:
180,192,215156,1,0,0:0:0:0:
36,192,215235,1,0,0:0:0:0:
108,192,215315,1,0,0:0:0:0:
180,192,215394,1,0,0:0:0:0:
252,192,215473,1,0,0:0:0:0:
468,192,215553,1,0,0:0:0:0:
324,192,215632,1,0,0:0:0:0:
180,192,215711,1,0,0:0:0:0:
108,192,215791,1,0,0:0:0:0:
468,192,215870,1,0,0:0:0:0:
324,192,215949,1,0,0:0:0:0:
252,192,216029,1,0,0:0:0:0:
180,192,216108,1,0,0:0:0:0:
396,192,216188,1,0,0:0:0:0:
324,192,216267,1,0,0:0:0:0:
252,192,216346,1,0,0:0:0:0:
108,192,216426,1,0,0:0:0:0:
252,192,216505,128,4,221584:0:0:0:0:
36,192,216505,128,4,221584:0:0:0:0:
468,192,219045,128,0,221584:0:0:0:0:
108,192,221584,1,4,0:0:0:0:
180,192,221743,1,0,0:0:0:0:
252,192,221902,1,0,0:0:0:0:
396,192,222061,1,0,0:0:0:0:
468,192,222537,1,0,0:0:0:0:
108,192,222695,1,0,0:0:0:0:
468,192,223172,1,0,0:0:0:0:
108,192,223330,1,0,0:0:0:0:
468,192,223807,1,0,0:0:0:0:
108,192,223965,128,0,226664:0:0:0:0:
180,192,224124,1,4,0:0:0:0:
252,192,224283,1,0,0:0:0:0:
324,192,224442,1,0,0:0:0:0:
180,192,224600,1,0,0:0:0:0:
324,192,224759,1,8,0:0:0:0:
180,192,224918,1,0,0:0:0:0:
324,192,225076,1,0,0:0:0:0:
396,192,225235,1,0,0:0:0:0:
180,192,225394,1,8,0:0:0:0:
396,192,225553,1,0,0:0:0:0:
468,192,225711,1,0,0:0:0:0:
252,192,225870,1,0,0:0:0:0:
324,192,226029,1,8,0:0:0:0:
180,192,226188,1,0,0:0:0:0:
396,192,226346,1,0,0:0:0:0:
252,192,226505,1,0,0:0:0:0:
36,192,226664,1,4,0:0:0:0:
108,192,226822,1,0,0:0:0:0:
180,192,226981,1,8,0:0:0:0:
324,192,227140,1,0,0:0:0:0:
468,192,227616,1,8,0:0:0:0:
108,192,227775,1,0,0:0:0:0:
468,192,228251,1,8,0:0:0:0:
108,192,228410,1,0,0:0:0:0:
468,192,228886,1,8,0:0:0:0:
108,192,229045,128,0,231743:0:0:0:0:
180,192,229203,1,4,0:0:0:0:
252,192,229362,1,0,0:0:0:0:
324,192,229521,1,8,0:0:0:0:
180,192,229680,1,0,0:0:0:0:
324,192,229838,1,8,0:0:0:0:
252,192,229997,1,0,0:0:0:0:
396,192,230156,1,8,0:0:0:0:
468,192,230315,1,0,0:0:0:0:
252,192,230473,1,8,0:0:0:0:
396,192,230632,1,0,0:0:0:0:
468,192,230791,1,0,0:0:0:0:
252,192,230949,1,0,0:0:0:0:
396,192,231108,1,0,0:0:0:0:
180,192,231267,1,0,0:0:0:0:
324,192,231426,1,0,0:0:0:0:
252,192,231584,1,0,0:0:0:0:
