osu file format v13

[General]
AudioFilename: 02 Chaosmaid.mp3
AudioLeadIn: 0
PreviewTime: 67933
Countdown: 0
SampleSet: None
StackLeniency: 0.7
Mode: 3
LetterboxInBreaks: 0
SpecialStyle: 0
WidescreenStoryboard: 0

[Editor]
DistanceSpacing: 1
BeatDivisor: 4
GridSize: 4
TimelineZoom: 2.4

[Metadata]
Title:Chaosmaid
TitleUnicode:Chaosmaid
Artist:Paraoka Feat. Iku Akume
ArtistUnicode:Paraoka Feat. Iku Akume
Creator:Ripazhakgggdkp
Version:Hard
Source:
Tags:
BeatmapID:280357
BeatmapSetID:106856

[Difficulty]
HPDrainRate:7
CircleSize:7
OverallDifficulty:7
ApproachRate:5
SliderMultiplier:1.4
SliderTickRate:1

[Events]
//Background and Video events
0,0,"Chaosmaid.full.129153.jpg",0,0
//Break Periods
//Storyboard Layer 0 (Background)
//Storyboard Layer 1 (Fail)
//Storyboard Layer 2 (Pass)
//Storyboard Layer 3 (Foreground)
//Storyboard Sound Samples
//Background Colour Transformations
3,100,163,162,255

[TimingPoints]
632,317.460317460317,4,2,1,43,1,0
83489,-200,4,2,1,43,0,0
83806,-100,4,2,1,43,0,0
84124,-200,4,2,1,43,0,0
84441,-100,4,2,1,43,0,0
84758,-200,4,2,1,43,0,0
85076,-100,4,2,1,43,0,0
126425,-133.333333333333,4,2,1,43,0,0
126505,-200,4,2,1,43,0,0
126663,-100,4,2,1,43,0,0
127060,-133.333333333333,4,2,1,43,0,0
127139,-200,4,2,1,43,0,0
127298,-100,4,2,1,43,0,0
127695,-133.333333333333,4,2,1,43,0,0
127774,-200,4,2,1,43,0,0
127933,-100,4,2,1,43,0,0
128330,-133.333333333333,4,2,1,43,0,0
128409,-200,4,2,1,43,0,0
128568,-100,4,2,1,43,0,0
204124,-133.333333333333,4,2,1,43,0,0
204441,-100,4,2,1,43,0,0
204758,-133.333333333333,4,2,1,43,0,0
205076,-100,4,2,1,43,0,0
205393,-133.333333333333,4,2,1,43,0,0
205711,-100,4,2,1,43,0,0

[HitObjects]
324,192,632,128,0,791:0:0:0:0:
108,192,791,128,0,949:0:0:0:0:
324,192,949,128,0,1108:0:0:0:0:
108,192,1108,128,0,1267:0:0:0:0:
396,192,1267,128,0,1426:0:0:0:0:
108,192,1426,128,0,1584:0:0:0:0:
396,192,1584,128,0,1743:0:0:0:0:
468,192,1743,128,0,1902:0:0:0:0:
108,192,1902,128,0,2061:0:0:0:0:
468,192,2061,128,0,2219:0:0:0:0:
180,192,2219,128,0,2378:0:0:0:0:
324,192,2378,1,0,0:0:0:0:
396,192,2457,1,0,0:0:0:0:
36,192,2537,128,0,2695:0:0:0:0:
180,192,2695,128,0,2854:0:0:0:0:
252,192,2854,128,0,3013:0:0:0:0:
108,192,3013,128,0,3172:0:0:0:0:
324,192,3172,128,0,3330:0:0:0:0:
108,192,3330,128,0,3489:0:0:0:0:
324,192,3489,128,0,3648:0:0:0:0:
108,192,3648,128,0,3807:0:0:0:0:
396,192,3807,128,0,3965:0:0:0:0:
108,192,3965,128,0,4124:0:0:0:0:
396,192,4124,128,0,4283:0:0:0:0:
468,192,4283,128,0,4442:0:0:0:0:
180,192,4442,128,0,4600:0:0:0:0:
324,192,4600,128,0,4759:0:0:0:0:
468,192,4759,128,0,4918:0:0:0:0:
108,192,4918,128,0,5076:0:0:0:0:
324,192,5076,128,0,5235:0:0:0:0:
396,192,5235,128,0,5394:0:0:0:0:
252,192,5394,128,0,5553:0:0:0:0:
108,192,5553,128,0,5711:0:0:0:0:
324,192,5711,128,0,5870:0:0:0:0:
108,192,5870,128,0,6029:0:0:0:0:
324,192,6029,128,0,6188:0:0:0:0:
108,192,6188,128,0,6346:0:0:0:0:
396,192,6346,128,0,6505:0:0:0:0:
108,192,6505,128,0,6664:0:0:0:0:
396,192,6664,128,0,6822:0:0:0:0:
468,192,6822,128,0,6981:0:0:0:0:
108,192,6981,128,0,7140:0:0:0:0:
468,192,7140,128,0,7299:0:0:0:0:
180,192,7299,128,0,7457:0:0:0:0:
324,192,7457,1,0,0:0:0:0:
396,192,7537,1,0,0:0:0:0:
36,192,7616,128,0,7775:0:0:0:0:
180,192,7775,128,0,7934:0:0:0:0:
252,192,7934,128,0,8092:0:0:0:0:
108,192,8092,128,0,8251:0:0:0:0:
324,192,8251,128,0,8410:0:0:0:0:
108,192,8410,128,0,8569:0:0:0:0:
324,192,8569,128,0,8727:0:0:0:0:
108,192,8727,128,0,8886:0:0:0:0:
396,192,8886,128,0,9045:0:0:0:0:
108,192,9045,128,0,9203:0:0:0:0:
396,192,9203,128,0,9362:0:0:0:0:
468,192,9362,128,0,9521:0:0:0:0:
180,192,9521,128,0,9680:0:0:0:0:
324,192,9680,128,0,9838:0:0:0:0:
468,192,9838,128,0,9997:0:0:0:0:
108,192,9997,128,0,10156:0:0:0:0:
324,192,10156,128,0,10315:0:0:0:0:
396,192,10315,128,0,10473:0:0:0:0:
252,192,10473,128,0,10632:0:0:0:0:
108,192,10632,128,0,10791:0:0:0:0:
396,192,10791,1,4,0:0:0:0:
252,192,10791,1,0,0:0:0:0:
396,192,10949,1,0,0:0:0:0:
252,192,10949,1,0,0:0:0:0:
180,192,11029,1,0,0:0:0:0:
36,192,11108,1,0,0:0:0:0:
180,192,11188,1,0,0:0:0:0:
252,192,11267,1,0,0:0:0:0:
324,192,11346,1,0,0:0:0:0:
396,192,11426,1,8,0:0:0:0:
468,192,11426,1,8,0:0:0:0:
396,192,11584,1,0,0:0:0:0:
468,192,11584,1,0,0:0:0:0:
252,192,11664,1,0,0:0:0:0:
36,192,11743,1,0,0:0:0:0:
252,192,11822,1,0,0:0:0:0:
324,192,11902,1,0,0:0:0:0:
396,192,11981,1,0,0:0:0:0:
252,192,12061,1,8,0:0:0:0:
108,192,12061,1,0,0:0:0:0:
108,192,12219,1,0,0:0:0:0:
252,192,12219,1,0,0:0:0:0:
180,192,12299,1,0,0:0:0:0:
324,192,12378,1,0,0:0:0:0:
108,192,12457,1,0,0:0:0:0:
180,192,12537,1,0,0:0:0:0:
324,192,12616,1,0,0:0:0:0:
468,192,12695,1,0,0:0:0:0:
324,192,12775,1,0,0:0:0:0:
252,192,12854,1,0,0:0:0:0:
108,192,12934,1,0,0:0:0:0:
36,192,13013,1,0,0:0:0:0:
396,192,13092,1,0,0:0:0:0:
252,192,13172,1,0,0:0:0:0:
180,192,13251,1,0,0:0:0:0:
108,192,13330,1,8,0:0:0:0:
36,192,13330,1,0,0:0:0:0:
108,192,13489,1,0,0:0:0:0:
36,192,13489,1,0,0:0:0:0:
180,192,13569,1,0,0:0:0:0:
468,192,13648,1,0,0:0:0:0:
324,192,13727,1,0,0:0:0:0:
252,192,13807,1,0,0:0:0:0:
108,192,13886,1,0,0:0:0:0:
396,192,13965,1,8,0:0:0:0:
324,192,13965,1,0,0:0:0:0:
396,192,14124,1,0,0:0:0:0:
324,192,14124,1,0,0:0:0:0:
180,192,14203,1,0,0:0:0:0:
36,192,14283,1,0,0:0:0:0:
180,192,14362,1,0,0:0:0:0:
324,192,14442,1,0,0:0:0:0:
396,192,14521,1,0,0:0:0:0:
468,192,14600,1,8,0:0:0:0:
468,192,14680,1,0,0:0:0:0:
108,192,14759,1,0,0:0:0:0:
108,192,14838,1,0,0:0:0:0:
396,192,14918,1,0,0:0:0:0:
396,192,14997,1,0,0:0:0:0:
324,192,15076,1,0,0:0:0:0:
252,192,15156,1,0,0:0:0:0:
108,192,15235,1,8,0:0:0:0:
252,192,15315,1,0,0:0:0:0:
324,192,15394,1,0,0:0:0:0:
468,192,15473,1,0,0:0:0:0:
396,192,15553,1,0,0:0:0:0:
324,192,15632,1,0,0:0:0:0:
252,192,15711,1,0,0:0:0:0:
180,192,15791,1,0,0:0:0:0:
396,192,15870,1,4,0:0:0:0:
324,192,15870,1,0,0:0:0:0:
108,192,15870,1,0,0:0:0:0:
108,192,16029,1,0,0:0:0:0:
396,192,16029,1,0,0:0:0:0:
324,192,16029,1,0,0:0:0:0:
180,192,16108,1,0,0:0:0:0:
468,192,16188,1,0,0:0:0:0:
180,192,16267,1,0,0:0:0:0:
108,192,16346,1,0,0:0:0:0:
36,192,16426,1,0,0:0:0:0:
324,192,16505,1,8,0:0:0:0:
108,192,16505,1,0,0:0:0:0:
252,192,16505,1,0,0:0:0:0:
324,192,16664,1,0,0:0:0:0:
252,192,16664,1,0,0:0:0:0:
108,192,16664,1,0,0:0:0:0:
396,192,16743,1,0,0:0:0:0:
468,192,16822,1,0,0:0:0:0:
396,192,16902,1,0,0:0:0:0:
324,192,16981,1,0,0:0:0:0:
252,192,17061,1,0,0:0:0:0:
396,192,17140,1,8,0:0:0:0:
36,192,17140,1,0,0:0:0:0:
180,192,17140,1,0,0:0:0:0:
396,192,17299,1,0,0:0:0:0:
36,192,17299,1,0,0:0:0:0:
180,192,17299,1,0,0:0:0:0:
108,192,17378,1,0,0:0:0:0:
180,192,17457,1,0,0:0:0:0:
324,192,17537,1,0,0:0:0:0:
396,192,17616,1,0,0:0:0:0:
180,192,17695,1,0,0:0:0:0:
468,192,17775,1,8,0:0:0:0:
324,192,17854,1,0,0:0:0:0:
252,192,17934,1,0,0:0:0:0:
108,192,18013,1,0,0:0:0:0:
36,192,18092,1,0,0:0:0:0:
396,192,18172,1,0,0:0:0:0:
324,192,18251,1,0,0:0:0:0:
180,192,18330,1,0,0:0:0:0:
396,192,18410,1,4,0:0:0:0:
36,192,18410,1,0,0:0:0:0:
252,192,18410,1,0,0:0:0:0:
36,192,18569,1,0,0:0:0:0:
396,192,18569,1,0,0:0:0:0:
252,192,18569,1,0,0:0:0:0:
180,192,18648,1,0,0:0:0:0:
36,192,18727,1,0,0:0:0:0:
180,192,18807,1,0,0:0:0:0:
252,192,18886,1,0,0:0:0:0:
396,192,18965,1,0,0:0:0:0:
468,192,19045,1,8,0:0:0:0:
108,192,19045,1,0,0:0:0:0:
180,192,19045,1,0,0:0:0:0:
180,192,19203,1,0,0:0:0:0:
468,192,19203,1,0,0:0:0:0:
108,192,19203,1,0,0:0:0:0:
396,192,19283,1,0,0:0:0:0:
252,192,19362,1,0,0:0:0:0:
108,192,19442,1,0,0:0:0:0:
396,192,19521,1,0,0:0:0:0:
402,192,19600,1,0,0:0:0:0:
468,192,19680,1,8,0:0:0:0:
468,192,19759,1,0,0:0:0:0:
108,192,19838,1,0,0:0:0:0:
108,192,19918,1,0,0:0:0:0:
396,192,19997,1,0,0:0:0:0:
396,192,20076,1,0,0:0:0:0:
36,192,20156,1,0,0:0:0:0:
36,192,20235,1,0,0:0:0:0:
324,192,20315,1,8,0:0:0:0:
108,192,20394,1,0,0:0:0:0:
324,192,20473,1,0,0:0:0:0:
468,192,20553,1,0,0:0:0:0:
396,192,20632,1,0,0:0:0:0:
324,192,20711,1,0,0:0:0:0:
252,192,20791,1,0,0:0:0:0:
180,192,20870,1,0,0:0:0:0:
324,192,20949,128,4,21108:0:0:0:0:
108,192,21108,128,0,21267:0:0:0:0:
324,192,21267,128,0,21426:0:0:0:0:
108,192,21426,128,0,21584:0:0:0:0:
396,192,21584,128,0,21743:0:0:0:0:
108,192,21743,128,0,21902:0:0:0:0:
396,192,21902,128,0,22061:0:0:0:0:
468,192,22061,128,0,22219:0:0:0:0:
180,192,22219,128,0,22378:0:0:0:0:
468,192,22378,128,0,22537:0:0:0:0:
324,192,22537,128,0,22695:0:0:0:0:
108,192,22695,128,0,22854:0:0:0:0:
252,192,22854,128,0,23013:0:0:0:0:
108,192,23013,128,0,23172:0:0:0:0:
396,192,23172,128,0,23330:0:0:0:0:
108,192,23330,128,0,23489:0:0:0:0:
324,192,23489,1,4,0:0:0:0:
252,192,23489,1,4,0:0:0:0:
252,192,23648,1,0,0:0:0:0:
252,192,23807,1,0,0:0:0:0:
180,192,23965,1,0,0:0:0:0:
108,192,24124,1,8,0:0:0:0:
108,192,24283,1,0,0:0:0:0:
108,192,24600,1,0,0:0:0:0:
468,192,24759,1,8,0:0:0:0:
36,192,24759,1,0,0:0:0:0:
36,192,24918,1,0,0:0:0:0:
36,192,25076,1,0,0:0:0:0:
468,192,25235,1,0,0:0:0:0:
252,192,25394,1,8,0:0:0:0:
396,192,25394,1,8,0:0:0:0:
180,192,25553,1,0,0:0:0:0:
108,192,25711,1,0,0:0:0:0:
252,192,25870,1,0,0:0:0:0:
324,192,26029,1,8,0:0:0:0:
180,192,26029,1,0,0:0:0:0:
256,192,26187,1,0,0:0:0:0:
468,192,26505,1,0,0:0:0:0:
180,192,26664,1,8,0:0:0:0:
468,192,26664,1,0,0:0:0:0:
468,192,26981,1,0,0:0:0:0:
252,192,27299,1,8,0:0:0:0:
108,192,27299,1,8,0:0:0:0:
182,192,27457,1,0,0:0:0:0:
475,192,27616,1,0,0:0:0:0:
329,192,27774,1,0,0:0:0:0:
402,192,27933,1,0,0:0:0:0:
108,192,27934,1,0,0:0:0:0:
402,192,28251,1,0,0:0:0:0:
180,192,28569,1,0,0:0:0:0:
252,192,28569,1,0,0:0:0:0:
36,192,29045,1,0,0:0:0:0:
468,192,29045,1,0,0:0:0:0:
108,192,29124,1,0,0:0:0:0:
180,192,29203,1,8,0:0:0:0:
396,192,29203,1,0,0:0:0:0:
324,192,29362,1,0,0:0:0:0:
396,192,29521,1,0,0:0:0:0:
180,192,29680,1,0,0:0:0:0:
36,192,29680,1,0,0:0:0:0:
252,192,29759,1,0,0:0:0:0:
324,192,29838,1,8,0:0:0:0:
108,192,29838,1,0,0:0:0:0:
180,192,30156,1,0,0:0:0:0:
468,192,30315,1,0,0:0:0:0:
252,192,30473,1,8,0:0:0:0:
36,192,30473,1,8,0:0:0:0:
324,192,30949,1,0,0:0:0:0:
396,192,31108,1,8,0:0:0:0:
180,192,31108,1,0,0:0:0:0:
108,192,31108,1,0,0:0:0:0:
402,192,31425,1,0,0:0:0:0:
180,192,31426,1,0,0:0:0:0:
329,192,31505,1,0,0:0:0:0:
108,192,31505,1,0,0:0:0:0:
256,192,31584,1,0,0:0:0:0:
36,192,31584,1,0,0:0:0:0:
180,192,31743,1,8,0:0:0:0:
108,192,31743,1,8,0:0:0:0:
468,192,31743,1,0,0:0:0:0:
36,192,32061,1,0,0:0:0:0:
180,192,32061,1,0,0:0:0:0:
108,192,32219,1,0,0:0:0:0:
396,192,32378,1,8,0:0:0:0:
324,192,32378,1,8,0:0:0:0:
36,192,32378,1,0,0:0:0:0:
256,192,32695,1,0,0:0:0:0:
468,192,32695,1,0,0:0:0:0:
182,192,32774,1,0,0:0:0:0:
396,192,32775,1,0,0:0:0:0:
109,192,32854,1,0,0:0:0:0:
324,192,32854,1,0,0:0:0:0:
252,192,33013,1,8,0:0:0:0:
324,192,33092,1,0,0:0:0:0:
36,192,33172,1,0,0:0:0:0:
108,192,33251,1,0,0:0:0:0:
468,192,33330,1,0,0:0:0:0:
396,192,33410,1,0,0:0:0:0:
324,192,33489,1,0,0:0:0:0:
252,192,33569,1,0,0:0:0:0:
108,192,33648,1,4,0:0:0:0:
468,192,33648,1,0,0:0:0:0:
252,192,33807,1,0,0:0:0:0:
252,192,33965,1,0,0:0:0:0:
180,192,34124,1,0,0:0:0:0:
108,192,34283,1,8,0:0:0:0:
108,192,34442,1,0,0:0:0:0:
108,192,34759,1,0,0:0:0:0:
36,192,34918,1,8,0:0:0:0:
252,192,34918,1,8,0:0:0:0:
36,192,35076,1,0,0:0:0:0:
36,192,35235,1,0,0:0:0:0:
468,192,35394,1,0,0:0:0:0:
396,192,35553,1,8,0:0:0:0:
108,192,35553,1,8,0:0:0:0:
180,192,35711,1,0,0:0:0:0:
108,192,35870,1,0,0:0:0:0:
252,192,36029,1,0,0:0:0:0:
180,192,36188,1,8,0:0:0:0:
396,192,36188,1,8,0:0:0:0:
180,192,36346,1,0,0:0:0:0:
324,192,36664,1,0,0:0:0:0:
180,192,36822,1,8,0:0:0:0:
324,192,36822,1,0,0:0:0:0:
324,192,37140,1,0,0:0:0:0:
256,192,37351,1,0,0:0:0:0:
329,192,37404,1,0,0:0:0:0:
108,192,37457,1,8,0:0:0:0:
402,192,37457,1,0,0:0:0:0:
108,192,37616,1,0,0:0:0:0:
324,192,37934,1,0,0:0:0:0:
324,192,38092,1,8,0:0:0:0:
108,192,38092,1,8,0:0:0:0:
324,192,38410,1,0,0:0:0:0:
252,192,38727,1,8,0:0:0:0:
180,192,38727,1,0,0:0:0:0:
468,192,39203,1,0,0:0:0:0:
36,192,39203,1,0,0:0:0:0:
108,192,39283,1,0,0:0:0:0:
396,192,39362,1,8,0:0:0:0:
180,192,39362,1,8,0:0:0:0:
324,192,39521,1,0,0:0:0:0:
396,192,39680,1,0,0:0:0:0:
36,192,39838,1,0,0:0:0:0:
180,192,39838,1,0,0:0:0:0:
252,192,39918,1,0,0:0:0:0:
108,192,39997,1,8,0:0:0:0:
324,192,39997,1,0,0:0:0:0:
180,192,40315,1,0,0:0:0:0:
468,192,40473,1,0,0:0:0:0:
36,192,40632,1,8,0:0:0:0:
252,192,40632,1,0,0:0:0:0:
324,192,40949,1,0,0:0:0:0:
180,192,41267,1,8,0:0:0:0:
396,192,41267,1,8,0:0:0:0:
108,192,41267,1,0,0:0:0:0:
36,192,41584,1,0,0:0:0:0:
396,192,41584,1,0,0:0:0:0:
180,192,41664,1,0,0:0:0:0:
36,192,41743,1,0,0:0:0:0:
180,192,41822,1,0,0:0:0:0:
468,192,41902,1,8,0:0:0:0:
252,192,41902,1,0,0:0:0:0:
324,192,41902,1,0,0:0:0:0:
180,192,42219,1,0,0:0:0:0:
36,192,42219,1,0,0:0:0:0:
252,192,42299,1,0,0:0:0:0:
324,192,42378,1,0,0:0:0:0:
468,192,42457,1,0,0:0:0:0:
252,192,42537,1,8,0:0:0:0:
396,192,42537,1,0,0:0:0:0:
36,192,42537,1,0,0:0:0:0:
180,192,42616,1,0,0:0:0:0:
252,192,42695,1,0,0:0:0:0:
324,192,42854,1,0,0:0:0:0:
108,192,42854,1,0,0:0:0:0:
468,192,42934,1,0,0:0:0:0:
324,192,43013,1,0,0:0:0:0:
109,192,43171,1,8,0:0:0:0:
252,192,43172,1,0,0:0:0:0:
324,192,43251,1,0,0:0:0:0:
36,192,43330,1,0,0:0:0:0:
108,192,43410,1,0,0:0:0:0:
468,192,43489,1,0,0:0:0:0:
182,192,43489,1,0,0:0:0:0:
396,192,43569,1,0,0:0:0:0:
324,192,43648,1,0,0:0:0:0:
252,192,43727,1,0,0:0:0:0:
108,192,43807,1,4,0:0:0:0:
180,192,43807,1,0,0:0:0:0:
468,192,43807,1,0,0:0:0:0:
180,192,43965,1,0,0:0:0:0:
396,192,43965,1,0,0:0:0:0:
108,192,43965,1,0,0:0:0:0:
324,192,44124,1,0,0:0:0:0:
180,192,44124,1,0,0:0:0:0:
108,192,44124,1,0,0:0:0:0:
252,192,44283,1,4,0:0:0:0:
180,192,44283,1,0,0:0:0:0:
36,192,44283,1,0,0:0:0:0:
108,192,44600,1,0,0:0:0:0:
180,192,44600,1,0,0:0:0:0:
324,192,44600,1,0,0:0:0:0:
468,192,44918,1,0,0:0:0:0:
108,192,44918,1,0,0:0:0:0:
180,192,44997,1,0,0:0:0:0:
252,192,45076,1,8,0:0:0:0:
396,192,45235,1,0,0:0:0:0:
180,192,45235,1,0,0:0:0:0:
324,192,45394,1,0,0:0:0:0:
108,192,45394,1,0,0:0:0:0:
252,192,45553,1,0,0:0:0:0:
36,192,45553,1,0,0:0:0:0:
324,192,45711,1,8,0:0:0:0:
108,192,45711,1,0,0:0:0:0:
108,192,45870,1,0,0:0:0:0:
324,192,45870,1,0,0:0:0:0:
252,192,46029,1,0,0:0:0:0:
396,192,46108,1,0,0:0:0:0:
468,192,46188,1,0,0:0:0:0:
108,192,46188,1,0,0:0:0:0:
396,192,46267,1,0,0:0:0:0:
108,192,46346,1,4,0:0:0:0:
252,192,46346,1,0,0:0:0:0:
324,192,46346,1,0,0:0:0:0:
252,192,46505,1,0,0:0:0:0:
180,192,46505,1,0,0:0:0:0:
324,192,46505,1,0,0:0:0:0:
396,192,46664,1,0,0:0:0:0:
180,192,46664,1,0,0:0:0:0:
252,192,46664,1,0,0:0:0:0:
324,192,46822,1,4,0:0:0:0:
180,192,46822,1,0,0:0:0:0:
468,192,46822,1,0,0:0:0:0:
396,192,47140,1,0,0:0:0:0:
180,192,47140,1,0,0:0:0:0:
324,192,47140,1,0,0:0:0:0:
36,192,47457,1,0,0:0:0:0:
468,192,47457,1,0,0:0:0:0:
180,192,47537,1,0,0:0:0:0:
252,192,47616,1,8,0:0:0:0:
36,192,47775,1,0,0:0:0:0:
396,192,47775,1,0,0:0:0:0:
180,192,47854,1,0,0:0:0:0:
324,192,47934,1,0,0:0:0:0:
252,192,47934,1,0,0:0:0:0:
180,192,48092,1,0,0:0:0:0:
36,192,48092,1,0,0:0:0:0:
324,192,48251,1,8,0:0:0:0:
108,192,48251,1,0,0:0:0:0:
108,192,48410,1,0,0:0:0:0:
324,192,48410,1,0,0:0:0:0:
468,192,48569,1,0,0:0:0:0:
324,192,48648,1,0,0:0:0:0:
180,192,48727,1,0,0:0:0:0:
36,192,48807,1,0,0:0:0:0:
468,192,48886,1,4,0:0:0:0:
180,192,48886,1,0,0:0:0:0:
252,192,48886,1,0,0:0:0:0:
252,192,49045,1,0,0:0:0:0:
396,192,49045,1,0,0:0:0:0:
108,192,49045,1,0,0:0:0:0:
180,192,49203,1,0,0:0:0:0:
324,192,49203,1,0,0:0:0:0:
36,192,49203,1,0,0:0:0:0:
252,192,49362,1,4,0:0:0:0:
468,192,49362,1,4,0:0:0:0:
180,192,49362,1,0,0:0:0:0:
396,192,49680,1,0,0:0:0:0:
180,192,49680,1,0,0:0:0:0:
252,192,49680,1,0,0:0:0:0:
108,192,49997,1,0,0:0:0:0:
468,192,49997,1,0,0:0:0:0:
180,192,50076,1,0,0:0:0:0:
252,192,50156,1,8,0:0:0:0:
180,192,50315,1,0,0:0:0:0:
396,192,50315,1,0,0:0:0:0:
108,192,50473,1,0,0:0:0:0:
324,192,50473,1,0,0:0:0:0:
36,192,50632,1,0,0:0:0:0:
252,192,50632,1,0,0:0:0:0:
108,192,50791,1,8,0:0:0:0:
324,192,50791,1,8,0:0:0:0:
324,192,50949,1,0,0:0:0:0:
108,192,50949,1,0,0:0:0:0:
252,192,51108,1,0,0:0:0:0:
396,192,51188,1,0,0:0:0:0:
108,192,51267,1,0,0:0:0:0:
468,192,51267,1,0,0:0:0:0:
396,192,51346,1,0,0:0:0:0:
108,192,51426,1,4,0:0:0:0:
324,192,51426,1,4,0:0:0:0:
252,192,51426,1,0,0:0:0:0:
324,192,51584,1,0,0:0:0:0:
180,192,51584,1,0,0:0:0:0:
108,192,51584,1,0,0:0:0:0:
36,192,51743,1,4,0:0:0:0:
180,192,51743,1,0,0:0:0:0:
252,192,51743,1,0,0:0:0:0:
108,192,51902,1,0,0:0:0:0:
180,192,51902,1,0,0:0:0:0:
36,192,51902,1,0,0:0:0:0:
36,192,52219,1,0,0:0:0:0:
180,192,52219,1,0,0:0:0:0:
252,192,52219,1,0,0:0:0:0:
252,192,52537,1,0,0:0:0:0:
36,192,52537,1,0,0:0:0:0:
396,192,52616,1,0,0:0:0:0:
468,192,52695,1,8,0:0:0:0:
108,192,52854,1,0,0:0:0:0:
324,192,52854,1,0,0:0:0:0:
180,192,53013,1,0,0:0:0:0:
396,192,53013,1,0,0:0:0:0:
252,192,53172,1,0,0:0:0:0:
468,192,53172,1,0,0:0:0:0:
180,192,53330,1,8,0:0:0:0:
396,192,53330,1,8,0:0:0:0:
180,192,53489,1,0,0:0:0:0:
396,192,53489,1,0,0:0:0:0:
36,192,53648,1,0,0:0:0:0:
252,192,53648,1,0,0:0:0:0:
108,192,53727,1,0,0:0:0:0:
324,192,53727,1,0,0:0:0:0:
180,192,53807,1,0,0:0:0:0:
396,192,53807,1,0,0:0:0:0:
252,192,53886,1,0,0:0:0:0:
468,192,53886,1,0,0:0:0:0:
108,192,53965,1,4,0:0:0:0:
324,192,53965,1,0,0:0:0:0:
396,192,53965,128,0,54442:0:0:0:0:
252,192,54124,1,0,0:0:0:0:
36,192,54124,1,0,0:0:0:0:
180,192,54283,1,0,0:0:0:0:
324,192,54283,1,0,0:0:0:0:
324,192,54442,128,8,54600:0:0:0:0:
108,192,54442,1,8,0:0:0:0:
252,192,54442,1,0,0:0:0:0:
180,192,54759,1,8,0:0:0:0:
252,192,54759,1,0,0:0:0:0:
396,192,54759,128,0,55076:0:0:0:0:
36,192,55076,1,4,0:0:0:0:
252,192,55076,128,0,57775:0:0:0:0:
36,192,56188,1,0,0:0:0:0:
108,192,56267,1,0,0:0:0:0:
324,192,56346,1,0,0:0:0:0:
396,192,56426,1,0,0:0:0:0:
468,192,56505,128,0,57299:0:0:0:0:
468,192,57457,1,0,0:0:0:0:
396,192,57537,1,0,0:0:0:0:
180,192,57616,1,0,0:0:0:0:
108,192,57695,1,0,0:0:0:0:
36,192,57775,1,0,0:0:0:0:
324,192,57775,1,0,0:0:0:0:
108,192,57934,1,0,0:0:0:0:
180,192,58092,1,0,0:0:0:0:
468,192,58251,1,0,0:0:0:0:
36,192,58251,1,0,0:0:0:0:
324,192,58410,1,0,0:0:0:0:
180,192,58569,1,0,0:0:0:0:
108,192,58886,1,0,0:0:0:0:
468,192,58886,1,0,0:0:0:0:
180,192,59045,1,0,0:0:0:0:
252,192,59045,1,0,0:0:0:0:
324,192,59203,1,0,0:0:0:0:
396,192,59362,1,0,0:0:0:0:
180,192,59521,1,0,0:0:0:0:
468,192,59521,1,0,0:0:0:0:
108,192,59680,1,0,0:0:0:0:
36,192,59838,1,0,0:0:0:0:
324,192,59838,1,0,0:0:0:0:
252,192,59918,1,0,0:0:0:0:
324,192,60315,1,0,0:0:0:0:
36,192,60315,1,0,0:0:0:0:
108,192,60473,1,0,0:0:0:0:
180,192,60632,1,0,0:0:0:0:
468,192,60791,1,0,0:0:0:0:
324,192,60791,1,0,0:0:0:0:
468,192,60949,1,0,0:0:0:0:
252,192,61108,1,0,0:0:0:0:
396,192,61426,1,0,0:0:0:0:
180,192,61426,1,0,0:0:0:0:
468,192,61584,1,0,0:0:0:0:
108,192,61584,1,0,0:0:0:0:
252,192,61743,1,0,0:0:0:0:
324,192,61902,1,0,0:0:0:0:
180,192,62061,1,0,0:0:0:0:
396,192,62061,1,0,0:0:0:0:
36,192,62219,1,0,0:0:0:0:
468,192,62378,1,0,0:0:0:0:
252,192,62854,1,0,0:0:0:0:
36,192,62854,1,0,0:0:0:0:
108,192,63013,1,0,0:0:0:0:
252,192,63172,1,0,0:0:0:0:
36,192,63330,1,0,0:0:0:0:
468,192,63330,1,0,0:0:0:0:
36,192,63489,1,0,0:0:0:0:
324,192,63648,1,0,0:0:0:0:
180,192,63965,1,0,0:0:0:0:
108,192,63965,1,0,0:0:0:0:
252,192,64124,1,0,0:0:0:0:
36,192,64124,1,0,0:0:0:0:
180,192,64283,1,0,0:0:0:0:
324,192,64442,1,0,0:0:0:0:
108,192,64600,1,0,0:0:0:0:
396,192,64600,1,0,0:0:0:0:
324,192,64759,1,0,0:0:0:0:
396,192,64918,1,0,0:0:0:0:
180,192,64918,1,0,0:0:0:0:
324,192,65076,1,0,0:0:0:0:
252,192,65394,1,0,0:0:0:0:
36,192,65394,1,0,0:0:0:0:
252,192,65553,1,0,0:0:0:0:
108,192,65553,1,0,0:0:0:0:
180,192,65711,1,0,0:0:0:0:
468,192,65870,1,0,0:0:0:0:
252,192,65870,1,0,0:0:0:0:
468,192,66029,1,0,0:0:0:0:
324,192,66188,1,0,0:0:0:0:
180,192,66505,1,0,0:0:0:0:
396,192,66664,1,8,0:0:0:0:
36,192,66664,1,0,0:0:0:0:
108,192,66664,1,0,0:0:0:0:
324,192,66822,1,0,0:0:0:0:
180,192,66902,1,0,0:0:0:0:
324,192,66981,1,0,0:0:0:0:
180,192,67061,1,0,0:0:0:0:
324,192,67140,1,0,0:0:0:0:
108,192,67140,1,0,0:0:0:0:
36,192,67299,1,0,0:0:0:0:
324,192,67299,1,0,0:0:0:0:
396,192,67378,1,0,0:0:0:0:
108,192,67378,1,0,0:0:0:0:
180,192,67457,1,0,0:0:0:0:
468,192,67457,1,0,0:0:0:0:
36,192,67537,1,0,0:0:0:0:
252,192,67537,1,0,0:0:0:0:
108,192,67616,1,0,0:0:0:0:
324,192,67616,1,0,0:0:0:0:
180,192,67695,1,0,0:0:0:0:
396,192,67695,1,0,0:0:0:0:
252,192,67775,1,0,0:0:0:0:
36,192,67775,1,0,0:0:0:0:
468,192,67775,1,0,0:0:0:0:
108,192,67854,1,0,0:0:0:0:
324,192,67854,1,0,0:0:0:0:
36,192,67934,1,4,0:0:0:0:
396,192,67934,1,0,0:0:0:0:
468,192,67934,1,0,0:0:0:0:
180,192,68013,1,0,0:0:0:0:
36,192,68092,1,0,0:0:0:0:
396,192,68092,1,0,0:0:0:0:
468,192,68092,1,0,0:0:0:0:
108,192,68172,1,0,0:0:0:0:
468,192,68251,1,0,0:0:0:0:
324,192,68330,1,0,0:0:0:0:
252,192,68410,1,0,0:0:0:0:
180,192,68489,1,0,0:0:0:0:
252,192,68569,1,8,0:0:0:0:
36,192,68569,1,0,0:0:0:0:
324,192,68569,1,0,0:0:0:0:
108,192,68648,1,0,0:0:0:0:
252,192,68727,1,0,0:0:0:0:
324,192,68727,1,0,0:0:0:0:
36,192,68727,1,0,0:0:0:0:
468,192,68807,1,0,0:0:0:0:
396,192,68886,1,0,0:0:0:0:
324,192,68965,1,0,0:0:0:0:
180,192,69045,1,0,0:0:0:0:
108,192,69124,1,0,0:0:0:0:
475,192,69203,1,8,0:0:0:0:
36,192,69203,1,8,0:0:0:0:
324,192,69203,1,0,0:0:0:0:
182,192,69282,1,0,0:0:0:0:
324,192,69362,1,0,0:0:0:0:
475,192,69362,1,0,0:0:0:0:
36,192,69362,1,0,0:0:0:0:
256,192,69441,1,0,0:0:0:0:
468,192,69521,1,0,0:0:0:0:
180,192,69600,1,0,0:0:0:0:
252,192,69680,1,0,0:0:0:0:
468,192,69759,1,0,0:0:0:0:
396,192,69838,1,8,0:0:0:0:
252,192,69918,1,0,0:0:0:0:
108,192,69997,1,0,0:0:0:0:
36,192,70076,1,0,0:0:0:0:
396,192,70156,1,0,0:0:0:0:
324,192,70235,1,0,0:0:0:0:
252,192,70315,1,0,0:0:0:0:
180,192,70394,1,0,0:0:0:0:
468,192,70473,1,4,0:0:0:0:
324,192,70473,1,0,0:0:0:0:
108,192,70473,1,0,0:0:0:0:
180,192,70553,1,0,0:0:0:0:
108,192,70632,1,0,0:0:0:0:
468,192,70632,1,0,0:0:0:0:
324,192,70632,1,0,0:0:0:0:
252,192,70711,1,0,0:0:0:0:
468,192,70791,1,0,0:0:0:0:
324,192,70870,1,0,0:0:0:0:
252,192,70949,1,0,0:0:0:0:
108,192,71029,1,0,0:0:0:0:
324,192,71108,1,8,0:0:0:0:
252,192,71108,1,0,0:0:0:0:
36,192,71108,1,0,0:0:0:0:
180,192,71188,1,0,0:0:0:0:
36,192,71267,1,0,0:0:0:0:
252,192,71267,1,0,0:0:0:0:
324,192,71267,1,0,0:0:0:0:
396,192,71346,1,0,0:0:0:0:
468,192,71426,1,0,0:0:0:0:
324,192,71505,1,0,0:0:0:0:
252,192,71584,1,0,0:0:0:0:
180,192,71664,1,0,0:0:0:0:
468,192,71743,1,8,0:0:0:0:
468,192,71822,1,0,0:0:0:0:
108,192,71902,1,0,0:0:0:0:
108,192,71981,1,0,0:0:0:0:
324,192,72061,1,0,0:0:0:0:
324,192,72140,1,0,0:0:0:0:
36,192,72219,1,0,0:0:0:0:
36,192,72299,1,0,0:0:0:0:
396,192,72378,1,8,0:0:0:0:
396,192,72457,1,0,0:0:0:0:
180,192,72537,1,0,0:0:0:0:
180,192,72616,1,0,0:0:0:0:
468,192,72695,1,0,0:0:0:0:
396,192,72775,1,0,0:0:0:0:
324,192,72854,1,0,0:0:0:0:
252,192,72934,1,0,0:0:0:0:
36,192,73013,1,4,0:0:0:0:
468,192,73013,1,4,0:0:0:0:
180,192,73092,1,0,0:0:0:0:
252,192,73172,1,0,0:0:0:0:
468,192,73172,1,0,0:0:0:0:
324,192,73251,1,0,0:0:0:0:
468,192,73330,1,0,0:0:0:0:
324,192,73410,1,0,0:0:0:0:
252,192,73489,1,0,0:0:0:0:
180,192,73569,1,0,0:0:0:0:
108,192,73648,1,8,0:0:0:0:
324,192,73648,1,0,0:0:0:0:
180,192,73727,1,0,0:0:0:0:
252,192,73807,1,0,0:0:0:0:
324,192,73886,1,0,0:0:0:0:
36,192,73886,1,0,0:0:0:0:
396,192,73965,1,0,0:0:0:0:
324,192,74045,1,0,0:0:0:0:
180,192,74124,1,0,0:0:0:0:
108,192,74203,1,0,0:0:0:0:
36,192,74283,1,0,0:0:0:0:
252,192,74283,1,0,0:0:0:0:
180,192,74362,1,0,0:0:0:0:
324,192,74442,1,0,0:0:0:0:
252,192,74442,1,0,0:0:0:0:
396,192,74521,1,0,0:0:0:0:
468,192,74600,1,0,0:0:0:0:
180,192,74680,1,0,0:0:0:0:
252,192,74759,1,0,0:0:0:0:
468,192,74838,1,0,0:0:0:0:
396,192,74918,1,8,0:0:0:0:
324,192,74918,1,0,0:0:0:0:
252,192,74997,1,0,0:0:0:0:
108,192,75076,1,0,0:0:0:0:
324,192,75076,1,0,0:0:0:0:
36,192,75156,1,0,0:0:0:0:
396,192,75235,1,0,0:0:0:0:
324,192,75315,1,0,0:0:0:0:
252,192,75394,1,0,0:0:0:0:
180,192,75473,1,0,0:0:0:0:
36,192,75553,1,4,0:0:0:0:
108,192,75632,1,0,0:0:0:0:
252,192,75711,1,0,0:0:0:0:
324,192,75791,1,0,0:0:0:0:
468,192,75870,1,0,0:0:0:0:
324,192,75949,1,0,0:0:0:0:
252,192,76029,1,0,0:0:0:0:
108,192,76108,1,0,0:0:0:0:
36,192,76188,1,8,0:0:0:0:
180,192,76267,1,0,0:0:0:0:
252,192,76346,1,0,0:0:0:0:
324,192,76426,1,0,0:0:0:0:
468,192,76505,1,0,0:0:0:0:
324,192,76584,1,0,0:0:0:0:
252,192,76664,1,0,0:0:0:0:
180,192,76743,1,0,0:0:0:0:
468,192,76822,1,8,0:0:0:0:
468,192,76902,1,0,0:0:0:0:
108,192,76981,1,0,0:0:0:0:
108,192,77061,1,0,0:0:0:0:
324,192,77140,1,0,0:0:0:0:
324,192,77219,1,0,0:0:0:0:
36,192,77299,1,0,0:0:0:0:
36,192,77378,1,0,0:0:0:0:
396,192,77457,1,8,0:0:0:0:
396,192,77537,1,0,0:0:0:0:
180,192,77616,1,0,0:0:0:0:
180,192,77695,1,0,0:0:0:0:
468,192,77775,1,0,0:0:0:0:
396,192,77854,1,0,0:0:0:0:
324,192,77934,1,0,0:0:0:0:
252,192,78013,1,0,0:0:0:0:
180,192,78092,1,4,0:0:0:0:
180,192,78172,1,0,0:0:0:0:
252,192,78251,1,0,0:0:0:0:
252,192,78330,1,0,0:0:0:0:
468,192,78410,1,0,0:0:0:0:
468,192,78489,1,0,0:0:0:0:
252,192,78569,1,0,0:0:0:0:
252,192,78648,1,0,0:0:0:0:
108,192,78727,1,8,0:0:0:0:
108,192,78807,1,0,0:0:0:0:
180,192,78886,1,0,0:0:0:0:
180,192,78965,1,0,0:0:0:0:
396,192,79045,1,0,0:0:0:0:
396,192,79124,1,0,0:0:0:0:
180,192,79203,1,0,0:0:0:0:
180,192,79283,1,0,0:0:0:0:
36,192,79362,1,8,0:0:0:0:
36,192,79442,1,0,0:0:0:0:
108,192,79521,1,0,0:0:0:0:
108,192,79600,1,0,0:0:0:0:
324,192,79680,1,0,0:0:0:0:
324,192,79759,1,0,0:0:0:0:
468,192,79838,1,0,0:0:0:0:
468,192,79918,1,0,0:0:0:0:
396,192,79997,1,8,0:0:0:0:
396,192,80076,1,0,0:0:0:0:
252,192,80156,1,0,0:0:0:0:
252,192,80235,1,0,0:0:0:0:
180,192,80315,1,0,0:0:0:0:
180,192,80394,1,0,0:0:0:0:
36,192,80473,1,0,0:0:0:0:
36,192,80553,1,0,0:0:0:0:
180,192,80632,1,8,0:0:0:0:
180,192,80711,1,0,0:0:0:0:
324,192,80791,1,0,0:0:0:0:
324,192,80870,1,0,0:0:0:0:
468,192,80949,1,0,0:0:0:0:
468,192,81029,1,0,0:0:0:0:
324,192,81108,1,0,0:0:0:0:
324,192,81188,1,0,0:0:0:0:
36,192,81267,1,8,0:0:0:0:
36,192,81346,1,0,0:0:0:0:
108,192,81426,1,0,0:0:0:0:
108,192,81505,1,0,0:0:0:0:
324,192,81584,1,0,0:0:0:0:
324,192,81664,1,0,0:0:0:0:
108,192,81743,1,0,0:0:0:0:
108,192,81822,1,0,0:0:0:0:
468,192,81902,1,8,0:0:0:0:
468,192,81981,1,0,0:0:0:0:
180,192,82061,1,0,0:0:0:0:
180,192,82140,1,0,0:0:0:0:
324,192,82219,1,0,0:0:0:0:
324,192,82299,1,0,0:0:0:0:
108,192,82378,1,0,0:0:0:0:
108,192,82457,1,0,0:0:0:0:
252,192,82537,1,8,0:0:0:0:
252,192,82616,1,0,0:0:0:0:
36,192,82695,1,0,0:0:0:0:
36,192,82775,1,0,0:0:0:0:
475,192,82854,1,0,0:0:0:0:
256,192,82854,1,0,0:0:0:0:
402,192,82933,1,0,0:0:0:0:
182,192,82933,1,0,0:0:0:0:
329,192,83012,1,0,0:0:0:0:
109,192,83012,1,0,0:0:0:0:
256,192,83092,1,0,0:0:0:0:
36,192,83092,1,0,0:0:0:0:
252,192,83172,1,4,0:0:0:0:
36,192,83172,1,0,0:0:0:0:
108,192,83251,1,0,0:0:0:0:
324,192,83251,1,0,0:0:0:0:
180,192,83330,1,0,0:0:0:0:
396,192,83330,1,0,0:0:0:0:
252,192,83410,1,0,0:0:0:0:
468,192,83410,1,0,0:0:0:0:
180,192,83807,1,4,0:0:0:0:
36,192,83807,1,0,0:0:0:0:
252,192,83886,1,0,0:0:0:0:
108,192,83886,1,0,0:0:0:0:
180,192,83965,1,0,0:0:0:0:
324,192,83965,1,0,0:0:0:0:
396,192,84045,1,0,0:0:0:0:
252,192,84045,1,0,0:0:0:0:
36,192,84442,1,4,0:0:0:0:
324,192,84442,1,0,0:0:0:0:
396,192,84521,1,0,0:0:0:0:
108,192,84521,1,0,0:0:0:0:
180,192,84600,1,0,0:0:0:0:
468,192,84600,1,0,0:0:0:0:
252,192,84680,1,0,0:0:0:0:
36,192,84680,1,0,0:0:0:0:
252,192,85076,1,4,0:0:0:0:
468,192,85076,1,0,0:0:0:0:
180,192,85156,1,0,0:0:0:0:
396,192,85156,1,0,0:0:0:0:
108,192,85235,1,0,0:0:0:0:
324,192,85235,1,0,0:0:0:0:
252,192,85315,1,0,0:0:0:0:
36,192,85315,1,0,0:0:0:0:
180,192,85394,1,0,0:0:0:0:
468,192,85394,1,0,0:0:0:0:
396,192,85473,1,0,0:0:0:0:
108,192,85473,1,0,0:0:0:0:
36,192,85553,1,0,0:0:0:0:
324,192,85553,1,0,0:0:0:0:
252,192,85632,1,0,0:0:0:0:
468,192,85632,1,0,0:0:0:0:
180,192,85711,1,4,0:0:0:0:
36,192,85711,1,4,0:0:0:0:
252,192,85791,1,0,0:0:0:0:
324,192,85870,1,0,0:0:0:0:
396,192,85949,1,0,0:0:0:0:
468,192,86029,1,0,0:0:0:0:
396,192,86108,1,0,0:0:0:0:
324,192,86188,1,0,0:0:0:0:
108,192,86188,1,0,0:0:0:0:
252,192,86267,1,0,0:0:0:0:
36,192,86346,1,8,0:0:0:0:
468,192,86346,1,8,0:0:0:0:
108,192,86426,1,0,0:0:0:0:
180,192,86505,1,0,0:0:0:0:
36,192,86505,1,0,0:0:0:0:
324,192,86584,1,0,0:0:0:0:
468,192,86664,1,0,0:0:0:0:
108,192,86664,1,0,0:0:0:0:
324,192,86743,1,0,0:0:0:0:
180,192,86822,1,0,0:0:0:0:
396,192,86822,1,0,0:0:0:0:
108,192,86902,1,0,0:0:0:0:
468,192,86981,1,8,0:0:0:0:
252,192,86981,1,0,0:0:0:0:
468,192,87061,1,0,0:0:0:0:
108,192,87140,1,0,0:0:0:0:
108,192,87219,1,0,0:0:0:0:
324,192,87299,1,0,0:0:0:0:
468,192,87299,1,0,0:0:0:0:
324,192,87378,1,0,0:0:0:0:
36,192,87457,1,0,0:0:0:0:
36,192,87537,1,0,0:0:0:0:
468,192,87616,1,8,0:0:0:0:
108,192,87616,1,8,0:0:0:0:
396,192,87695,1,0,0:0:0:0:
252,192,87775,1,0,0:0:0:0:
180,192,87854,1,0,0:0:0:0:
468,192,87934,1,0,0:0:0:0:
36,192,87934,1,0,0:0:0:0:
324,192,88013,1,0,0:0:0:0:
252,192,88092,1,0,0:0:0:0:
180,192,88172,1,0,0:0:0:0:
108,192,88251,128,4,89203:0:0:0:0:
396,192,88251,128,4,89203:0:0:0:0:
324,192,88251,128,0,89203:0:0:0:0:
324,192,89362,128,0,89521:0:0:0:0:
180,192,89362,128,0,89521:0:0:0:0:
468,192,89362,128,0,89521:0:0:0:0:
252,192,89521,128,0,89680:0:0:0:0:
396,192,89521,128,0,89680:0:0:0:0:
108,192,89521,128,0,89680:0:0:0:0:
252,192,89838,128,0,89997:0:0:0:0:
180,192,89838,128,0,89997:0:0:0:0:
36,192,89838,128,0,89997:0:0:0:0:
108,192,89997,128,0,90156:0:0:0:0:
396,192,89997,128,0,90156:0:0:0:0:
324,192,89997,128,0,90156:0:0:0:0:
36,192,90156,128,0,90315:0:0:0:0:
180,192,90156,128,0,90315:0:0:0:0:
252,192,90156,128,0,90315:0:0:0:0:
108,192,90473,128,0,90632:0:0:0:0:
180,192,90473,128,0,90632:0:0:0:0:
324,192,90473,128,0,90632:0:0:0:0:
36,192,90632,128,0,90791:0:0:0:0:
396,192,90632,128,0,90791:0:0:0:0:
252,192,90632,128,0,90791:0:0:0:0:
468,192,90791,128,4,91743:0:0:0:0:
108,192,90791,128,0,91743:0:0:0:0:
324,192,90791,128,0,91743:0:0:0:0:
180,192,91902,128,0,92061:0:0:0:0:
396,192,91902,128,0,92061:0:0:0:0:
108,192,92061,128,0,92378:0:0:0:0:
324,192,92061,128,0,92166:0:0:0:0:
396,192,92166,128,0,92272:0:0:0:0:
324,192,92272,128,0,92378:0:0:0:0:
252,192,92378,128,0,92537:0:0:0:0:
36,192,92378,128,0,92537:0:0:0:0:
396,192,92537,128,0,92695:0:0:0:0:
108,192,92537,128,0,92695:0:0:0:0:
180,192,92695,128,0,93013:0:0:0:0:
468,192,92695,128,0,93013:0:0:0:0:
324,192,93013,128,0,93172:0:0:0:0:
396,192,93013,128,0,93172:0:0:0:0:
252,192,93013,128,0,93172:0:0:0:0:
36,192,93172,128,0,93330:0:0:0:0:
468,192,93172,128,0,93330:0:0:0:0:
108,192,93172,128,0,93330:0:0:0:0:
396,192,93330,128,4,94283:0:0:0:0:
180,192,93330,128,0,94283:0:0:0:0:
324,192,93330,128,0,94283:0:0:0:0:
252,192,94442,128,0,94600:0:0:0:0:
36,192,94442,128,0,94600:0:0:0:0:
108,192,94600,128,0,94918:0:0:0:0:
324,192,94600,128,0,94706:0:0:0:0:
396,192,94706,128,0,94812:0:0:0:0:
324,192,94812,128,0,94918:0:0:0:0:
36,192,94918,128,0,95076:0:0:0:0:
180,192,94918,128,0,95076:0:0:0:0:
252,192,94918,128,0,95076:0:0:0:0:
396,192,95076,128,0,95235:0:0:0:0:
324,192,95076,128,0,95235:0:0:0:0:
468,192,95076,128,0,95235:0:0:0:0:
108,192,95235,128,0,95394:0:0:0:0:
252,192,95235,128,0,95394:0:0:0:0:
36,192,95235,128,0,95394:0:0:0:0:
180,192,95553,128,0,95711:0:0:0:0:
396,192,95553,128,0,95711:0:0:0:0:
324,192,95553,128,0,95711:0:0:0:0:
36,192,95711,128,0,95870:0:0:0:0:
252,192,95711,128,0,95870:0:0:0:0:
468,192,95711,128,0,95870:0:0:0:0:
108,192,95870,128,4,98251:0:0:0:0:
180,192,95870,128,0,98251:0:0:0:0:
324,192,95870,128,0,98251:0:0:0:0:
396,192,96029,1,0,0:0:0:0:
36,192,96188,1,0,0:0:0:0:
396,192,96346,1,0,0:0:0:0:
36,192,96505,1,0,0:0:0:0:
396,192,96664,1,0,0:0:0:0:
36,192,96822,1,0,0:0:0:0:
396,192,96981,1,0,0:0:0:0:
36,192,97140,1,0,0:0:0:0:
396,192,97299,1,0,0:0:0:0:
36,192,97457,1,0,0:0:0:0:
396,192,97616,1,0,0:0:0:0:
36,192,97775,1,0,0:0:0:0:
396,192,97934,1,0,0:0:0:0:
468,192,98092,1,0,0:0:0:0:
36,192,98092,1,0,0:0:0:0:
36,192,98172,1,0,0:0:0:0:
468,192,98172,1,0,0:0:0:0:
324,192,98410,1,4,0:0:0:0:
252,192,98410,1,0,0:0:0:0:
36,192,98410,1,0,0:0:0:0:
396,192,98569,1,0,0:0:0:0:
468,192,98727,1,0,0:0:0:0:
36,192,98886,1,0,0:0:0:0:
252,192,98886,1,0,0:0:0:0:
396,192,98886,1,0,0:0:0:0:
468,192,99362,1,0,0:0:0:0:
108,192,99362,1,0,0:0:0:0:
252,192,99362,1,0,0:0:0:0:
324,192,99521,1,0,0:0:0:0:
252,192,99838,1,0,0:0:0:0:
108,192,99838,1,0,0:0:0:0:
468,192,99997,1,0,0:0:0:0:
324,192,100156,1,0,0:0:0:0:
180,192,100315,1,0,0:0:0:0:
36,192,100315,1,0,0:0:0:0:
252,192,100473,1,0,0:0:0:0:
180,192,100553,1,0,0:0:0:0:
468,192,100632,1,0,0:0:0:0:
252,192,100632,1,0,0:0:0:0:
324,192,100791,128,0,103172:0:0:0:0:
468,192,100949,1,4,0:0:0:0:
36,192,100949,1,4,0:0:0:0:
108,192,101108,1,0,0:0:0:0:
252,192,101267,1,0,0:0:0:0:
468,192,101426,1,0,0:0:0:0:
36,192,101426,1,0,0:0:0:0:
252,192,101584,1,0,0:0:0:0:
36,192,101743,1,0,0:0:0:0:
468,192,101902,1,0,0:0:0:0:
180,192,101902,1,0,0:0:0:0:
252,192,102061,1,0,0:0:0:0:
36,192,102219,1,0,0:0:0:0:
252,192,102378,1,0,0:0:0:0:
468,192,102378,1,0,0:0:0:0:
396,192,102537,1,0,0:0:0:0:
108,192,102695,1,0,0:0:0:0:
252,192,102854,1,0,0:0:0:0:
468,192,102854,1,0,0:0:0:0:
396,192,102934,1,0,0:0:0:0:
36,192,103013,1,0,0:0:0:0:
468,192,103013,1,0,0:0:0:0:
180,192,103172,1,0,0:0:0:0:
396,192,103172,1,0,0:0:0:0:
108,192,103330,1,0,0:0:0:0:
252,192,103489,1,4,0:0:0:0:
468,192,103489,1,0,0:0:0:0:
36,192,103489,1,0,0:0:0:0:
108,192,103648,1,0,0:0:0:0:
180,192,103807,1,8,0:0:0:0:
468,192,103807,1,0,0:0:0:0:
324,192,103807,1,0,0:0:0:0:
36,192,103965,1,0,0:0:0:0:
252,192,104124,1,8,0:0:0:0:
396,192,104124,1,0,0:0:0:0:
396,192,104442,1,8,0:0:0:0:
324,192,104442,1,8,0:0:0:0:
180,192,104442,1,0,0:0:0:0:
36,192,104600,1,0,0:0:0:0:
252,192,104759,1,8,0:0:0:0:
468,192,104759,1,0,0:0:0:0:
180,192,105076,1,8,0:0:0:0:
468,192,105076,1,8,0:0:0:0:
324,192,105076,1,0,0:0:0:0:
36,192,105235,1,0,0:0:0:0:
252,192,105394,1,8,0:0:0:0:
396,192,105394,1,8,0:0:0:0:
396,192,105711,1,8,0:0:0:0:
468,192,105711,1,0,0:0:0:0:
180,192,105711,1,0,0:0:0:0:
36,192,105870,128,0,108569:0:0:0:0:
252,192,106029,1,4,0:0:0:0:
108,192,106029,1,0,0:0:0:0:
324,192,106188,1,0,0:0:0:0:
468,192,106346,1,0,0:0:0:0:
180,192,106346,1,0,0:0:0:0:
252,192,106505,1,0,0:0:0:0:
468,192,106664,1,0,0:0:0:0:
324,192,106664,1,0,0:0:0:0:
108,192,106822,1,0,0:0:0:0:
252,192,106981,1,0,0:0:0:0:
396,192,106981,1,0,0:0:0:0:
468,192,107061,1,0,0:0:0:0:
324,192,107140,1,0,0:0:0:0:
108,192,107140,1,0,0:0:0:0:
252,192,107219,1,0,0:0:0:0:
180,192,107299,128,0,107457:0:0:0:0:
396,192,107457,128,0,107616:0:0:0:0:
468,192,107616,128,0,107775:0:0:0:0:
108,192,107775,128,0,107934:0:0:0:0:
396,192,107934,128,0,108092:0:0:0:0:
180,192,108092,128,0,108251:0:0:0:0:
468,192,108251,128,0,108410:0:0:0:0:
108,192,108410,128,0,108569:0:0:0:0:
180,192,108569,1,4,0:0:0:0:
252,192,108648,1,0,0:0:0:0:
36,192,108727,1,0,0:0:0:0:
108,192,108807,1,0,0:0:0:0:
396,192,108886,1,0,0:0:0:0:
252,192,108965,1,0,0:0:0:0:
180,192,109045,1,0,0:0:0:0:
108,192,109124,1,0,0:0:0:0:
36,192,109203,1,8,0:0:0:0:
252,192,109283,1,0,0:0:0:0:
180,192,109362,1,0,0:0:0:0:
324,192,109442,1,0,0:0:0:0:
468,192,109521,1,0,0:0:0:0:
396,192,109600,1,0,0:0:0:0:
252,192,109680,1,0,0:0:0:0:
180,192,109759,1,0,0:0:0:0:
108,192,109838,1,8,0:0:0:0:
180,192,109918,1,0,0:0:0:0:
324,192,109997,1,0,0:0:0:0:
252,192,110076,1,0,0:0:0:0:
468,192,110156,1,0,0:0:0:0:
396,192,110235,1,0,0:0:0:0:
324,192,110315,1,0,0:0:0:0:
108,192,110394,1,0,0:0:0:0:
36,192,110473,1,8,0:0:0:0:
108,192,110553,1,0,0:0:0:0:
252,192,110632,1,0,0:0:0:0:
324,192,110711,1,0,0:0:0:0:
468,192,110791,1,0,0:0:0:0:
180,192,110870,1,0,0:0:0:0:
108,192,110949,1,0,0:0:0:0:
36,192,111029,1,0,0:0:0:0:
252,192,111108,1,4,0:0:0:0:
324,192,111188,1,0,0:0:0:0:
108,192,111267,1,0,0:0:0:0:
180,192,111346,1,0,0:0:0:0:
468,192,111426,1,0,0:0:0:0:
108,192,111505,1,0,0:0:0:0:
36,192,111584,1,0,0:0:0:0:
324,192,111664,1,0,0:0:0:0:
180,192,111743,1,8,0:0:0:0:
252,192,111822,1,0,0:0:0:0:
36,192,111902,1,0,0:0:0:0:
108,192,111981,1,0,0:0:0:0:
468,192,112061,1,0,0:0:0:0:
324,192,112140,1,0,0:0:0:0:
180,192,112219,1,0,0:0:0:0:
36,192,112299,1,0,0:0:0:0:
108,192,112378,1,8,0:0:0:0:
180,192,112457,1,0,0:0:0:0:
324,192,112537,1,0,0:0:0:0:
396,192,112616,1,0,0:0:0:0:
468,192,112695,1,0,0:0:0:0:
324,192,112775,1,0,0:0:0:0:
180,192,112854,1,0,0:0:0:0:
252,192,112934,1,0,0:0:0:0:
36,192,113013,1,8,0:0:0:0:
108,192,113092,1,0,0:0:0:0:
180,192,113172,1,0,0:0:0:0:
324,192,113251,1,0,0:0:0:0:
468,192,113330,1,0,0:0:0:0:
396,192,113410,1,0,0:0:0:0:
108,192,113489,1,0,0:0:0:0:
180,192,113569,1,0,0:0:0:0:
36,192,113648,1,4,0:0:0:0:
108,192,113727,1,0,0:0:0:0:
252,192,113807,1,0,0:0:0:0:
324,192,113886,1,0,0:0:0:0:
468,192,113965,1,0,0:0:0:0:
252,192,114045,1,0,0:0:0:0:
180,192,114124,1,0,0:0:0:0:
108,192,114203,1,0,0:0:0:0:
36,192,114283,1,8,0:0:0:0:
108,192,114362,1,0,0:0:0:0:
180,192,114442,1,0,0:0:0:0:
252,192,114521,1,0,0:0:0:0:
468,192,114600,1,0,0:0:0:0:
396,192,114680,1,0,0:0:0:0:
324,192,114759,1,0,0:0:0:0:
180,192,114838,1,0,0:0:0:0:
36,192,114918,1,8,0:0:0:0:
108,192,114997,1,0,0:0:0:0:
252,192,115076,1,0,0:0:0:0:
324,192,115156,1,0,0:0:0:0:
468,192,115235,1,0,0:0:0:0:
324,192,115315,1,0,0:0:0:0:
252,192,115394,1,0,0:0:0:0:
180,192,115473,1,0,0:0:0:0:
108,192,115553,1,8,0:0:0:0:
36,192,115632,1,0,0:0:0:0:
180,192,115711,1,0,0:0:0:0:
252,192,115791,1,0,0:0:0:0:
468,192,115870,1,0,0:0:0:0:
324,192,115949,1,0,0:0:0:0:
252,192,116029,1,0,0:0:0:0:
108,192,116108,1,0,0:0:0:0:
36,192,116188,1,4,0:0:0:0:
180,192,116267,1,0,0:0:0:0:
324,192,116346,1,0,0:0:0:0:
396,192,116426,1,0,0:0:0:0:
468,192,116505,1,0,0:0:0:0:
324,192,116584,1,0,0:0:0:0:
180,192,116664,1,0,0:0:0:0:
108,192,116743,1,0,0:0:0:0:
36,192,116822,1,8,0:0:0:0:
108,192,116902,1,0,0:0:0:0:
252,192,116981,1,0,0:0:0:0:
324,192,117061,1,0,0:0:0:0:
468,192,117140,1,0,0:0:0:0:
324,192,117219,1,0,0:0:0:0:
252,192,117299,1,0,0:0:0:0:
180,192,117378,1,0,0:0:0:0:
108,192,117457,1,8,0:0:0:0:
180,192,117537,1,0,0:0:0:0:
252,192,117616,1,0,0:0:0:0:
324,192,117695,1,0,0:0:0:0:
468,192,117775,1,0,0:0:0:0:
396,192,117854,1,0,0:0:0:0:
324,192,117934,1,0,0:0:0:0:
252,192,118013,1,0,0:0:0:0:
108,192,118092,1,8,0:0:0:0:
180,192,118172,1,0,0:0:0:0:
252,192,118251,1,0,0:0:0:0:
396,192,118330,1,0,0:0:0:0:
468,192,118410,1,0,0:0:0:0:
180,192,118489,1,0,0:0:0:0:
108,192,118569,1,0,0:0:0:0:
36,192,118648,1,0,0:0:0:0:
468,192,118727,1,4,0:0:0:0:
180,192,118727,1,4,0:0:0:0:
252,192,118807,1,0,0:0:0:0:
36,192,118886,1,0,0:0:0:0:
108,192,118965,1,0,0:0:0:0:
396,192,119045,1,0,0:0:0:0:
252,192,119124,1,0,0:0:0:0:
180,192,119203,1,0,0:0:0:0:
108,192,119283,1,0,0:0:0:0:
396,192,119362,1,8,0:0:0:0:
36,192,119362,1,0,0:0:0:0:
252,192,119442,1,0,0:0:0:0:
180,192,119521,1,0,0:0:0:0:
324,192,119600,1,0,0:0:0:0:
468,192,119680,1,0,0:0:0:0:
396,192,119759,1,0,0:0:0:0:
252,192,119838,1,0,0:0:0:0:
180,192,119918,1,0,0:0:0:0:
396,192,119997,1,8,0:0:0:0:
108,192,119997,1,0,0:0:0:0:
180,192,120076,1,0,0:0:0:0:
324,192,120156,1,0,0:0:0:0:
252,192,120235,1,0,0:0:0:0:
468,192,120315,1,0,0:0:0:0:
396,192,120394,1,0,0:0:0:0:
324,192,120473,1,0,0:0:0:0:
108,192,120553,1,0,0:0:0:0:
36,192,120632,1,8,0:0:0:0:
180,192,120632,1,0,0:0:0:0:
108,192,120711,1,0,0:0:0:0:
252,192,120791,1,0,0:0:0:0:
324,192,120870,1,0,0:0:0:0:
468,192,120949,1,0,0:0:0:0:
36,192,120949,1,0,0:0:0:0:
180,192,121029,1,0,0:0:0:0:
108,192,121108,1,0,0:0:0:0:
36,192,121188,1,0,0:0:0:0:
252,192,121267,1,4,0:0:0:0:
396,192,121267,1,4,0:0:0:0:
324,192,121346,1,0,0:0:0:0:
108,192,121426,1,0,0:0:0:0:
180,192,121505,1,0,0:0:0:0:
468,192,121584,1,0,0:0:0:0:
108,192,121664,1,0,0:0:0:0:
36,192,121743,1,0,0:0:0:0:
324,192,121822,1,0,0:0:0:0:
180,192,121902,1,8,0:0:0:0:
396,192,121902,1,8,0:0:0:0:
252,192,121981,1,0,0:0:0:0:
36,192,122061,1,0,0:0:0:0:
108,192,122140,1,0,0:0:0:0:
468,192,122219,1,0,0:0:0:0:
252,192,122219,1,0,0:0:0:0:
324,192,122299,1,0,0:0:0:0:
180,192,122378,1,0,0:0:0:0:
36,192,122457,1,0,0:0:0:0:
108,192,122537,1,0,0:0:0:0:
396,192,122537,1,0,0:0:0:0:
180,192,122616,1,0,0:0:0:0:
324,192,122695,1,0,0:0:0:0:
396,192,122775,1,0,0:0:0:0:
468,192,122854,1,0,0:0:0:0:
108,192,122854,1,0,0:0:0:0:
324,192,122934,1,0,0:0:0:0:
180,192,123013,1,0,0:0:0:0:
252,192,123092,1,0,0:0:0:0:
36,192,123172,1,8,0:0:0:0:
396,192,123172,1,0,0:0:0:0:
108,192,123251,1,0,0:0:0:0:
180,192,123330,1,0,0:0:0:0:
324,192,123410,1,0,0:0:0:0:
468,192,123489,1,0,0:0:0:0:
36,192,123489,1,0,0:0:0:0:
396,192,123569,1,0,0:0:0:0:
108,192,123648,1,0,0:0:0:0:
180,192,123727,1,0,0:0:0:0:
36,192,123807,1,4,0:0:0:0:
324,192,123807,1,0,0:0:0:0:
108,192,123886,1,0,0:0:0:0:
252,192,123965,1,0,0:0:0:0:
324,192,124045,1,0,0:0:0:0:
468,192,124124,1,0,0:0:0:0:
252,192,124203,1,0,0:0:0:0:
180,192,124283,1,0,0:0:0:0:
108,192,124362,1,0,0:0:0:0:
36,192,124442,1,8,0:0:0:0:
324,192,124442,1,0,0:0:0:0:
108,192,124521,1,0,0:0:0:0:
180,192,124600,1,0,0:0:0:0:
252,192,124680,1,0,0:0:0:0:
468,192,124759,1,0,0:0:0:0:
396,192,124838,1,0,0:0:0:0:
324,192,124918,1,0,0:0:0:0:
180,192,124997,1,0,0:0:0:0:
36,192,125076,1,8,0:0:0:0:
396,192,125076,1,0,0:0:0:0:
108,192,125156,1,0,0:0:0:0:
252,192,125235,1,0,0:0:0:0:
324,192,125315,1,0,0:0:0:0:
36,192,125394,1,0,0:0:0:0:
468,192,125394,1,0,0:0:0:0:
324,192,125473,1,0,0:0:0:0:
468,192,125553,1,0,0:0:0:0:
252,192,125553,1,0,0:0:0:0:
180,192,125632,1,0,0:0:0:0:
396,192,125632,1,0,0:0:0:0:
324,192,125711,1,8,0:0:0:0:
108,192,125711,1,8,0:0:0:0:
36,192,125791,1,0,0:0:0:0:
180,192,125870,1,0,0:0:0:0:
252,192,125949,1,0,0:0:0:0:
468,192,126029,1,0,0:0:0:0:
324,192,126108,1,0,0:0:0:0:
252,192,126188,1,0,0:0:0:0:
108,192,126267,1,0,0:0:0:0:
36,192,126346,128,4,126664:0:0:0:0:
396,192,126346,128,0,126664:0:0:0:0:
468,192,126346,128,0,126664:0:0:0:0:
108,192,126664,1,0,0:0:0:0:
180,192,126743,1,0,0:0:0:0:
252,192,126822,1,0,0:0:0:0:
324,192,126902,1,0,0:0:0:0:
36,192,126981,128,4,127299:0:0:0:0:
468,192,126981,128,4,127299:0:0:0:0:
108,192,126981,128,4,127299:0:0:0:0:
180,192,127299,1,0,0:0:0:0:
252,192,127378,1,0,0:0:0:0:
324,192,127457,1,0,0:0:0:0:
396,192,127537,1,0,0:0:0:0:
468,192,127616,128,4,127934:0:0:0:0:
252,192,127616,128,4,127934:0:0:0:0:
108,192,127616,128,0,127934:0:0:0:0:
180,192,127934,1,0,0:0:0:0:
252,192,128013,1,0,0:0:0:0:
324,192,128092,1,0,0:0:0:0:
396,192,128172,1,0,0:0:0:0:
36,192,128251,128,4,128569:0:0:0:0:
180,192,128251,128,4,128569:0:0:0:0:
468,192,128251,128,4,128569:0:0:0:0:
252,192,128569,1,0,0:0:0:0:
324,192,128648,1,0,0:0:0:0:
396,192,128727,1,0,0:0:0:0:
468,192,128807,1,0,0:0:0:0:
396,192,128886,1,4,0:0:0:0:
108,192,128886,1,4,0:0:0:0:
324,192,128965,1,0,0:0:0:0:
252,192,129045,1,0,0:0:0:0:
180,192,129124,1,0,0:0:0:0:
36,192,129203,1,0,0:0:0:0:
108,192,129283,1,0,0:0:0:0:
252,192,129362,1,0,0:0:0:0:
324,192,129442,1,0,0:0:0:0:
468,192,129521,1,8,0:0:0:0:
36,192,129521,1,0,0:0:0:0:
396,192,129600,1,0,0:0:0:0:
324,192,129680,1,0,0:0:0:0:
108,192,129680,1,0,0:0:0:0:
180,192,129759,1,0,0:0:0:0:
36,192,129838,1,0,0:0:0:0:
468,192,129838,1,0,0:0:0:0:
108,192,129918,1,0,0:0:0:0:
180,192,129997,1,0,0:0:0:0:
396,192,129997,1,0,0:0:0:0:
324,192,130076,1,0,0:0:0:0:
468,192,130156,1,8,0:0:0:0:
252,192,130235,1,0,0:0:0:0:
180,192,130315,1,0,0:0:0:0:
396,192,130394,1,0,0:0:0:0:
36,192,130473,1,0,0:0:0:0:
108,192,130473,1,0,0:0:0:0:
252,192,130553,1,0,0:0:0:0:
180,192,130632,1,0,0:0:0:0:
324,192,130711,1,0,0:0:0:0:
468,192,130791,1,8,0:0:0:0:
252,192,130870,1,0,0:0:0:0:
180,192,130949,1,0,0:0:0:0:
396,192,130949,1,0,0:0:0:0:
108,192,131029,1,0,0:0:0:0:
36,192,131108,1,0,0:0:0:0:
108,192,131188,1,0,0:0:0:0:
252,192,131267,1,0,0:0:0:0:
36,192,131267,1,0,0:0:0:0:
324,192,131346,1,0,0:0:0:0:
108,192,131346,1,0,0:0:0:0:
468,192,131426,1,4,0:0:0:0:
180,192,131426,1,0,0:0:0:0:
396,192,131505,1,0,0:0:0:0:
252,192,131584,1,0,0:0:0:0:
180,192,131664,1,0,0:0:0:0:
36,192,131743,1,0,0:0:0:0:
180,192,131822,1,0,0:0:0:0:
324,192,131902,1,0,0:0:0:0:
396,192,131981,1,0,0:0:0:0:
468,192,132061,1,8,0:0:0:0:
108,192,132061,1,0,0:0:0:0:
324,192,132140,1,0,0:0:0:0:
180,192,132219,1,0,0:0:0:0:
468,192,132219,1,0,0:0:0:0:
108,192,132299,1,0,0:0:0:0:
36,192,132378,1,0,0:0:0:0:
252,192,132378,1,0,0:0:0:0:
324,192,132457,1,0,0:0:0:0:
396,192,132537,1,0,0:0:0:0:
108,192,132537,1,0,0:0:0:0:
252,192,132616,1,0,0:0:0:0:
468,192,132695,1,8,0:0:0:0:
324,192,132775,1,0,0:0:0:0:
180,192,132854,1,0,0:0:0:0:
396,192,132854,1,0,0:0:0:0:
108,192,132934,1,0,0:0:0:0:
36,192,133013,1,0,0:0:0:0:
468,192,133013,1,0,0:0:0:0:
180,192,133092,1,0,0:0:0:0:
252,192,133172,1,0,0:0:0:0:
108,192,133172,1,0,0:0:0:0:
324,192,133251,1,0,0:0:0:0:
396,192,133330,1,8,0:0:0:0:
36,192,133330,1,8,0:0:0:0:
252,192,133410,1,0,0:0:0:0:
180,192,133489,1,0,0:0:0:0:
324,192,133489,1,0,0:0:0:0:
108,192,133569,1,0,0:0:0:0:
36,192,133648,1,0,0:0:0:0:
396,192,133648,1,0,0:0:0:0:
252,192,133727,1,0,0:0:0:0:
324,192,133807,1,0,0:0:0:0:
180,192,133807,1,0,0:0:0:0:
396,192,133886,1,0,0:0:0:0:
468,192,133965,1,4,0:0:0:0:
108,192,133965,1,4,0:0:0:0:
396,192,134045,1,0,0:0:0:0:
324,192,134124,1,0,0:0:0:0:
252,192,134203,1,0,0:0:0:0:
36,192,134283,1,0,0:0:0:0:
108,192,134362,1,0,0:0:0:0:
324,192,134442,1,0,0:0:0:0:
396,192,134521,1,0,0:0:0:0:
468,192,134600,1,8,0:0:0:0:
108,192,134600,1,0,0:0:0:0:
252,192,134680,1,0,0:0:0:0:
180,192,134759,1,0,0:0:0:0:
396,192,134759,1,0,0:0:0:0:
108,192,134838,1,0,0:0:0:0:
36,192,134918,1,0,0:0:0:0:
324,192,134918,1,0,0:0:0:0:
180,192,134997,1,0,0:0:0:0:
252,192,135076,1,4,0:0:0:0:
36,192,135076,1,0,0:0:0:0:
324,192,135156,1,0,0:0:0:0:
468,192,135235,1,0,0:0:0:0:
396,192,135315,1,0,0:0:0:0:
180,192,135394,1,4,0:0:0:0:
324,192,135394,1,4,0:0:0:0:
108,192,135473,1,0,0:0:0:0:
36,192,135553,1,0,0:0:0:0:
468,192,135553,1,0,0:0:0:0:
252,192,135632,1,0,0:0:0:0:
396,192,135711,1,0,0:0:0:0:
108,192,135791,1,0,0:0:0:0:
468,192,135870,1,0,0:0:0:0:
324,192,135949,1,0,0:0:0:0:
252,192,136029,1,0,0:0:0:0:
180,192,136108,1,0,0:0:0:0:
36,192,136188,1,0,0:0:0:0:
108,192,136267,1,0,0:0:0:0:
180,192,136346,1,0,0:0:0:0:
252,192,136426,1,0,0:0:0:0:
108,192,136505,1,8,0:0:0:0:
396,192,136584,1,0,0:0:0:0:
108,192,136664,1,0,0:0:0:0:
180,192,136822,1,8,0:0:0:0:
324,192,136902,1,0,0:0:0:0:
180,192,136981,1,0,0:0:0:0:
108,192,137140,1,8,0:0:0:0:
396,192,137219,1,0,0:0:0:0:
108,192,137299,1,0,0:0:0:0:
36,192,137457,1,8,0:0:0:0:
252,192,137457,1,8,0:0:0:0:
468,192,137457,1,0,0:0:0:0:
252,192,137616,1,8,0:0:0:0:
396,192,137616,1,0,0:0:0:0:
108,192,137616,1,0,0:0:0:0:
180,192,137775,1,8,0:0:0:0:
36,192,137775,1,0,0:0:0:0:
468,192,137854,1,0,0:0:0:0:
324,192,137854,1,0,0:0:0:0:
36,192,137934,1,0,0:0:0:0:
180,192,137934,1,0,0:0:0:0:
468,192,138092,1,8,0:0:0:0:
252,192,138092,1,0,0:0:0:0:
36,192,138092,1,0,0:0:0:0:
108,192,138251,1,8,0:0:0:0:
396,192,138251,1,0,0:0:0:0:
252,192,138251,1,0,0:0:0:0:
324,192,138410,1,8,0:0:0:0:
180,192,138410,1,0,0:0:0:0:
252,192,138410,1,0,0:0:0:0:
36,192,138727,1,8,0:0:0:0:
108,192,138727,1,0,0:0:0:0:
180,192,138727,1,0,0:0:0:0:
468,192,138807,1,0,0:0:0:0:
396,192,138807,1,0,0:0:0:0:
324,192,138807,1,0,0:0:0:0:
108,192,138886,1,0,0:0:0:0:
180,192,138886,1,0,0:0:0:0:
36,192,138886,1,0,0:0:0:0:
180,192,139045,1,4,0:0:0:0:
108,192,139045,1,0,0:0:0:0:
396,192,139124,1,0,0:0:0:0:
324,192,139124,1,0,0:0:0:0:
108,192,139203,1,0,0:0:0:0:
180,192,139203,1,0,0:0:0:0:
396,192,139283,1,0,0:0:0:0:
324,192,139283,1,0,0:0:0:0:
180,192,139362,1,0,0:0:0:0:
108,192,139362,1,0,0:0:0:0:
396,192,139442,1,0,0:0:0:0:
324,192,139442,1,0,0:0:0:0:
108,192,139521,1,0,0:0:0:0:
180,192,139521,1,0,0:0:0:0:
396,192,139600,1,0,0:0:0:0:
324,192,139600,1,0,0:0:0:0:
180,192,139680,1,0,0:0:0:0:
108,192,139680,1,0,0:0:0:0:
396,192,139759,1,0,0:0:0:0:
324,192,139759,1,0,0:0:0:0:
180,192,139838,1,0,0:0:0:0:
108,192,139838,1,0,0:0:0:0:
324,192,139918,1,0,0:0:0:0:
396,192,139918,1,0,0:0:0:0:
180,192,139997,1,0,0:0:0:0:
108,192,139997,1,0,0:0:0:0:
396,192,140076,1,0,0:0:0:0:
324,192,140076,1,0,0:0:0:0:
180,192,140156,1,0,0:0:0:0:
108,192,140156,1,0,0:0:0:0:
324,192,140235,1,0,0:0:0:0:
396,192,140235,1,0,0:0:0:0:
36,192,140315,1,0,0:0:0:0:
108,192,140315,1,0,0:0:0:0:
396,192,140394,1,0,0:0:0:0:
468,192,140394,1,0,0:0:0:0:
36,192,140473,1,0,0:0:0:0:
108,192,140473,1,0,0:0:0:0:
396,192,140553,1,0,0:0:0:0:
468,192,140553,1,0,0:0:0:0:
108,192,140632,1,0,0:0:0:0:
36,192,140632,1,0,0:0:0:0:
396,192,140711,1,0,0:0:0:0:
468,192,140711,1,0,0:0:0:0:
36,192,140791,1,0,0:0:0:0:
108,192,140791,1,0,0:0:0:0:
468,192,140870,1,0,0:0:0:0:
396,192,140870,1,0,0:0:0:0:
36,192,140949,1,0,0:0:0:0:
108,192,140949,1,0,0:0:0:0:
396,192,141029,1,0,0:0:0:0:
468,192,141029,1,0,0:0:0:0:
108,192,141108,1,0,0:0:0:0:
36,192,141108,1,0,0:0:0:0:
396,192,141188,1,0,0:0:0:0:
468,192,141188,1,0,0:0:0:0:
36,192,141267,1,0,0:0:0:0:
108,192,141267,1,0,0:0:0:0:
396,192,141346,1,0,0:0:0:0:
468,192,141346,1,0,0:0:0:0:
108,192,141426,1,0,0:0:0:0:
36,192,141426,1,0,0:0:0:0:
396,192,141505,1,0,0:0:0:0:
468,192,141505,1,0,0:0:0:0:
180,192,141584,1,4,0:0:0:0:
36,192,141584,1,0,0:0:0:0:
324,192,141664,1,0,0:0:0:0:
468,192,141664,1,0,0:0:0:0:
180,192,141743,1,0,0:0:0:0:
36,192,141743,1,0,0:0:0:0:
324,192,141822,1,0,0:0:0:0:
468,192,141822,1,0,0:0:0:0:
180,192,141902,1,0,0:0:0:0:
36,192,141902,1,0,0:0:0:0:
324,192,141981,1,0,0:0:0:0:
468,192,141981,1,0,0:0:0:0:
36,192,142061,1,0,0:0:0:0:
180,192,142061,1,0,0:0:0:0:
324,192,142140,1,0,0:0:0:0:
468,192,142140,1,0,0:0:0:0:
36,192,142219,1,0,0:0:0:0:
180,192,142219,1,0,0:0:0:0:
324,192,142299,1,0,0:0:0:0:
468,192,142299,1,0,0:0:0:0:
180,192,142378,1,0,0:0:0:0:
36,192,142378,1,0,0:0:0:0:
324,192,142457,1,0,0:0:0:0:
468,192,142457,1,0,0:0:0:0:
180,192,142537,1,0,0:0:0:0:
36,192,142537,1,0,0:0:0:0:
324,192,142616,1,0,0:0:0:0:
468,192,142616,1,0,0:0:0:0:
180,192,142695,1,0,0:0:0:0:
36,192,142695,1,0,0:0:0:0:
324,192,142775,1,0,0:0:0:0:
468,192,142775,1,0,0:0:0:0:
180,192,142854,1,4,0:0:0:0:
108,192,142854,1,0,0:0:0:0:
396,192,143013,1,0,0:0:0:0:
324,192,143013,1,0,0:0:0:0:
396,192,143092,1,0,0:0:0:0:
324,192,143092,1,0,0:0:0:0:
180,192,143172,1,4,0:0:0:0:
108,192,143172,1,0,0:0:0:0:
324,192,143330,1,0,0:0:0:0:
396,192,143410,1,0,0:0:0:0:
324,192,143489,1,4,0:0:0:0:
180,192,143489,1,0,0:0:0:0:
396,192,143569,1,0,0:0:0:0:
324,192,143648,1,0,0:0:0:0:
396,192,143727,1,0,0:0:0:0:
324,192,143807,1,4,0:0:0:0:
36,192,143807,1,0,0:0:0:0:
396,192,143886,1,0,0:0:0:0:
324,192,143965,1,0,0:0:0:0:
396,192,144045,1,0,0:0:0:0:
252,192,144124,1,4,0:0:0:0:
468,192,144124,1,0,0:0:0:0:
36,192,144124,1,0,0:0:0:0:
252,192,144283,1,0,0:0:0:0:
252,192,144442,1,0,0:0:0:0:
36,192,144442,1,0,0:0:0:0:
180,192,144442,1,0,0:0:0:0:
180,192,144600,1,0,0:0:0:0:
108,192,144759,1,8,0:0:0:0:
468,192,144759,1,0,0:0:0:0:
108,192,144918,1,0,0:0:0:0:
468,192,145076,1,0,0:0:0:0:
324,192,145076,1,0,0:0:0:0:
108,192,145235,1,0,0:0:0:0:
396,192,145394,1,8,0:0:0:0:
252,192,145394,1,8,0:0:0:0:
36,192,145394,1,0,0:0:0:0:
252,192,145553,1,0,0:0:0:0:
36,192,145553,1,0,0:0:0:0:
36,192,145711,1,0,0:0:0:0:
180,192,145711,1,0,0:0:0:0:
180,192,145870,1,0,0:0:0:0:
108,192,146029,1,8,0:0:0:0:
468,192,146029,1,0,0:0:0:0:
252,192,146029,1,0,0:0:0:0:
468,192,146188,1,0,0:0:0:0:
180,192,146188,1,0,0:0:0:0:
468,192,146346,1,0,0:0:0:0:
324,192,146346,1,0,0:0:0:0:
108,192,146346,1,0,0:0:0:0:
252,192,146505,1,0,0:0:0:0:
36,192,146664,1,8,0:0:0:0:
180,192,146664,1,0,0:0:0:0:
324,192,146664,1,0,0:0:0:0:
180,192,146822,1,0,0:0:0:0:
36,192,146981,1,0,0:0:0:0:
180,192,146981,1,0,0:0:0:0:
108,192,147140,1,0,0:0:0:0:
108,192,147299,1,8,0:0:0:0:
468,192,147299,1,0,0:0:0:0:
180,192,147299,1,0,0:0:0:0:
324,192,147616,1,0,0:0:0:0:
468,192,147616,1,0,0:0:0:0:
108,192,147616,1,0,0:0:0:0:
468,192,147934,1,8,0:0:0:0:
36,192,147934,1,8,0:0:0:0:
252,192,147934,1,0,0:0:0:0:
468,192,148092,1,0,0:0:0:0:
36,192,148092,1,0,0:0:0:0:
36,192,148251,1,0,0:0:0:0:
180,192,148251,1,0,0:0:0:0:
252,192,148410,1,0,0:0:0:0:
468,192,148569,1,0,0:0:0:0:
252,192,148569,1,0,0:0:0:0:
108,192,148569,1,0,0:0:0:0:
468,192,148727,1,0,0:0:0:0:
252,192,148886,1,0,0:0:0:0:
468,192,148886,1,0,0:0:0:0:
324,192,148886,1,0,0:0:0:0:
36,192,149203,1,8,0:0:0:0:
252,192,149203,1,8,0:0:0:0:
180,192,149203,1,0,0:0:0:0:
36,192,149521,1,0,0:0:0:0:
180,192,149521,1,0,0:0:0:0:
324,192,149680,1,0,0:0:0:0:
36,192,149680,1,0,0:0:0:0:
108,192,149759,1,0,0:0:0:0:
468,192,149838,1,8,0:0:0:0:
396,192,149838,1,0,0:0:0:0:
180,192,149838,1,0,0:0:0:0:
252,192,149997,1,0,0:0:0:0:
468,192,150156,1,0,0:0:0:0:
324,192,150156,1,0,0:0:0:0:
108,192,150156,1,0,0:0:0:0:
180,192,150315,1,0,0:0:0:0:
396,192,150315,1,0,0:0:0:0:
252,192,150394,1,0,0:0:0:0:
180,192,150473,1,8,0:0:0:0:
36,192,150473,1,8,0:0:0:0:
324,192,150473,1,0,0:0:0:0:
36,192,150632,1,0,0:0:0:0:
396,192,150791,1,0,0:0:0:0:
180,192,150791,1,0,0:0:0:0:
36,192,150791,1,0,0:0:0:0:
324,192,150949,1,0,0:0:0:0:
36,192,151108,1,8,0:0:0:0:
252,192,151108,1,0,0:0:0:0:
468,192,151108,1,0,0:0:0:0:
468,192,151267,1,0,0:0:0:0:
468,192,151426,1,0,0:0:0:0:
324,192,151426,1,0,0:0:0:0:
108,192,151426,1,0,0:0:0:0:
36,192,151584,1,0,0:0:0:0:
180,192,151743,1,8,0:0:0:0:
108,192,151743,1,0,0:0:0:0:
396,192,151743,1,0,0:0:0:0:
252,192,151743,1,0,0:0:0:0:
475,192,151901,1,0,0:0:0:0:
402,192,152060,1,0,0:0:0:0:
180,192,152061,1,0,0:0:0:0:
329,192,152139,1,0,0:0:0:0:
108,192,152140,1,0,0:0:0:0:
36,192,152219,1,0,0:0:0:0:
256,192,152219,1,0,0:0:0:0:
108,192,152378,1,8,0:0:0:0:
468,192,152378,1,0,0:0:0:0:
180,192,152378,1,0,0:0:0:0:
396,192,152378,1,0,0:0:0:0:
324,192,152537,1,0,0:0:0:0:
396,192,152616,1,0,0:0:0:0:
180,192,152695,1,0,0:0:0:0:
36,192,152695,1,0,0:0:0:0:
468,192,152695,1,0,0:0:0:0:
108,192,152854,1,0,0:0:0:0:
324,192,153013,1,8,0:0:0:0:
396,192,153013,1,0,0:0:0:0:
36,192,153013,1,0,0:0:0:0:
180,192,153013,1,0,0:0:0:0:
468,192,153330,1,0,0:0:0:0:
256,192,153330,1,0,0:0:0:0:
182,192,153409,1,0,0:0:0:0:
396,192,153410,1,0,0:0:0:0:
324,192,153489,1,0,0:0:0:0:
109,192,153489,1,0,0:0:0:0:
256,192,153489,1,0,0:0:0:0:
252,192,153648,1,8,0:0:0:0:
468,192,153648,1,0,0:0:0:0:
36,192,153807,1,0,0:0:0:0:
108,192,153886,1,0,0:0:0:0:
468,192,153965,1,0,0:0:0:0:
396,192,154045,1,0,0:0:0:0:
324,192,154124,1,0,0:0:0:0:
252,192,154203,1,0,0:0:0:0:
468,192,154283,1,4,0:0:0:0:
108,192,154283,1,0,0:0:0:0:
36,192,154283,1,0,0:0:0:0:
252,192,154442,1,0,0:0:0:0:
36,192,154442,1,0,0:0:0:0:
252,192,154600,1,0,0:0:0:0:
36,192,154600,1,0,0:0:0:0:
180,192,154600,1,0,0:0:0:0:
180,192,154759,1,0,0:0:0:0:
108,192,154918,1,8,0:0:0:0:
468,192,154918,1,0,0:0:0:0:
108,192,155076,1,0,0:0:0:0:
468,192,155076,1,0,0:0:0:0:
396,192,155156,1,0,0:0:0:0:
324,192,155235,1,0,0:0:0:0:
108,192,155394,1,0,0:0:0:0:
252,192,155553,1,8,0:0:0:0:
36,192,155553,1,0,0:0:0:0:
468,192,155553,1,0,0:0:0:0:
36,192,155711,1,0,0:0:0:0:
468,192,155711,1,0,0:0:0:0:
468,192,155870,1,0,0:0:0:0:
324,192,155870,1,0,0:0:0:0:
252,192,156029,1,0,0:0:0:0:
36,192,156029,1,0,0:0:0:0:
324,192,156188,1,0,0:0:0:0:
36,192,156188,1,0,0:0:0:0:
396,192,156188,1,0,0:0:0:0:
252,192,156346,1,0,0:0:0:0:
36,192,156346,1,0,0:0:0:0:
108,192,156426,1,0,0:0:0:0:
468,192,156505,1,0,0:0:0:0:
180,192,156505,1,0,0:0:0:0:
324,192,156664,1,0,0:0:0:0:
180,192,156664,1,0,0:0:0:0:
108,192,156743,1,0,0:0:0:0:
252,192,156822,1,8,0:0:0:0:
36,192,156822,1,0,0:0:0:0:
396,192,156822,1,0,0:0:0:0:
36,192,156981,1,0,0:0:0:0:
180,192,157140,1,0,0:0:0:0:
36,192,157140,1,0,0:0:0:0:
324,192,157299,1,0,0:0:0:0:
468,192,157457,1,8,0:0:0:0:
324,192,157457,1,0,0:0:0:0:
180,192,157457,1,0,0:0:0:0:
324,192,157616,1,0,0:0:0:0:
396,192,157695,1,0,0:0:0:0:
468,192,157775,1,0,0:0:0:0:
180,192,157775,1,0,0:0:0:0:
475,192,157933,1,0,0:0:0:0:
108,192,157934,1,0,0:0:0:0:
36,192,157987,1,0,0:0:0:0:
396,192,158013,1,0,0:0:0:0:
108,192,158039,1,0,0:0:0:0:
252,192,158092,1,8,0:0:0:0:
180,192,158092,1,0,0:0:0:0:
324,192,158092,1,0,0:0:0:0:
396,192,158172,1,0,0:0:0:0:
252,192,158251,1,0,0:0:0:0:
324,192,158251,1,0,0:0:0:0:
468,192,158410,1,0,0:0:0:0:
324,192,158410,1,0,0:0:0:0:
324,192,158569,1,0,0:0:0:0:
256,192,158647,1,0,0:0:0:0:
36,192,158727,1,8,0:0:0:0:
108,192,158727,1,0,0:0:0:0:
324,192,158727,1,0,0:0:0:0:
36,192,158886,1,0,0:0:0:0:
109,192,158965,1,0,0:0:0:0:
36,192,159045,1,0,0:0:0:0:
180,192,159045,1,0,0:0:0:0:
324,192,159045,1,0,0:0:0:0:
475,192,159203,1,0,0:0:0:0:
329,192,159282,1,0,0:0:0:0:
36,192,159362,1,8,0:0:0:0:
180,192,159362,1,8,0:0:0:0:
252,192,159362,1,0,0:0:0:0:
36,192,159521,1,0,0:0:0:0:
36,192,159680,1,0,0:0:0:0:
180,192,159680,1,0,0:0:0:0:
36,192,159838,1,0,0:0:0:0:
468,192,159838,1,0,0:0:0:0:
108,192,159918,1,0,0:0:0:0:
324,192,159997,1,8,0:0:0:0:
468,192,159997,1,8,0:0:0:0:
180,192,159997,1,0,0:0:0:0:
252,192,160156,1,0,0:0:0:0:
324,192,160156,1,0,0:0:0:0:
396,192,160235,1,0,0:0:0:0:
180,192,160315,1,0,0:0:0:0:
468,192,160315,1,0,0:0:0:0:
180,192,160473,1,0,0:0:0:0:
36,192,160473,1,0,0:0:0:0:
252,192,160553,1,0,0:0:0:0:
324,192,160632,1,8,0:0:0:0:
108,192,160632,1,8,0:0:0:0:
468,192,160632,1,0,0:0:0:0:
468,192,160791,1,0,0:0:0:0:
180,192,160949,1,0,0:0:0:0:
468,192,160949,1,0,0:0:0:0:
324,192,160949,1,0,0:0:0:0:
468,192,161108,1,0,0:0:0:0:
252,192,161267,1,8,0:0:0:0:
396,192,161267,1,0,0:0:0:0:
36,192,161267,1,0,0:0:0:0:
180,192,161426,1,0,0:0:0:0:
108,192,161505,1,0,0:0:0:0:
324,192,161584,1,0,0:0:0:0:
36,192,161584,1,0,0:0:0:0:
256,192,161743,1,0,0:0:0:0:
329,192,161822,1,0,0:0:0:0:
396,192,161902,1,8,0:0:0:0:
180,192,161902,1,0,0:0:0:0:
108,192,161902,1,0,0:0:0:0:
36,192,161902,1,0,0:0:0:0:
36,192,162061,1,0,0:0:0:0:
396,192,162219,1,0,0:0:0:0:
36,192,162219,1,0,0:0:0:0:
180,192,162299,1,0,0:0:0:0:
36,192,162378,1,0,0:0:0:0:
180,192,162457,1,0,0:0:0:0:
468,192,162537,1,8,0:0:0:0:
324,192,162537,1,8,0:0:0:0:
252,192,162537,1,0,0:0:0:0:
324,192,162695,1,0,0:0:0:0:
252,192,162695,1,0,0:0:0:0:
109,192,162774,1,0,0:0:0:0:
36,192,162854,1,0,0:0:0:0:
180,192,162854,1,0,0:0:0:0:
396,192,162854,1,0,0:0:0:0:
252,192,162934,1,0,0:0:0:0:
324,192,163013,1,0,0:0:0:0:
468,192,163092,1,0,0:0:0:0:
396,192,163172,1,8,0:0:0:0:
252,192,163172,1,0,0:0:0:0:
36,192,163172,1,0,0:0:0:0:
180,192,163251,1,0,0:0:0:0:
252,192,163330,1,0,0:0:0:0:
108,192,163489,1,0,0:0:0:0:
324,192,163489,1,0,0:0:0:0:
468,192,163569,1,0,0:0:0:0:
324,192,163648,1,0,0:0:0:0:
252,192,163807,1,8,0:0:0:0:
324,192,163886,1,0,0:0:0:0:
36,192,163965,1,0,0:0:0:0:
108,192,164045,1,0,0:0:0:0:
468,192,164124,1,0,0:0:0:0:
396,192,164203,1,0,0:0:0:0:
324,192,164283,1,0,0:0:0:0:
252,192,164362,1,0,0:0:0:0:
108,192,164442,1,4,0:0:0:0:
180,192,164442,1,0,0:0:0:0:
468,192,164442,1,0,0:0:0:0:
396,192,164600,1,0,0:0:0:0:
108,192,164600,1,0,0:0:0:0:
180,192,164600,1,0,0:0:0:0:
108,192,164759,1,0,0:0:0:0:
324,192,164759,1,0,0:0:0:0:
180,192,164759,1,0,0:0:0:0:
180,192,164918,1,4,0:0:0:0:
36,192,164918,1,0,0:0:0:0:
252,192,164918,1,0,0:0:0:0:
180,192,165235,1,0,0:0:0:0:
324,192,165235,1,0,0:0:0:0:
108,192,165235,1,0,0:0:0:0:
108,192,165553,1,0,0:0:0:0:
468,192,165553,1,0,0:0:0:0:
324,192,165553,1,0,0:0:0:0:
180,192,165632,1,0,0:0:0:0:
252,192,165711,1,8,0:0:0:0:
468,192,165870,1,0,0:0:0:0:
180,192,165870,1,0,0:0:0:0:
396,192,165870,1,0,0:0:0:0:
396,192,166029,1,0,0:0:0:0:
108,192,166029,1,0,0:0:0:0:
324,192,166029,1,0,0:0:0:0:
324,192,166188,1,0,0:0:0:0:
36,192,166188,1,0,0:0:0:0:
252,192,166188,1,0,0:0:0:0:
396,192,166346,1,8,0:0:0:0:
108,192,166346,1,8,0:0:0:0:
324,192,166346,1,0,0:0:0:0:
396,192,166505,1,0,0:0:0:0:
324,192,166505,1,0,0:0:0:0:
108,192,166505,1,0,0:0:0:0:
252,192,166664,1,0,0:0:0:0:
396,192,166743,1,0,0:0:0:0:
108,192,166822,1,0,0:0:0:0:
468,192,166822,1,0,0:0:0:0:
396,192,166902,1,0,0:0:0:0:
252,192,166981,1,4,0:0:0:0:
324,192,166981,1,0,0:0:0:0:
108,192,166981,1,0,0:0:0:0:
180,192,167140,1,0,0:0:0:0:
324,192,167140,1,0,0:0:0:0:
252,192,167140,1,0,0:0:0:0:
180,192,167299,1,0,0:0:0:0:
252,192,167299,1,0,0:0:0:0:
396,192,167299,1,0,0:0:0:0:
180,192,167457,1,4,0:0:0:0:
324,192,167457,1,0,0:0:0:0:
468,192,167457,1,0,0:0:0:0:
324,192,167775,1,0,0:0:0:0:
396,192,167775,1,0,0:0:0:0:
180,192,167775,1,0,0:0:0:0:
324,192,168092,1,0,0:0:0:0:
468,192,168092,1,0,0:0:0:0:
36,192,168092,1,0,0:0:0:0:
180,192,168172,1,0,0:0:0:0:
252,192,168251,1,8,0:0:0:0:
108,192,168410,1,0,0:0:0:0:
396,192,168410,1,0,0:0:0:0:
36,192,168410,1,0,0:0:0:0:
180,192,168489,1,0,0:0:0:0:
396,192,168569,1,0,0:0:0:0:
252,192,168569,1,0,0:0:0:0:
324,192,168569,1,0,0:0:0:0:
324,192,168727,1,0,0:0:0:0:
36,192,168727,1,0,0:0:0:0:
180,192,168727,1,0,0:0:0:0:
396,192,168886,1,8,0:0:0:0:
108,192,168886,1,8,0:0:0:0:
324,192,168886,1,0,0:0:0:0:
396,192,169045,1,0,0:0:0:0:
324,192,169045,1,0,0:0:0:0:
108,192,169045,1,0,0:0:0:0:
468,192,169203,1,0,0:0:0:0:
324,192,169283,1,0,0:0:0:0:
180,192,169362,1,0,0:0:0:0:
36,192,169442,1,0,0:0:0:0:
180,192,169521,1,4,0:0:0:0:
468,192,169521,1,4,0:0:0:0:
252,192,169521,1,0,0:0:0:0:
396,192,169680,1,0,0:0:0:0:
252,192,169680,1,0,0:0:0:0:
108,192,169680,1,0,0:0:0:0:
324,192,169838,1,0,0:0:0:0:
180,192,169838,1,0,0:0:0:0:
36,192,169838,1,0,0:0:0:0:
468,192,169997,1,4,0:0:0:0:
252,192,169997,1,0,0:0:0:0:
180,192,169997,1,0,0:0:0:0:
396,192,170315,1,0,0:0:0:0:
252,192,170315,1,0,0:0:0:0:
180,192,170315,1,0,0:0:0:0:
324,192,170632,1,0,0:0:0:0:
468,192,170632,1,0,0:0:0:0:
108,192,170632,1,0,0:0:0:0:
180,192,170711,1,0,0:0:0:0:
252,192,170791,1,8,0:0:0:0:
252,192,170949,1,0,0:0:0:0:
396,192,170949,1,0,0:0:0:0:
180,192,170949,1,0,0:0:0:0:
180,192,171108,1,0,0:0:0:0:
324,192,171108,1,0,0:0:0:0:
108,192,171108,1,0,0:0:0:0:
108,192,171267,1,0,0:0:0:0:
36,192,171267,1,0,0:0:0:0:
252,192,171267,1,0,0:0:0:0:
180,192,171426,1,8,0:0:0:0:
108,192,171426,1,8,0:0:0:0:
324,192,171426,1,0,0:0:0:0:
180,192,171584,1,0,0:0:0:0:
324,192,171584,1,0,0:0:0:0:
108,192,171584,1,0,0:0:0:0:
252,192,171743,1,0,0:0:0:0:
396,192,171822,1,0,0:0:0:0:
468,192,171902,1,0,0:0:0:0:
108,192,171902,1,0,0:0:0:0:
396,192,171981,1,0,0:0:0:0:
324,192,172061,1,4,0:0:0:0:
252,192,172061,1,4,0:0:0:0:
108,192,172061,1,0,0:0:0:0:
180,192,172219,1,0,0:0:0:0:
108,192,172219,1,0,0:0:0:0:
324,192,172219,1,0,0:0:0:0:
252,192,172378,1,0,0:0:0:0:
36,192,172378,1,0,0:0:0:0:
180,192,172378,1,0,0:0:0:0:
36,192,172537,1,4,0:0:0:0:
108,192,172537,1,0,0:0:0:0:
180,192,172537,1,0,0:0:0:0:
36,192,172854,1,0,0:0:0:0:
252,192,172854,1,0,0:0:0:0:
180,192,172854,1,0,0:0:0:0:
36,192,173172,1,0,0:0:0:0:
252,192,173172,1,0,0:0:0:0:
108,192,173172,1,0,0:0:0:0:
396,192,173251,1,0,0:0:0:0:
468,192,173330,1,8,0:0:0:0:
324,192,173489,1,0,0:0:0:0:
108,192,173489,1,0,0:0:0:0:
180,192,173489,1,0,0:0:0:0:
396,192,173648,1,0,0:0:0:0:
180,192,173648,1,0,0:0:0:0:
252,192,173648,1,0,0:0:0:0:
468,192,173807,1,0,0:0:0:0:
252,192,173807,1,0,0:0:0:0:
324,192,173807,1,0,0:0:0:0:
396,192,173965,1,8,0:0:0:0:
180,192,173965,1,0,0:0:0:0:
252,192,173965,1,0,0:0:0:0:
396,192,174124,1,0,0:0:0:0:
180,192,174124,1,0,0:0:0:0:
252,192,174124,1,0,0:0:0:0:
252,192,174283,1,0,0:0:0:0:
36,192,174283,1,0,0:0:0:0:
324,192,174362,1,0,0:0:0:0:
108,192,174362,1,0,0:0:0:0:
396,192,174442,1,0,0:0:0:0:
180,192,174442,1,0,0:0:0:0:
468,192,174521,1,0,0:0:0:0:
252,192,174521,1,0,0:0:0:0:
396,192,174600,128,4,175076:0:0:0:0:
108,192,174600,1,4,0:0:0:0:
324,192,174600,1,0,0:0:0:0:
252,192,174759,1,0,0:0:0:0:
36,192,174759,1,0,0:0:0:0:
180,192,174918,1,0,0:0:0:0:
324,192,174918,1,0,0:0:0:0:
324,192,175076,128,4,175235:0:0:0:0:
108,192,175076,1,0,0:0:0:0:
252,192,175076,1,0,0:0:0:0:
108,192,175394,1,4,0:0:0:0:
180,192,175394,1,0,0:0:0:0:
396,192,175394,128,0,175553:0:0:0:0:
180,192,175711,1,4,0:0:0:0:
252,192,175711,128,4,178410:0:0:0:0:
36,192,176822,1,0,0:0:0:0:
108,192,176902,1,0,0:0:0:0:
324,192,176981,1,0,0:0:0:0:
396,192,177061,1,0,0:0:0:0:
468,192,177140,128,0,177934:0:0:0:0:
468,192,178092,1,0,0:0:0:0:
396,192,178172,1,0,0:0:0:0:
180,192,178251,1,0,0:0:0:0:
108,192,178330,1,0,0:0:0:0:
468,192,178410,1,0,0:0:0:0:
324,192,178410,1,0,0:0:0:0:
36,192,178410,1,0,0:0:0:0:
108,192,178569,1,0,0:0:0:0:
180,192,178727,1,0,0:0:0:0:
36,192,178886,1,0,0:0:0:0:
468,192,178886,1,0,0:0:0:0:
108,192,179045,1,0,0:0:0:0:
324,192,179045,1,0,0:0:0:0:
180,192,179203,1,0,0:0:0:0:
468,192,179521,1,0,0:0:0:0:
108,192,179521,1,0,0:0:0:0:
396,192,179680,1,0,0:0:0:0:
252,192,179680,1,0,0:0:0:0:
180,192,179680,1,0,0:0:0:0:
324,192,179838,1,0,0:0:0:0:
396,192,179997,1,0,0:0:0:0:
468,192,180156,1,0,0:0:0:0:
180,192,180156,1,0,0:0:0:0:
252,192,180315,1,0,0:0:0:0:
108,192,180315,1,0,0:0:0:0:
324,192,180473,1,0,0:0:0:0:
36,192,180473,1,0,0:0:0:0:
252,192,180632,1,0,0:0:0:0:
180,192,180949,1,0,0:0:0:0:
36,192,180949,1,0,0:0:0:0:
324,192,180949,1,0,0:0:0:0:
108,192,181108,1,0,0:0:0:0:
180,192,181267,1,0,0:0:0:0:
324,192,181426,1,0,0:0:0:0:
468,192,181426,1,0,0:0:0:0:
468,192,181584,1,0,0:0:0:0:
108,192,181584,1,0,0:0:0:0:
252,192,181743,1,0,0:0:0:0:
180,192,182061,1,0,0:0:0:0:
396,192,182061,1,0,0:0:0:0:
108,192,182219,1,0,0:0:0:0:
468,192,182219,1,0,0:0:0:0:
324,192,182219,1,0,0:0:0:0:
252,192,182378,1,0,0:0:0:0:
324,192,182537,1,0,0:0:0:0:
396,192,182695,1,0,0:0:0:0:
180,192,182695,1,0,0:0:0:0:
36,192,182854,1,0,0:0:0:0:
252,192,182854,1,0,0:0:0:0:
468,192,183013,1,0,0:0:0:0:
36,192,183489,1,0,0:0:0:0:
252,192,183489,1,0,0:0:0:0:
180,192,183489,1,0,0:0:0:0:
108,192,183648,1,0,0:0:0:0:
252,192,183807,1,0,0:0:0:0:
468,192,183965,1,0,0:0:0:0:
36,192,183965,1,0,0:0:0:0:
36,192,184124,1,0,0:0:0:0:
396,192,184124,1,0,0:0:0:0:
324,192,184283,1,0,0:0:0:0:
108,192,184600,1,0,0:0:0:0:
180,192,184600,1,0,0:0:0:0:
36,192,184759,1,0,0:0:0:0:
252,192,184759,1,0,0:0:0:0:
468,192,184759,1,0,0:0:0:0:
180,192,184918,1,0,0:0:0:0:
324,192,185076,1,0,0:0:0:0:
396,192,185235,1,0,0:0:0:0:
108,192,185235,1,0,0:0:0:0:
324,192,185394,1,0,0:0:0:0:
36,192,185394,1,0,0:0:0:0:
180,192,185553,1,0,0:0:0:0:
396,192,185553,1,0,0:0:0:0:
324,192,185711,1,0,0:0:0:0:
468,192,186029,1,0,0:0:0:0:
36,192,186029,1,0,0:0:0:0:
252,192,186029,1,0,0:0:0:0:
108,192,186188,1,0,0:0:0:0:
252,192,186188,1,0,0:0:0:0:
180,192,186346,1,0,0:0:0:0:
252,192,186505,1,0,0:0:0:0:
468,192,186505,1,0,0:0:0:0:
180,192,186664,1,0,0:0:0:0:
468,192,186664,1,0,0:0:0:0:
324,192,186822,1,0,0:0:0:0:
180,192,187140,1,0,0:0:0:0:
108,192,187299,1,4,0:0:0:0:
396,192,187299,1,0,0:0:0:0:
36,192,187299,1,0,0:0:0:0:
324,192,187457,1,0,0:0:0:0:
180,192,187537,1,0,0:0:0:0:
324,192,187616,1,0,0:0:0:0:
180,192,187695,1,0,0:0:0:0:
108,192,187775,1,0,0:0:0:0:
324,192,187775,1,0,0:0:0:0:
324,192,187934,1,8,0:0:0:0:
36,192,187934,1,0,0:0:0:0:
108,192,188013,1,0,0:0:0:0:
396,192,188013,1,0,0:0:0:0:
468,192,188092,1,0,0:0:0:0:
180,192,188092,1,0,0:0:0:0:
252,192,188172,1,0,0:0:0:0:
36,192,188172,1,0,0:0:0:0:
324,192,188251,1,0,0:0:0:0:
108,192,188251,1,0,0:0:0:0:
396,192,188330,1,0,0:0:0:0:
180,192,188330,1,0,0:0:0:0:
36,192,188410,1,0,0:0:0:0:
252,192,188410,1,0,0:0:0:0:
468,192,188410,1,0,0:0:0:0:
324,192,188489,1,0,0:0:0:0:
108,192,188489,1,0,0:0:0:0:
396,192,188569,1,0,0:0:0:0:
468,192,188569,1,0,0:0:0:0:
36,192,188569,1,0,0:0:0:0:
180,192,188648,1,0,0:0:0:0:
36,192,188727,1,0,0:0:0:0:
468,192,188727,1,0,0:0:0:0:
396,192,188727,1,0,0:0:0:0:
108,192,188807,1,0,0:0:0:0:
468,192,188886,1,0,0:0:0:0:
324,192,188965,1,0,0:0:0:0:
252,192,189045,1,0,0:0:0:0:
180,192,189124,1,0,0:0:0:0:
36,192,189203,1,8,0:0:0:0:
252,192,189203,1,0,0:0:0:0:
324,192,189203,1,0,0:0:0:0:
108,192,189283,1,0,0:0:0:0:
324,192,189362,1,0,0:0:0:0:
36,192,189362,1,0,0:0:0:0:
252,192,189362,1,0,0:0:0:0:
468,192,189442,1,0,0:0:0:0:
396,192,189521,1,0,0:0:0:0:
324,192,189600,1,0,0:0:0:0:
180,192,189680,1,0,0:0:0:0:
108,192,189759,1,0,0:0:0:0:
36,192,189838,1,8,0:0:0:0:
475,192,189838,1,0,0:0:0:0:
329,192,189838,1,0,0:0:0:0:
182,192,189917,1,0,0:0:0:0:
329,192,189997,1,0,0:0:0:0:
475,192,189997,1,0,0:0:0:0:
36,192,189997,1,0,0:0:0:0:
256,192,190076,1,0,0:0:0:0:
468,192,190156,1,0,0:0:0:0:
180,192,190235,1,0,0:0:0:0:
252,192,190315,1,0,0:0:0:0:
468,192,190394,1,0,0:0:0:0:
396,192,190473,1,8,0:0:0:0:
252,192,190553,1,0,0:0:0:0:
108,192,190632,1,0,0:0:0:0:
36,192,190711,1,0,0:0:0:0:
396,192,190791,1,0,0:0:0:0:
324,192,190870,1,0,0:0:0:0:
252,192,190949,1,0,0:0:0:0:
180,192,191029,1,0,0:0:0:0:
324,192,191108,1,8,0:0:0:0:
468,192,191108,1,8,0:0:0:0:
108,192,191108,1,0,0:0:0:0:
180,192,191188,1,0,0:0:0:0:
468,192,191267,1,0,0:0:0:0:
108,192,191267,1,0,0:0:0:0:
324,192,191267,1,0,0:0:0:0:
252,192,191346,1,0,0:0:0:0:
468,192,191426,1,0,0:0:0:0:
324,192,191505,1,0,0:0:0:0:
252,192,191584,1,0,0:0:0:0:
108,192,191664,1,0,0:0:0:0:
252,192,191743,1,8,0:0:0:0:
324,192,191743,1,8,0:0:0:0:
36,192,191743,1,0,0:0:0:0:
180,192,191822,1,0,0:0:0:0:
252,192,191902,1,0,0:0:0:0:
36,192,191902,1,0,0:0:0:0:
324,192,191902,1,0,0:0:0:0:
396,192,191981,1,0,0:0:0:0:
468,192,192061,1,0,0:0:0:0:
324,192,192140,1,0,0:0:0:0:
252,192,192219,1,0,0:0:0:0:
180,192,192299,1,0,0:0:0:0:
475,192,192378,1,8,0:0:0:0:
468,192,192457,1,0,0:0:0:0:
108,192,192537,1,0,0:0:0:0:
108,192,192616,1,0,0:0:0:0:
324,192,192695,1,0,0:0:0:0:
324,192,192775,1,0,0:0:0:0:
36,192,192854,1,0,0:0:0:0:
36,192,192934,1,0,0:0:0:0:
396,192,193013,1,8,0:0:0:0:
396,192,193092,1,0,0:0:0:0:
180,192,193172,1,0,0:0:0:0:
180,192,193251,1,0,0:0:0:0:
468,192,193330,1,0,0:0:0:0:
396,192,193410,1,0,0:0:0:0:
324,192,193489,1,0,0:0:0:0:
252,192,193569,1,0,0:0:0:0:
468,192,193648,1,4,0:0:0:0:
36,192,193648,1,0,0:0:0:0:
180,192,193727,1,0,0:0:0:0:
468,192,193807,1,0,0:0:0:0:
252,192,193807,1,0,0:0:0:0:
324,192,193886,1,0,0:0:0:0:
468,192,193965,1,0,0:0:0:0:
324,192,194045,1,0,0:0:0:0:
252,192,194124,1,0,0:0:0:0:
180,192,194203,1,0,0:0:0:0:
324,192,194283,1,8,0:0:0:0:
108,192,194283,1,8,0:0:0:0:
180,192,194362,1,0,0:0:0:0:
252,192,194442,1,0,0:0:0:0:
36,192,194521,1,0,0:0:0:0:
324,192,194521,1,0,0:0:0:0:
396,192,194600,1,0,0:0:0:0:
324,192,194680,1,0,0:0:0:0:
180,192,194759,1,0,0:0:0:0:
108,192,194838,1,0,0:0:0:0:
252,192,194918,1,8,0:0:0:0:
36,192,194918,1,0,0:0:0:0:
180,192,194997,1,0,0:0:0:0:
252,192,195076,1,0,0:0:0:0:
324,192,195076,1,0,0:0:0:0:
396,192,195156,1,0,0:0:0:0:
468,192,195235,1,0,0:0:0:0:
180,192,195315,1,0,0:0:0:0:
252,192,195394,1,0,0:0:0:0:
468,192,195473,1,0,0:0:0:0:
324,192,195553,1,8,0:0:0:0:
396,192,195553,1,0,0:0:0:0:
252,192,195632,1,0,0:0:0:0:
324,192,195711,1,0,0:0:0:0:
108,192,195711,1,0,0:0:0:0:
36,192,195791,1,0,0:0:0:0:
396,192,195870,1,0,0:0:0:0:
324,192,195949,1,0,0:0:0:0:
252,192,196029,1,0,0:0:0:0:
180,192,196108,1,0,0:0:0:0:
36,192,196188,1,8,0:0:0:0:
108,192,196267,1,0,0:0:0:0:
252,192,196346,1,0,0:0:0:0:
324,192,196426,1,0,0:0:0:0:
468,192,196505,1,0,0:0:0:0:
324,192,196584,1,0,0:0:0:0:
252,192,196664,1,0,0:0:0:0:
108,192,196743,1,0,0:0:0:0:
36,192,196822,1,8,0:0:0:0:
180,192,196902,1,0,0:0:0:0:
252,192,196981,1,0,0:0:0:0:
324,192,197061,1,0,0:0:0:0:
468,192,197140,1,0,0:0:0:0:
324,192,197219,1,0,0:0:0:0:
252,192,197299,1,0,0:0:0:0:
180,192,197378,1,0,0:0:0:0:
468,192,197457,1,8,0:0:0:0:
468,192,197537,1,0,0:0:0:0:
108,192,197616,1,0,0:0:0:0:
108,192,197695,1,0,0:0:0:0:
324,192,197775,1,0,0:0:0:0:
324,192,197854,1,0,0:0:0:0:
36,192,197934,1,0,0:0:0:0:
36,192,198013,1,0,0:0:0:0:
396,192,198092,1,8,0:0:0:0:
396,192,198172,1,0,0:0:0:0:
180,192,198251,1,0,0:0:0:0:
180,192,198330,1,0,0:0:0:0:
468,192,198410,1,0,0:0:0:0:
396,192,198489,1,0,0:0:0:0:
324,192,198569,1,0,0:0:0:0:
252,192,198648,1,0,0:0:0:0:
36,192,198727,1,4,0:0:0:0:
180,192,198727,1,4,0:0:0:0:
180,192,198807,1,0,0:0:0:0:
252,192,198886,1,0,0:0:0:0:
252,192,198965,1,0,0:0:0:0:
468,192,199045,1,0,0:0:0:0:
468,192,199124,1,0,0:0:0:0:
252,192,199203,1,0,0:0:0:0:
252,192,199283,1,0,0:0:0:0:
324,192,199362,1,8,0:0:0:0:
108,192,199362,1,0,0:0:0:0:
108,192,199442,1,0,0:0:0:0:
180,192,199521,1,0,0:0:0:0:
180,192,199600,1,0,0:0:0:0:
396,192,199680,1,0,0:0:0:0:
396,192,199759,1,0,0:0:0:0:
180,192,199838,1,0,0:0:0:0:
180,192,199918,1,0,0:0:0:0:
396,192,199997,1,8,0:0:0:0:
36,192,199997,1,0,0:0:0:0:
36,192,200076,1,0,0:0:0:0:
108,192,200156,1,0,0:0:0:0:
108,192,200235,1,0,0:0:0:0:
324,192,200315,1,0,0:0:0:0:
324,192,200394,1,0,0:0:0:0:
468,192,200473,1,0,0:0:0:0:
468,192,200553,1,0,0:0:0:0:
180,192,200632,1,8,0:0:0:0:
396,192,200632,1,0,0:0:0:0:
396,192,200711,1,0,0:0:0:0:
252,192,200791,1,0,0:0:0:0:
252,192,200870,1,0,0:0:0:0:
180,192,200949,1,0,0:0:0:0:
180,192,201029,1,0,0:0:0:0:
36,192,201108,1,0,0:0:0:0:
36,192,201188,1,0,0:0:0:0:
180,192,201267,1,8,0:0:0:0:
468,192,201267,1,0,0:0:0:0:
180,192,201346,1,0,0:0:0:0:
324,192,201426,1,0,0:0:0:0:
324,192,201505,1,0,0:0:0:0:
468,192,201584,1,0,0:0:0:0:
468,192,201664,1,0,0:0:0:0:
324,192,201743,1,0,0:0:0:0:
324,192,201822,1,0,0:0:0:0:
36,192,201902,1,8,0:0:0:0:
396,192,201902,1,8,0:0:0:0:
36,192,201981,1,0,0:0:0:0:
108,192,202061,1,0,0:0:0:0:
108,192,202140,1,0,0:0:0:0:
324,192,202219,1,0,0:0:0:0:
324,192,202299,1,0,0:0:0:0:
108,192,202378,1,0,0:0:0:0:
108,192,202457,1,0,0:0:0:0:
468,192,202537,1,8,0:0:0:0:
252,192,202537,1,0,0:0:0:0:
468,192,202616,1,0,0:0:0:0:
180,192,202695,1,0,0:0:0:0:
180,192,202775,1,0,0:0:0:0:
324,192,202854,1,0,0:0:0:0:
324,192,202934,1,0,0:0:0:0:
108,192,203013,1,0,0:0:0:0:
108,192,203092,1,0,0:0:0:0:
252,192,203172,1,8,0:0:0:0:
396,192,203172,1,8,0:0:0:0:
252,192,203251,1,0,0:0:0:0:
36,192,203330,1,0,0:0:0:0:
36,192,203410,1,0,0:0:0:0:
256,192,203489,1,0,0:0:0:0:
475,192,203489,1,0,0:0:0:0:
402,192,203568,1,0,0:0:0:0:
180,192,203569,1,0,0:0:0:0:
329,192,203647,1,0,0:0:0:0:
108,192,203648,1,0,0:0:0:0:
36,192,203727,1,0,0:0:0:0:
256,192,203727,1,0,0:0:0:0:
36,192,203807,1,4,0:0:0:0:
252,192,203807,1,4,0:0:0:0:
324,192,203886,1,0,0:0:0:0:
108,192,203886,1,0,0:0:0:0:
396,192,203965,1,0,0:0:0:0:
180,192,203965,1,0,0:0:0:0:
468,192,204045,1,0,0:0:0:0:
252,192,204045,1,0,0:0:0:0:
108,192,204124,1,0,0:0:0:0:
396,192,204283,1,0,0:0:0:0:
108,192,204362,1,0,0:0:0:0:
36,192,204442,1,4,0:0:0:0:
180,192,204442,1,4,0:0:0:0:
108,192,204521,1,0,0:0:0:0:
252,192,204521,1,0,0:0:0:0:
324,192,204600,1,0,0:0:0:0:
180,192,204600,1,0,0:0:0:0:
252,192,204680,1,0,0:0:0:0:
396,192,204680,1,0,0:0:0:0:
36,192,204759,1,0,0:0:0:0:
108,192,204838,1,0,0:0:0:0:
180,192,204918,1,0,0:0:0:0:
252,192,204997,1,0,0:0:0:0:
324,192,205076,1,4,0:0:0:0:
36,192,205076,1,4,0:0:0:0:
108,192,205156,1,0,0:0:0:0:
396,192,205156,1,0,0:0:0:0:
468,192,205235,1,0,0:0:0:0:
180,192,205235,1,0,0:0:0:0:
36,192,205315,1,0,0:0:0:0:
252,192,205315,1,0,0:0:0:0:
324,192,205394,1,0,0:0:0:0:
252,192,205473,1,0,0:0:0:0:
180,192,205553,1,0,0:0:0:0:
108,192,205632,1,0,0:0:0:0:
468,192,205711,1,4,0:0:0:0:
252,192,205711,1,4,0:0:0:0:
396,192,205791,1,0,0:0:0:0:
180,192,205791,1,0,0:0:0:0:
324,192,205870,1,0,0:0:0:0:
108,192,205870,1,0,0:0:0:0:
36,192,205949,1,0,0:0:0:0:
252,192,205949,1,0,0:0:0:0:
468,192,206029,1,0,0:0:0:0:
180,192,206029,1,0,0:0:0:0:
108,192,206108,1,0,0:0:0:0:
396,192,206108,1,0,0:0:0:0:
324,192,206188,1,0,0:0:0:0:
36,192,206188,1,0,0:0:0:0:
468,192,206267,1,0,0:0:0:0:
252,192,206267,1,0,0:0:0:0:
36,192,206346,1,4,0:0:0:0:
180,192,206346,1,0,0:0:0:0:
252,192,206426,1,0,0:0:0:0:
324,192,206505,1,0,0:0:0:0:
396,192,206584,1,0,0:0:0:0:
468,192,206664,1,0,0:0:0:0:
396,192,206743,1,0,0:0:0:0:
108,192,206822,1,0,0:0:0:0:
324,192,206822,1,0,0:0:0:0:
252,192,206902,1,0,0:0:0:0:
468,192,206981,1,8,0:0:0:0:
36,192,206981,1,0,0:0:0:0:
108,192,207061,1,0,0:0:0:0:
36,192,207140,1,0,0:0:0:0:
180,192,207140,1,0,0:0:0:0:
324,192,207219,1,0,0:0:0:0:
108,192,207299,1,0,0:0:0:0:
468,192,207299,1,0,0:0:0:0:
324,192,207378,1,0,0:0:0:0:
396,192,207457,1,0,0:0:0:0:
180,192,207457,1,0,0:0:0:0:
108,192,207537,1,0,0:0:0:0:
252,192,207616,1,8,0:0:0:0:
468,192,207616,1,0,0:0:0:0:
468,192,207695,1,0,0:0:0:0:
108,192,207775,1,0,0:0:0:0:
108,192,207854,1,0,0:0:0:0:
468,192,207934,1,0,0:0:0:0:
324,192,207934,1,0,0:0:0:0:
324,192,208013,1,0,0:0:0:0:
36,192,208092,1,0,0:0:0:0:
36,192,208172,1,0,0:0:0:0:
108,192,208251,1,8,0:0:0:0:
468,192,208251,1,0,0:0:0:0:
396,192,208330,1,0,0:0:0:0:
252,192,208410,1,0,0:0:0:0:
180,192,208489,1,0,0:0:0:0:
36,192,208569,1,0,0:0:0:0:
468,192,208569,1,0,0:0:0:0:
324,192,208648,1,0,0:0:0:0:
252,192,208727,1,0,0:0:0:0:
180,192,208807,1,0,0:0:0:0:
36,192,208886,1,4,0:0:0:0:
396,192,208886,1,4,0:0:0:0:
108,192,208965,1,0,0:0:0:0:
180,192,209045,1,0,0:0:0:0:
396,192,209045,1,0,0:0:0:0:
252,192,209124,1,0,0:0:0:0:
468,192,209203,1,0,0:0:0:0:
324,192,209283,1,0,0:0:0:0:
252,192,209362,1,0,0:0:0:0:
180,192,209442,1,0,0:0:0:0:
36,192,209521,1,0,0:0:0:0:
396,192,209521,1,0,0:0:0:0:
108,192,209600,1,0,0:0:0:0:
252,192,209680,1,0,0:0:0:0:
396,192,209680,1,0,0:0:0:0:
324,192,209759,1,0,0:0:0:0:
468,192,209838,1,0,0:0:0:0:
324,192,209918,1,0,0:0:0:0:
252,192,209997,1,0,0:0:0:0:
180,192,210076,1,0,0:0:0:0:
108,192,210156,1,0,0:0:0:0:
36,192,210156,1,0,0:0:0:0:
180,192,210235,1,0,0:0:0:0:
252,192,210315,1,0,0:0:0:0:
36,192,210315,1,0,0:0:0:0:
324,192,210394,1,0,0:0:0:0:
468,192,210473,1,0,0:0:0:0:
324,192,210553,1,0,0:0:0:0:
252,192,210632,1,0,0:0:0:0:
180,192,210711,1,0,0:0:0:0:
36,192,210791,1,0,0:0:0:0:
108,192,210791,1,0,0:0:0:0:
252,192,210870,1,0,0:0:0:0:
324,192,210949,1,0,0:0:0:0:
36,192,210949,1,0,0:0:0:0:
396,192,211029,1,0,0:0:0:0:
468,192,211108,1,0,0:0:0:0:
324,192,211188,1,0,0:0:0:0:
180,192,211267,1,0,0:0:0:0:
108,192,211346,1,0,0:0:0:0:
36,192,211426,1,4,0:0:0:0:
324,192,211426,1,4,0:0:0:0:
108,192,211505,1,0,0:0:0:0:
252,192,211584,1,0,0:0:0:0:
324,192,211584,1,0,0:0:0:0:
396,192,211664,1,0,0:0:0:0:
468,192,211743,1,0,0:0:0:0:
324,192,211822,1,0,0:0:0:0:
252,192,211902,1,0,0:0:0:0:
180,192,211981,1,0,0:0:0:0:
36,192,212061,1,0,0:0:0:0:
324,192,212061,1,0,0:0:0:0:
108,192,212140,1,0,0:0:0:0:
252,192,212219,1,0,0:0:0:0:
324,192,212219,1,0,0:0:0:0:
396,192,212299,1,0,0:0:0:0:
468,192,212378,1,0,0:0:0:0:
324,192,212457,1,0,0:0:0:0:
180,192,212537,1,0,0:0:0:0:
108,192,212616,1,0,0:0:0:0:
36,192,212695,1,0,0:0:0:0:
180,192,212695,1,0,0:0:0:0:
252,192,212775,1,0,0:0:0:0:
180,192,212854,1,0,0:0:0:0:
324,192,212854,1,0,0:0:0:0:
396,192,212934,1,0,0:0:0:0:
468,192,213013,1,0,0:0:0:0:
396,192,213092,1,0,0:0:0:0:
324,192,213172,1,0,0:0:0:0:
252,192,213251,1,0,0:0:0:0:
180,192,213330,1,0,0:0:0:0:
36,192,213330,1,0,0:0:0:0:
108,192,213410,1,0,0:0:0:0:
180,192,213489,1,0,0:0:0:0:
324,192,213489,1,0,0:0:0:0:
396,192,213569,1,0,0:0:0:0:
468,192,213648,1,0,0:0:0:0:
396,192,213727,1,0,0:0:0:0:
324,192,213807,1,0,0:0:0:0:
108,192,213886,1,0,0:0:0:0:
252,192,213965,1,4,0:0:0:0:
36,192,213965,1,4,0:0:0:0:
108,192,214045,1,0,0:0:0:0:
324,192,214124,1,0,0:0:0:0:
252,192,214124,1,0,0:0:0:0:
396,192,214203,1,0,0:0:0:0:
468,192,214283,1,0,0:0:0:0:
252,192,214362,1,0,0:0:0:0:
180,192,214442,1,0,0:0:0:0:
108,192,214521,1,0,0:0:0:0:
36,192,214600,1,0,0:0:0:0:
252,192,214600,1,0,0:0:0:0:
108,192,214680,1,0,0:0:0:0:
180,192,214759,1,0,0:0:0:0:
252,192,214759,1,0,0:0:0:0:
324,192,214838,1,0,0:0:0:0:
468,192,214918,1,0,0:0:0:0:
396,192,214997,1,0,0:0:0:0:
252,192,215076,1,0,0:0:0:0:
180,192,215156,1,0,0:0:0:0:
324,192,215235,1,0,0:0:0:0:
36,192,215235,1,0,0:0:0:0:
108,192,215315,1,0,0:0:0:0:
324,192,215394,1,0,0:0:0:0:
180,192,215394,1,0,0:0:0:0:
396,192,215473,1,0,0:0:0:0:
468,192,215553,1,0,0:0:0:0:
252,192,215632,1,0,0:0:0:0:
180,192,215711,1,0,0:0:0:0:
108,192,215791,1,0,0:0:0:0:
36,192,215870,1,0,0:0:0:0:
324,192,215870,1,0,0:0:0:0:
108,192,215949,1,0,0:0:0:0:
180,192,216029,1,0,0:0:0:0:
324,192,216029,1,0,0:0:0:0:
252,192,216108,1,0,0:0:0:0:
468,192,216188,1,0,0:0:0:0:
252,192,216267,1,0,0:0:0:0:
180,192,216346,1,0,0:0:0:0:
108,192,216426,1,0,0:0:0:0:
36,192,216505,1,4,0:0:0:0:
252,192,216505,128,4,221426:0:0:0:0:
108,192,216584,1,0,0:0:0:0:
180,192,216664,1,0,0:0:0:0:
324,192,216743,1,0,0:0:0:0:
396,192,216822,1,0,0:0:0:0:
324,192,216902,1,0,0:0:0:0:
180,192,216981,1,0,0:0:0:0:
108,192,217061,1,0,0:0:0:0:
468,192,217140,1,0,0:0:0:0:
396,192,217219,1,0,0:0:0:0:
324,192,217299,1,0,0:0:0:0:
180,192,217378,1,0,0:0:0:0:
108,192,217457,1,0,0:0:0:0:
180,192,217537,1,0,0:0:0:0:
324,192,217616,1,0,0:0:0:0:
396,192,217695,1,0,0:0:0:0:
36,192,217775,1,0,0:0:0:0:
108,192,217854,1,0,0:0:0:0:
180,192,217934,1,0,0:0:0:0:
396,192,218092,1,0,0:0:0:0:
180,192,218251,1,0,0:0:0:0:
108,192,218330,1,0,0:0:0:0:
468,192,218410,1,0,0:0:0:0:
324,192,218569,1,0,0:0:0:0:
180,192,218648,1,0,0:0:0:0:
108,192,218727,1,0,0:0:0:0:
180,192,218807,1,0,0:0:0:0:
324,192,218886,1,0,0:0:0:0:
36,192,219045,1,0,0:0:0:0:
108,192,219124,1,0,0:0:0:0:
180,192,219203,1,0,0:0:0:0:
324,192,219362,1,0,0:0:0:0:
468,192,219521,1,0,0:0:0:0:
396,192,219600,1,0,0:0:0:0:
324,192,219680,1,0,0:0:0:0:
180,192,219838,1,0,0:0:0:0:
108,192,219918,1,0,0:0:0:0:
36,192,219997,1,0,0:0:0:0:
108,192,220076,1,0,0:0:0:0:
180,192,220156,1,0,0:0:0:0:
324,192,220235,1,0,0:0:0:0:
396,192,220315,1,0,0:0:0:0:
468,192,220394,1,0,0:0:0:0:
396,192,220473,1,0,0:0:0:0:
180,192,220632,1,0,0:0:0:0:
108,192,220791,1,0,0:0:0:0:
36,192,220870,1,0,0:0:0:0:
36,192,221584,1,4,0:0:0:0:
324,192,221584,1,4,0:0:0:0:
252,192,221584,1,4,0:0:0:0:
396,192,221743,1,0,0:0:0:0:
468,192,221902,1,0,0:0:0:0:
396,192,222061,1,0,0:0:0:0:
36,192,222061,1,0,0:0:0:0:
252,192,222061,1,0,0:0:0:0:
252,192,222537,1,0,0:0:0:0:
468,192,222537,1,0,0:0:0:0:
108,192,222537,1,0,0:0:0:0:
324,192,222695,1,0,0:0:0:0:
108,192,223013,1,0,0:0:0:0:
252,192,223013,1,0,0:0:0:0:
468,192,223172,1,0,0:0:0:0:
324,192,223330,1,0,0:0:0:0:
36,192,223489,1,8,0:0:0:0:
180,192,223489,1,8,0:0:0:0:
252,192,223648,1,0,0:0:0:0:
180,192,223727,1,0,0:0:0:0:
252,192,223807,1,0,0:0:0:0:
468,192,223807,1,0,0:0:0:0:
324,192,223965,128,0,226346:0:0:0:0:
36,192,224124,1,4,0:0:0:0:
468,192,224124,1,0,0:0:0:0:
108,192,224283,1,0,0:0:0:0:
252,192,224442,1,0,0:0:0:0:
36,192,224600,1,0,0:0:0:0:
468,192,224600,1,0,0:0:0:0:
252,192,224759,1,8,0:0:0:0:
36,192,224918,1,0,0:0:0:0:
180,192,225076,1,0,0:0:0:0:
468,192,225076,1,0,0:0:0:0:
252,192,225235,1,0,0:0:0:0:
36,192,225394,1,8,0:0:0:0:
468,192,225553,1,0,0:0:0:0:
252,192,225553,1,0,0:0:0:0:
396,192,225711,1,0,0:0:0:0:
108,192,225870,1,0,0:0:0:0:
468,192,226029,1,8,0:0:0:0:
252,192,226029,1,8,0:0:0:0:
396,192,226108,1,0,0:0:0:0:
468,192,226188,1,0,0:0:0:0:
36,192,226188,1,0,0:0:0:0:
396,192,226346,1,0,0:0:0:0:
180,192,226346,1,0,0:0:0:0:
108,192,226505,1,0,0:0:0:0:
468,192,226664,1,4,0:0:0:0:
36,192,226664,1,0,0:0:0:0:
252,192,226664,1,0,0:0:0:0:
108,192,226822,1,0,0:0:0:0:
468,192,226981,1,8,0:0:0:0:
324,192,226981,1,8,0:0:0:0:
180,192,226981,1,0,0:0:0:0:
36,192,227140,1,0,0:0:0:0:
402,192,227298,1,8,0:0:0:0:
252,192,227299,1,0,0:0:0:0:
468,192,227299,1,0,0:0:0:0:
108,192,227457,1,0,0:0:0:0:
324,192,227616,1,8,0:0:0:0:
180,192,227616,1,0,0:0:0:0:
396,192,227616,1,0,0:0:0:0:
36,192,227775,1,0,0:0:0:0:
468,192,227934,1,8,0:0:0:0:
252,192,227934,1,0,0:0:0:0:
396,192,227934,1,0,0:0:0:0:
108,192,228092,1,0,0:0:0:0:
468,192,228251,1,8,0:0:0:0:
324,192,228251,1,0,0:0:0:0:
182,192,228251,1,0,0:0:0:0:
36,192,228410,1,0,0:0:0:0:
324,192,228569,1,8,0:0:0:0:
396,192,228569,1,0,0:0:0:0:
252,192,228569,1,0,0:0:0:0:
108,192,228648,1,0,0:0:0:0:
36,192,228727,1,0,0:0:0:0:
108,192,228807,1,0,0:0:0:0:
468,192,228886,1,8,0:0:0:0:
180,192,228886,1,0,0:0:0:0:
396,192,228886,1,0,0:0:0:0:
36,192,229045,128,0,233172:0:0:0:0:
108,192,229203,1,4,0:0:0:0:
252,192,229203,1,4,0:0:0:0:
324,192,229362,1,0,0:0:0:0:
180,192,229521,1,8,0:0:0:0:
468,192,229521,1,8,0:0:0:0:
252,192,229680,1,0,0:0:0:0:
324,192,229838,1,8,0:0:0:0:
468,192,229838,1,8,0:0:0:0:
108,192,229997,1,0,0:0:0:0:
396,192,230156,1,8,0:0:0:0:
252,192,230156,1,8,0:0:0:0:
468,192,230235,1,0,0:0:0:0:
108,192,230315,1,0,0:0:0:0:
324,192,230315,1,0,0:0:0:0:
252,192,230394,1,0,0:0:0:0:
180,192,230473,128,8,230632:0:0:0:0:
396,192,230632,128,0,230791:0:0:0:0:
468,192,230791,128,0,230949:0:0:0:0:
108,192,230949,128,0,231108:0:0:0:0:
396,192,231108,128,0,231267:0:0:0:0:
180,192,231267,128,0,231426:0:0:0:0:
468,192,231426,128,0,231584:0:0:0:0:
108,192,231584,128,0,233172:0:0:0:0:
