osu file format v13

[General]
AudioFilename: 02 Chaosmaid.mp3
AudioLeadIn: 0
PreviewTime: 67933
Countdown: 0
SampleSet: Soft
StackLeniency: 0.7
Mode: 3
LetterboxInBreaks: 0
SpecialStyle: 0
WidescreenStoryboard: 1

[Editor]
DistanceSpacing: 1
BeatDivisor: 2
GridSize: 4
TimelineZoom: 1

[Metadata]
Title:Chaosmaid
TitleUnicode:Chaosmaid
Artist:Paraoka Feat. Iku Akume
ArtistUnicode:Paraoka Feat. Iku Akume
Creator:Ripazhakgggdkp
Version:Beginner
Source:
Tags:
BeatmapID:297545
BeatmapSetID:106856

[Difficulty]
HPDrainRate:7
CircleSize:7
OverallDifficulty:7
ApproachRate:5
SliderMultiplier:1.4
SliderTickRate:1

[Events]
//Background and Video events
0,0,"Chaosmaid.full.129153.jpg",0,0
//Break Periods
//Storyboard Layer 0 (Background)
//Storyboard Layer 1 (Fail)
//Storyboard Layer 2 (Pass)
//Storyboard Layer 3 (Foreground)
//Storyboard Sound Samples
//Background Colour Transformations
3,100,163,162,255

[TimingPoints]
632,317.460317460317,4,2,1,43,1,0
126425,-133.333333333333,4,2,1,43,0,0
126505,-200,4,2,1,43,0,0
126663,-100,4,2,1,43,0,0
127060,-133.333333333333,4,2,1,43,0,0
127139,-200,4,2,1,43,0,0
127298,-100,4,2,1,43,0,0
127695,-133.333333333333,4,2,1,43,0,0
127774,-200,4,2,1,43,0,0
127933,-100,4,2,1,43,0,0
128330,-133.333333333333,4,2,1,43,0,0
128409,-200,4,2,1,43,0,0
128568,-100,4,2,1,43,0,0

[HitObjects]
109,192,632,128,0,1266:0:0:0:0:
182,192,1266,128,0,1743:0:0:0:0:
256,192,1743,128,0,2378:0:0:0:0:
475,192,2378,128,0,2854:0:0:0:0:
36,192,2854,1,0,0:0:0:0:
109,192,3171,128,0,3806:0:0:0:0:
256,192,3806,128,0,4282:0:0:0:0:
329,192,4282,128,0,4758:0:0:0:0:
475,192,4758,128,0,5076:0:0:0:0:
182,192,5076,128,0,5393:0:0:0:0:
329,192,5393,128,0,5711:0:0:0:0:
109,192,5711,128,0,6345:0:0:0:0:
182,192,6346,128,0,6823:0:0:0:0:
256,192,6822,128,0,7457:0:0:0:0:
475,192,7457,128,0,7933:0:0:0:0:
36,192,7933,1,0,0:0:0:0:
109,192,8251,128,0,8886:0:0:0:0:
256,192,8885,128,0,9361:0:0:0:0:
329,192,9362,128,0,9838:0:0:0:0:
475,192,9838,128,0,10156:0:0:0:0:
182,192,10155,128,0,10472:0:0:0:0:
329,192,10473,128,0,10791:0:0:0:0:
36,192,10790,1,4,0:0:0:0:
109,192,10790,1,0,0:0:0:0:
256,192,11425,1,8,0:0:0:0:
329,192,11425,1,8,0:0:0:0:
402,192,12060,1,8,0:0:0:0:
475,192,12060,1,0,0:0:0:0:
182,192,12695,1,0,0:0:0:0:
329,192,12695,1,0,0:0:0:0:
402,192,13330,1,8,0:0:0:0:
475,192,13330,1,0,0:0:0:0:
182,192,13965,1,8,0:0:0:0:
256,192,13965,1,0,0:0:0:0:
36,192,14600,1,8,0:0:0:0:
475,192,14917,1,0,0:0:0:0:
109,192,15235,1,8,0:0:0:0:
402,192,15552,1,0,0:0:0:0:
36,192,15870,1,4,0:0:0:0:
182,192,15870,1,0,0:0:0:0:
329,192,16505,1,8,0:0:0:0:
182,192,16505,1,0,0:0:0:0:
329,192,17139,1,8,0:0:0:0:
475,192,17139,1,0,0:0:0:0:
36,192,17774,1,8,0:0:0:0:
475,192,17774,1,8,0:0:0:0:
329,192,18409,1,4,0:0:0:0:
475,192,18409,1,0,0:0:0:0:
182,192,19044,1,8,0:0:0:0:
329,192,19044,1,0,0:0:0:0:
475,192,19679,1,8,0:0:0:0:
36,192,19997,1,0,0:0:0:0:
402,192,20314,1,8,0:0:0:0:
109,192,20631,1,0,0:0:0:0:
182,192,20949,128,4,21584:0:0:0:0:
256,192,21584,128,0,22060:0:0:0:0:
329,192,22060,128,0,22536:0:0:0:0:
475,192,22536,128,0,22854:0:0:0:0:
109,192,22854,128,0,23171:0:0:0:0:
256,192,23171,128,0,23489:0:0:0:0:
182,192,23489,128,4,24758:0:0:0:0:
329,192,23489,128,4,24758:0:0:0:0:
109,192,24758,128,8,26028:0:0:0:0:
402,192,24758,128,0,25393:0:0:0:0:
256,192,25393,128,8,26028:0:0:0:0:
182,192,26028,128,8,27298:0:0:0:0:
475,192,26028,128,0,26663:0:0:0:0:
329,192,26663,128,8,27298:0:0:0:0:
36,192,27298,128,8,28568:0:0:0:0:
402,192,27298,128,8,27933:0:0:0:0:
256,192,27933,128,0,28568:0:0:0:0:
109,192,28568,128,0,29838:0:0:0:0:
182,192,28568,128,0,29203:0:0:0:0:
256,192,29203,128,8,29838:0:0:0:0:
182,192,29838,128,8,31108:0:0:0:0:
402,192,29838,128,0,30473:0:0:0:0:
329,192,30473,128,8,31108:0:0:0:0:
109,192,31108,128,8,31425:0:0:0:0:
402,192,31108,128,0,31425:0:0:0:0:
182,192,31743,128,8,32060:0:0:0:0:
329,192,31743,128,8,32060:0:0:0:0:
36,192,32378,128,8,32695:0:0:0:0:
256,192,32378,128,8,32695:0:0:0:0:
182,192,33012,128,8,33330:0:0:0:0:
475,192,33012,128,8,33330:0:0:0:0:
182,192,33647,128,4,34917:0:0:0:0:
329,192,33647,128,0,34917:0:0:0:0:
109,192,34917,128,8,35552:0:0:0:0:
402,192,34917,128,8,36187:0:0:0:0:
256,192,35552,128,8,36187:0:0:0:0:
475,192,36187,128,8,37457:0:0:0:0:
182,192,36187,128,8,36822:0:0:0:0:
329,192,36822,128,8,37457:0:0:0:0:
402,192,37457,128,8,38092:0:0:0:0:
36,192,37457,128,0,38727:0:0:0:0:
256,192,38092,128,8,38727:0:0:0:0:
182,192,38727,128,8,39362:0:0:0:0:
109,192,38727,128,0,39997:0:0:0:0:
256,192,39362,128,8,39997:0:0:0:0:
36,192,39997,128,8,40631:0:0:0:0:
329,192,39997,128,0,41266:0:0:0:0:
109,192,40631,128,8,41266:0:0:0:0:
182,192,41266,128,8,41584:0:0:0:0:
402,192,41266,128,8,41583:0:0:0:0:
329,192,41901,128,8,42218:0:0:0:0:
182,192,41901,128,0,42218:0:0:0:0:
256,192,42536,128,8,42853:0:0:0:0:
36,192,42536,128,0,42853:0:0:0:0:
182,192,43171,128,8,43489:0:0:0:0:
475,192,43171,128,0,43489:0:0:0:0:
256,192,43806,1,4,0:0:0:0:
402,192,43806,1,0,0:0:0:0:
256,192,44282,1,4,0:0:0:0:
402,192,44282,1,0,0:0:0:0:
36,192,44917,1,0,0:0:0:0:
256,192,45393,1,0,0:0:0:0:
475,192,45711,1,8,0:0:0:0:
256,192,46346,1,4,0:0:0:0:
402,192,46346,1,0,0:0:0:0:
256,192,46822,1,4,0:0:0:0:
402,192,46822,1,0,0:0:0:0:
36,192,47457,1,0,0:0:0:0:
182,192,47933,1,0,0:0:0:0:
475,192,48251,1,8,0:0:0:0:
329,192,48885,1,4,0:0:0:0:
402,192,48885,1,0,0:0:0:0:
329,192,49362,1,4,0:0:0:0:
402,192,49362,1,0,0:0:0:0:
36,192,49997,1,0,0:0:0:0:
329,192,50473,1,0,0:0:0:0:
475,192,50790,1,8,0:0:0:0:
109,192,51425,1,0,0:0:0:0:
182,192,51425,1,4,0:0:0:0:
109,192,51901,1,0,0:0:0:0:
182,192,51901,1,4,0:0:0:0:
36,192,52536,1,0,0:0:0:0:
329,192,53012,1,0,0:0:0:0:
475,192,53330,1,8,0:0:0:0:
475,192,53965,128,4,54441:0:0:0:0:
256,192,54441,128,8,54758:0:0:0:0:
182,192,54758,128,8,55076:0:0:0:0:
109,192,55076,128,4,57774:0:0:0:0:
402,192,57774,1,0,0:0:0:0:
256,192,58092,1,0,0:0:0:0:
109,192,58409,1,0,0:0:0:0:
402,192,59044,1,0,0:0:0:0:
109,192,59362,1,0,0:0:0:0:
256,192,59679,1,0,0:0:0:0:
402,192,60314,1,0,0:0:0:0:
256,192,60631,1,0,0:0:0:0:
109,192,60949,1,0,0:0:0:0:
329,192,61584,1,0,0:0:0:0:
182,192,61901,1,0,0:0:0:0:
36,192,62219,1,0,0:0:0:0:
402,192,62854,1,0,0:0:0:0:
256,192,63171,1,0,0:0:0:0:
109,192,63489,1,0,0:0:0:0:
402,192,64124,1,0,0:0:0:0:
109,192,64441,1,0,0:0:0:0:
256,192,64758,1,0,0:0:0:0:
475,192,65393,1,0,0:0:0:0:
329,192,65711,1,0,0:0:0:0:
182,192,66028,1,0,0:0:0:0:
329,192,66663,128,8,66981:0:0:0:0:
402,192,66663,128,0,66981:0:0:0:0:
109,192,67298,128,0,67616:0:0:0:0:
182,192,67298,128,0,67616:0:0:0:0:
475,192,67933,1,4,0:0:0:0:
36,192,68251,1,0,0:0:0:0:
329,192,68568,1,8,0:0:0:0:
256,192,69203,1,8,0:0:0:0:
182,192,69838,1,8,0:0:0:0:
475,192,70473,1,4,0:0:0:0:
36,192,70790,1,0,0:0:0:0:
402,192,71108,1,8,0:0:0:0:
256,192,71743,1,8,0:0:0:0:
182,192,72378,1,8,0:0:0:0:
36,192,73012,1,4,0:0:0:0:
475,192,73330,1,0,0:0:0:0:
182,192,73647,1,8,0:0:0:0:
256,192,74282,1,0,0:0:0:0:
329,192,74917,1,8,0:0:0:0:
36,192,75552,1,4,0:0:0:0:
475,192,75870,1,0,0:0:0:0:
256,192,76187,1,8,0:0:0:0:
182,192,76822,1,8,0:0:0:0:
109,192,77457,1,8,0:0:0:0:
36,192,78092,1,4,0:0:0:0:
256,192,78409,1,0,0:0:0:0:
475,192,78727,1,8,0:0:0:0:
256,192,79044,1,0,0:0:0:0:
109,192,79362,1,8,0:0:0:0:
402,192,79997,1,8,0:0:0:0:
109,192,80631,1,8,0:0:0:0:
256,192,80949,1,0,0:0:0:0:
402,192,81266,1,8,0:0:0:0:
256,192,81584,1,0,0:0:0:0:
475,192,81901,1,8,0:0:0:0:
36,192,82536,1,8,0:0:0:0:
256,192,83171,1,4,0:0:0:0:
329,192,83171,1,0,0:0:0:0:
182,192,83806,1,4,0:0:0:0:
402,192,83806,1,0,0:0:0:0:
109,192,84441,1,4,0:0:0:0:
475,192,84441,1,0,0:0:0:0:
36,192,85076,1,4,0:0:0:0:
329,192,85076,1,0,0:0:0:0:
109,192,85393,1,0,0:0:0:0:
256,192,85393,1,0,0:0:0:0:
475,192,85711,128,4,86346:0:0:0:0:
402,192,86346,128,8,86981:0:0:0:0:
182,192,86981,128,8,87616:0:0:0:0:
36,192,87616,128,8,88251:0:0:0:0:
475,192,88251,128,4,89520:0:0:0:0:
402,192,89520,128,0,89838:0:0:0:0:
329,192,89838,128,0,90155:0:0:0:0:
256,192,90155,128,0,90473:0:0:0:0:
182,192,90473,128,0,90790:0:0:0:0:
109,192,90790,128,4,92060:0:0:0:0:
182,192,92060,128,0,92378:0:0:0:0:
256,192,92378,128,0,92695:0:0:0:0:
329,192,92695,128,0,93012:0:0:0:0:
475,192,93012,128,0,93330:0:0:0:0:
402,192,93330,128,4,94600:0:0:0:0:
329,192,94600,128,0,94917:0:0:0:0:
256,192,94917,128,0,95235:0:0:0:0:
182,192,95235,128,0,95552:0:0:0:0:
109,192,95552,128,0,95870:0:0:0:0:
36,192,95870,128,4,98409:0:0:0:0:
329,192,98409,1,4,0:0:0:0:
182,192,98885,1,0,0:0:0:0:
329,192,99362,1,0,0:0:0:0:
182,192,99838,1,0,0:0:0:0:
329,192,100314,1,0,0:0:0:0:
256,192,100473,1,0,0:0:0:0:
182,192,100631,1,0,0:0:0:0:
109,192,100949,1,4,0:0:0:0:
402,192,101425,1,0,0:0:0:0:
109,192,101901,1,0,0:0:0:0:
402,192,102378,1,0,0:0:0:0:
182,192,102854,1,0,0:0:0:0:
256,192,103012,1,0,0:0:0:0:
329,192,103171,1,0,0:0:0:0:
36,192,103489,1,4,0:0:0:0:
475,192,103806,1,8,0:0:0:0:
36,192,104124,1,8,0:0:0:0:
475,192,104441,1,8,0:0:0:0:
36,192,104758,1,8,0:0:0:0:
475,192,105076,1,8,0:0:0:0:
36,192,105393,1,8,0:0:0:0:
475,192,105711,1,8,0:0:0:0:
182,192,106028,128,4,108251:0:0:0:0:
256,192,106028,128,0,108251:0:0:0:0:
329,192,106028,128,0,108251:0:0:0:0:
475,192,108568,128,4,108885:0:0:0:0:
329,192,109203,128,8,109520:0:0:0:0:
182,192,109838,128,8,110155:0:0:0:0:
256,192,110473,1,8,0:0:0:0:
329,192,110790,1,0,0:0:0:0:
402,192,111108,128,4,111425:0:0:0:0:
475,192,111743,1,8,0:0:0:0:
182,192,112060,1,0,0:0:0:0:
402,192,112378,1,8,0:0:0:0:
109,192,112695,1,0,0:0:0:0:
182,192,113012,1,8,0:0:0:0:
36,192,113330,1,0,0:0:0:0:
109,192,113647,128,4,113965:0:0:0:0:
329,192,114282,128,8,114600:0:0:0:0:
402,192,114917,1,8,0:0:0:0:
475,192,115235,1,0,0:0:0:0:
182,192,115552,1,8,0:0:0:0:
329,192,115870,1,0,0:0:0:0:
36,192,116187,128,4,116505:0:0:0:0:
182,192,116822,128,8,117139:0:0:0:0:
329,192,117457,128,8,117774:0:0:0:0:
475,192,118092,128,8,118409:0:0:0:0:
329,192,118727,128,4,119044:0:0:0:0:
182,192,119362,128,8,119679:0:0:0:0:
36,192,119997,128,8,120314:0:0:0:0:
109,192,120631,1,8,0:0:0:0:
182,192,120949,1,0,0:0:0:0:
256,192,121266,128,4,121584:0:0:0:0:
182,192,121901,1,8,0:0:0:0:
36,192,122219,1,0,0:0:0:0:
475,192,122536,1,0,0:0:0:0:
182,192,122854,1,0,0:0:0:0:
402,192,123171,1,8,0:0:0:0:
109,192,123489,1,0,0:0:0:0:
329,192,123806,128,4,124124:0:0:0:0:
402,192,124441,128,8,124758:0:0:0:0:
182,192,125076,1,8,0:0:0:0:
329,192,125393,1,0,0:0:0:0:
109,192,125711,1,8,0:0:0:0:
182,192,126028,1,0,0:0:0:0:
36,192,126346,1,4,0:0:0:0:
256,192,126663,1,0,0:0:0:0:
475,192,126981,1,4,0:0:0:0:
256,192,127298,1,0,0:0:0:0:
36,192,127616,1,4,0:0:0:0:
256,192,127933,1,0,0:0:0:0:
475,192,128251,1,4,0:0:0:0:
256,192,128568,1,0,0:0:0:0:
36,192,128885,128,4,130155:0:0:0:0:
182,192,129520,1,8,0:0:0:0:
475,192,130155,128,8,131425:0:0:0:0:
329,192,130790,1,8,0:0:0:0:
109,192,131425,128,4,132695:0:0:0:0:
329,192,132060,1,8,0:0:0:0:
402,192,132695,128,8,133965:0:0:0:0:
182,192,133330,1,8,0:0:0:0:
256,192,133965,128,4,135235:0:0:0:0:
36,192,134600,1,8,0:0:0:0:
475,192,135235,128,0,136505:0:0:0:0:
256,192,135870,1,0,0:0:0:0:
256,192,136505,128,8,136663:0:0:0:0:
329,192,136822,128,8,136981:0:0:0:0:
182,192,137139,128,8,137298:0:0:0:0:
329,192,137774,128,8,137933:0:0:0:0:
182,192,138092,128,8,138251:0:0:0:0:
256,192,138409,128,8,138568:0:0:0:0:
475,192,138727,128,8,140314:0:0:0:0:
36,192,139044,128,4,140314:0:0:0:0:
109,192,140314,128,0,141584:0:0:0:0:
402,192,140314,128,0,141584:0:0:0:0:
182,192,141584,128,4,142854:0:0:0:0:
329,192,141584,128,0,142854:0:0:0:0:
475,192,142854,1,4,0:0:0:0:
36,192,143171,1,4,0:0:0:0:
475,192,143489,1,4,0:0:0:0:
329,192,144124,128,4,144758:0:0:0:0:
182,192,144124,128,0,145393:0:0:0:0:
109,192,145393,128,8,146663:0:0:0:0:
402,192,145393,128,8,145711:0:0:0:0:
256,192,146028,128,8,146346:0:0:0:0:
182,192,146663,128,8,147933:0:0:0:0:
475,192,146663,128,0,146981:0:0:0:0:
329,192,147298,128,8,147616:0:0:0:0:
475,192,147616,1,0,0:0:0:0:
402,192,147933,128,8,148251:0:0:0:0:
36,192,147933,128,8,149203:0:0:0:0:
256,192,148568,128,0,148885:0:0:0:0:
402,192,148885,1,0,0:0:0:0:
182,192,149203,128,8,149520:0:0:0:0:
109,192,149203,128,8,150473:0:0:0:0:
256,192,149838,128,8,150155:0:0:0:0:
182,192,150473,128,8,151743:0:0:0:0:
402,192,150473,128,8,150790:0:0:0:0:
329,192,151108,128,8,151425:0:0:0:0:
402,192,151743,128,8,152060:0:0:0:0:
109,192,151743,128,0,152060:0:0:0:0:
256,192,152060,1,0,0:0:0:0:
182,192,152378,128,8,152695:0:0:0:0:
329,192,152378,128,0,152695:0:0:0:0:
256,192,153012,128,8,153329:0:0:0:0:
36,192,153012,128,0,153329:0:0:0:0:
402,192,153330,1,0,0:0:0:0:
182,192,153647,128,8,153965:0:0:0:0:
475,192,153647,128,0,153965:0:0:0:0:
182,192,154282,128,4,154917:0:0:0:0:
329,192,154282,128,0,155552:0:0:0:0:
109,192,155552,128,8,155870:0:0:0:0:
402,192,155552,128,0,156822:0:0:0:0:
256,192,156187,128,0,156505:0:0:0:0:
182,192,156822,128,8,157139:0:0:0:0:
475,192,156822,128,0,158092:0:0:0:0:
329,192,157457,128,8,157774:0:0:0:0:
182,192,157774,1,0,0:0:0:0:
36,192,158092,128,8,159362:0:0:0:0:
402,192,158092,128,0,158409:0:0:0:0:
256,192,158727,128,8,159044:0:0:0:0:
402,192,159044,1,0,0:0:0:0:
109,192,159362,128,8,160632:0:0:0:0:
182,192,159362,128,8,159679:0:0:0:0:
256,192,159997,128,8,160314:0:0:0:0:
36,192,160631,128,8,160949:0:0:0:0:
329,192,160631,128,8,161900:0:0:0:0:
109,192,161266,128,8,161584:0:0:0:0:
182,192,161901,128,8,162219:0:0:0:0:
402,192,161901,128,0,162218:0:0:0:0:
36,192,162219,1,0,0:0:0:0:
329,192,162536,128,8,162853:0:0:0:0:
182,192,162536,128,8,162853:0:0:0:0:
256,192,163171,128,8,163488:0:0:0:0:
36,192,163171,128,0,163488:0:0:0:0:
402,192,163489,1,0,0:0:0:0:
182,192,163806,128,8,164124:0:0:0:0:
475,192,163806,128,0,164124:0:0:0:0:
402,192,164441,1,4,0:0:0:0:
256,192,164441,1,0,0:0:0:0:
256,192,164917,1,4,0:0:0:0:
402,192,164917,1,0,0:0:0:0:
475,192,165552,1,0,0:0:0:0:
256,192,166028,1,0,0:0:0:0:
36,192,166346,1,8,0:0:0:0:
36,192,166505,1,0,0:0:0:0:
256,192,166981,1,4,0:0:0:0:
109,192,166981,1,0,0:0:0:0:
109,192,167457,1,4,0:0:0:0:
256,192,167457,1,0,0:0:0:0:
36,192,168092,1,0,0:0:0:0:
256,192,168568,1,0,0:0:0:0:
475,192,168885,1,8,0:0:0:0:
475,192,169044,1,0,0:0:0:0:
329,192,169520,1,4,0:0:0:0:
402,192,169520,1,0,0:0:0:0:
329,192,169997,1,4,0:0:0:0:
402,192,169997,1,0,0:0:0:0:
475,192,170631,1,0,0:0:0:0:
256,192,171108,1,0,0:0:0:0:
36,192,171425,1,8,0:0:0:0:
36,192,171584,1,0,0:0:0:0:
182,192,172060,1,0,0:0:0:0:
109,192,172060,1,4,0:0:0:0:
182,192,172536,1,4,0:0:0:0:
109,192,172536,1,0,0:0:0:0:
36,192,173171,1,0,0:0:0:0:
256,192,173647,1,0,0:0:0:0:
475,192,173965,1,8,0:0:0:0:
475,192,174124,1,0,0:0:0:0:
402,192,174600,128,4,175076:0:0:0:0:
256,192,175076,128,4,175393:0:0:0:0:
182,192,175393,128,4,175711:0:0:0:0:
109,192,175711,128,4,178409:0:0:0:0:
402,192,177139,128,0,178409:0:0:0:0:
329,192,178409,1,0,0:0:0:0:
256,192,178727,1,0,0:0:0:0:
182,192,179044,1,0,0:0:0:0:
329,192,179679,1,0,0:0:0:0:
182,192,179997,1,0,0:0:0:0:
256,192,180314,1,0,0:0:0:0:
475,192,180949,1,0,0:0:0:0:
256,192,181266,1,0,0:0:0:0:
36,192,181584,1,0,0:0:0:0:
36,192,182219,1,0,0:0:0:0:
256,192,182536,1,0,0:0:0:0:
475,192,182854,1,0,0:0:0:0:
475,192,183489,1,0,0:0:0:0:
36,192,183806,1,0,0:0:0:0:
256,192,184124,1,0,0:0:0:0:
36,192,184441,1,0,0:0:0:0:
475,192,184758,1,0,0:0:0:0:
36,192,185393,1,0,0:0:0:0:
36,192,186028,1,0,0:0:0:0:
256,192,186346,1,0,0:0:0:0:
475,192,186663,1,0,0:0:0:0:
256,192,186981,1,0,0:0:0:0:
402,192,187298,128,4,187616:0:0:0:0:
329,192,187298,128,0,187616:0:0:0:0:
109,192,187933,128,8,188251:0:0:0:0:
182,192,187933,128,0,188251:0:0:0:0:
475,192,188568,1,4,0:0:0:0:
256,192,188885,1,0,0:0:0:0:
36,192,189203,1,8,0:0:0:0:
109,192,189838,1,8,0:0:0:0:
256,192,190155,1,0,0:0:0:0:
402,192,190473,1,8,0:0:0:0:
402,192,191108,1,8,0:0:0:0:
329,192,191425,1,0,0:0:0:0:
182,192,191743,1,8,0:0:0:0:
109,192,192378,1,8,0:0:0:0:
402,192,192695,1,0,0:0:0:0:
329,192,193012,1,8,0:0:0:0:
109,192,193647,1,4,0:0:0:0:
182,192,193965,1,0,0:0:0:0:
329,192,194282,1,8,0:0:0:0:
402,192,194600,1,0,0:0:0:0:
109,192,194917,1,8,0:0:0:0:
402,192,195552,1,8,0:0:0:0:
402,192,196187,1,8,0:0:0:0:
329,192,196505,1,0,0:0:0:0:
182,192,196822,1,8,0:0:0:0:
109,192,197139,1,0,0:0:0:0:
402,192,197457,1,8,0:0:0:0:
109,192,198092,1,8,0:0:0:0:
36,192,198727,1,4,0:0:0:0:
475,192,199044,1,0,0:0:0:0:
109,192,199362,1,8,0:0:0:0:
402,192,199679,1,0,0:0:0:0:
256,192,199997,1,8,0:0:0:0:
256,192,200631,1,8,0:0:0:0:
475,192,201266,1,8,0:0:0:0:
36,192,201584,1,0,0:0:0:0:
402,192,201901,1,8,0:0:0:0:
109,192,202219,1,0,0:0:0:0:
256,192,202536,1,8,0:0:0:0:
256,192,203171,1,8,0:0:0:0:
36,192,203806,1,4,0:0:0:0:
109,192,203806,1,4,0:0:0:0:
182,192,203806,1,4,0:0:0:0:
329,192,204441,1,4,0:0:0:0:
402,192,204441,1,4,0:0:0:0:
475,192,204441,1,0,0:0:0:0:
36,192,205076,1,4,0:0:0:0:
109,192,205076,1,4,0:0:0:0:
182,192,205076,1,0,0:0:0:0:
329,192,205711,1,4,0:0:0:0:
402,192,205711,1,4,0:0:0:0:
475,192,205711,1,0,0:0:0:0:
36,192,206346,1,4,0:0:0:0:
256,192,206663,1,0,0:0:0:0:
475,192,206981,1,8,0:0:0:0:
402,192,207616,1,8,0:0:0:0:
329,192,208251,1,8,0:0:0:0:
36,192,208885,128,4,210155:0:0:0:0:
109,192,210155,128,0,210473:0:0:0:0:
182,192,210473,128,0,210790:0:0:0:0:
329,192,210790,128,0,211108:0:0:0:0:
402,192,211108,128,0,211425:0:0:0:0:
475,192,211425,128,4,212378:0:0:0:0:
475,192,212695,128,0,213012:0:0:0:0:
402,192,213012,128,0,213330:0:0:0:0:
329,192,213330,128,0,213647:0:0:0:0:
182,192,213647,128,0,213965:0:0:0:0:
109,192,213965,128,4,215235:0:0:0:0:
182,192,215235,128,0,215552:0:0:0:0:
329,192,215552,128,0,215870:0:0:0:0:
402,192,215870,128,0,216187:0:0:0:0:
475,192,216187,128,0,216505:0:0:0:0:
256,192,216187,128,0,221584:0:0:0:0:
36,192,219044,128,0,220314:0:0:0:0:
475,192,219044,128,0,220314:0:0:0:0:
36,192,221584,1,4,0:0:0:0:
475,192,222060,1,0,0:0:0:0:
36,192,222536,1,0,0:0:0:0:
475,192,223012,1,0,0:0:0:0:
182,192,223489,1,8,0:0:0:0:
256,192,223647,1,0,0:0:0:0:
329,192,223806,1,0,0:0:0:0:
36,192,224124,1,4,0:0:0:0:
402,192,224441,1,0,0:0:0:0:
109,192,224758,1,8,0:0:0:0:
475,192,225076,1,0,0:0:0:0:
182,192,225393,1,8,0:0:0:0:
329,192,225711,1,0,0:0:0:0:
36,192,226028,1,8,0:0:0:0:
256,192,226187,1,0,0:0:0:0:
475,192,226346,1,0,0:0:0:0:
36,192,226663,1,4,0:0:0:0:
475,192,226981,1,8,0:0:0:0:
36,192,227298,1,8,0:0:0:0:
475,192,227616,1,8,0:0:0:0:
36,192,227933,1,8,0:0:0:0:
475,192,228251,1,8,0:0:0:0:
36,192,228568,1,8,0:0:0:0:
182,192,228727,1,0,0:0:0:0:
256,192,228885,1,8,0:0:0:0:
475,192,229203,1,4,0:0:0:0:
329,192,229362,1,0,0:0:0:0:
256,192,229520,1,8,0:0:0:0:
36,192,229838,1,8,0:0:0:0:
109,192,229997,1,0,0:0:0:0:
182,192,230155,1,8,0:0:0:0:
256,192,230314,1,0,0:0:0:0:
329,192,230631,1,0,0:0:0:0:
475,192,230790,1,0,0:0:0:0:
109,192,231108,1,0,0:0:0:0:
402,192,231266,1,0,0:0:0:0:
256,192,231425,1,0,0:0:0:0:
