osu file format v7

[General]
AudioFilename: 05-paramore-when_it_rains.mp3
AudioLeadIn: 0
PreviewTime: 61712
Countdown: 0
SampleSet: Normal
StackLeniency: 0.7
Mode: 0
LetterboxInBreaks: 1

[Editor]
DistanceSpacing: 0.850000023841858
BeatDivisor: 2
GridSize: 8

[Metadata]
Title:When It Rains
Artist:Paramore
Creator:0_o
Version:Normal
Source:
Tags:Riot!

[Difficulty]
HPDrainRate:3
CircleSize:4
OverallDifficulty:3
SliderMultiplier:1.4
SliderTickRate:1

[Events]
//Background and Video events
0,0,"rainy_day_hd_widescreen_wallpapers_1280x800.jpeg"
//Break Periods
2,24989,26939
2,78322,84374
2,168579,173092
//Storyboard Layer 0 (Background)
//Storyboard Layer 1 (Fail)
//Storyboard Layer 2 (Pass)
//Storyboard Layer 3 (Foreground)
//Storyboard Sound Samples
//Background Colour Transformations
3,100,163,162,255

[TimingPoints]
8379.06678141923,512.820512820513,4,1,0,70,1,0
27866,-100,4,2,0,70,0,0
59661,-100,4,1,0,70,0,0
85302,-100,4,1,1,56,0,0
117097,-100,4,1,0,70,0,0
166327,-100,4,2,0,39,0,0
174020,-100,4,1,0,71,0,0

[Colours]
Combo1 : 0,128,128
Combo2 : 128,0,0
Combo3 : 0,128,192
Combo4 : 128,0,64

[HitObjects]
184,64,7353,1,0
256,64,7609,1,0
328,64,7866,1,8
440,120,8379,6,0,B|496:192|464:256,1,140,4|0
396,270,9148,2,0,B|309:272|267:357|267:357|271:351,1,140
133,358,10173,1,0
133,358,10430,2,0,B|46:342|11:267|11:267|14:262,1,140
49,216,11199,2,0,B|179:206|225:98|225:98,1,210,0|8
290,237,12481,6,0,B|317:326|414:342|417:340|422:338,1,140,4|0
459,336,13250,1,0
509,198,13763,1,0
398,101,14276,2,0,B|340:60|259:89|259:89,2,140
471,309,16071,1,8
331,355,16584,6,0,B|240:327|220:258|220:258|220:260,1,140,4|0
181,211,17353,2,0,B|275:186|300:112|300:112,1,140
169,47,18379,1,0
169,47,18635,2,0,B|75:55|43:138|43:138,1,140
85,184,19404,2,0,B|149:180|219:247|202:331,1,210,0|8
57,329,20686,5,4
2,192,21199,1,8
58,56,21712,1,4
180,137,22225,1,0
188,206,22481,2,0,B|256:254|323:204|323:204,2,140
255,66,24020,5,0
255,66,24276,1,0
256,200,24789,1,4
53,65,28379,5,2
53,65,28891,2,0,B|72:166|155:143|236:120|275:214,1,280,4|0
327,309,30430,1,0
373,345,30686,2,0,B|459:328|500:255|494:178|494:178,1,210,0|8
443,77,31968,6,0,B|385:39|307:71|307:71|313:71,1,140,2|0
282,123,32738,2,0,B|225:173|140:120|140:120,1,140,4|0
41,78,33763,1,0
11,193,34276,2,0,B|102:149|110:284|268:234|268:234,1,210,2|0
324,211,35558,1,8
412,131,36071,6,0,B|508:170|500:250|500:250,1,140,2|0
490,290,36840,2,0,B|366:268|280:359|280:359,1,210,4|0
177,370,38122,1,0
60,343,38635,1,2
60,343,38891,2,0,B|100:268|-25:236|36:144|36:144,1,210,0|8
100,44,40173,6,0,B|148:128|240:112|240:112,1,140,4|0
270,91,40943,1,4
386,112,41455,1,0
454,209,41968,1,0
456,328,42481,2,0,B|360:372|292:300|294:213|296:213,1,210,2|0
257,129,43763,1,8
178,39,44276,6,0,B|37:94|55:264|55:264,1,210,2|4
136,288,45558,1,0
192,312,45814,1,8
248,296,46071,1,0
280,248,46327,2,4,B|359:173|393:313|481:231|481:231,2,210,2|4|8
192,328,48379,6,0,B|99:324|37:215|37:215,1,140,2|0
194,218,49404,2,0,B|337:215|349:363|349:363,1,210,4|4
467,208,50943,1,8
318,218,51455,6,0,B|175:215|163:363|163:363,1,210,2|2
32,224,52994,5,0
32,224,53250,2,0,B|-16:144|32:48,2,140,4|0|0
128,288,54789,1,0
179,258,55045,1,0
225,220,55302,1,2
158,54,56071,5,0
158,54,56328,2,4,B|242:-13|276:156|390:38|390:38,1,210,4|0
432,160,57609,1,4
256,208,58379,1,4
80,160,59148,1,4
219,79,59917,5,0
292,80,60173,1,0
377,199,60686,1,0
236,241,61199,1,8
320,344,61712,6,0,B|456:368|504:240|504:240,2,210,4|2|0
200,328,63763,1,4
160,216,64276,1,8
56,264,64789,2,2,B|16:176|112:120|112:120,1,140,2|2
176,56,65814,5,4
264,216,66584,2,2,B|352:240|456:224|488:152|504:96|504:96,1,280,2|4
400,40,68122,1,8
400,40,68379,1,0
320,128,68891,1,4
200,128,69404,1,4
136,32,69917,6,0,B|-8:48|-32:176|-32:176,2,210,4|2|0
240,88,71968,1,4
192,200,72481,2,2,B|256:256|336:192|336:192,2,140,10|2|2
120,104,74020,5,4
280,176,74789,1,8
184,248,75302,1,0
256,344,75814,1,4
256,192,76327,12,4,78122
433,78,85814,5,0
433,78,86327,2,0,B|356:188|284:112|284:112,1,140,4|0
208,56,87353,1,0
80,88,87866,1,0
24,133,88122,2,0,B|-24:205|24:269|24:269,1,140
75,309,88891,1,8
198,359,89404,6,2,B|316:373|390:273|390:273,1,210,2|4
472,181,90686,1,0
414,60,91199,1,0
317,151,91712,2,2,B|258:239|176:233|116:177|116:177,1,210,2|4
43,93,92994,1,8
164,30,93507,6,2,B|285:83|233:224|233:224,1,210,2|4
109,170,94789,1,0
109,170,95045,1,8
28,276,95558,1,0
143,341,96071,1,0
181,279,96327,2,0,B|268:235|308:328|401:274|401:274|400:271,1,210,0|8
488,360,97609,6,2,B|513:252|384:272|448:160|448:160,1,210,2|4
486,39,98891,1,0
357,74,99404,1,0
313,199,99917,2,2,B|209:284|113:191|113:191,1,210,2|4
64,76,101199,1,8
207,42,101712,6,0,B|266:19|329:51|329:51,2,105,0|0|4
80,83,102994,1,0
33,134,103250,1,8
19,202,103507,1,0
38,272,103763,2,0,B|53:340|141:339|141:339,1,105,0|2
210,353,104532,2,0,B|297:358|348:292,1,140,4|0
472,240,105558,5,0
472,240,105814,2,0,B|392:230|368:138|368:138,1,140,2|0
273,56,106840,2,0,B|222:180|80:120,1,210,4|4
70,346,108379,1,8
193,267,108891,2,0,B|244:391|386:331,1,210,0|0
501,147,110430,5,0
461,83,110686,2,0,B|360:33|332:113|268:169|196:101|196:101,1,280,4|4
9,40,112481,1,8
9,40,112738,1,6
58,233,113507,5,0
110,279,113763,2,2,B|165:332|256:339|316:275|316:275,1,210
256,192,115045,12,0,116840
328,155,118122,5,0
184,155,118635,1,8
87,63,119148,6,0,B|0:110|24:222|88:230|88:230,2,210,4|2|0
200,128,121199,1,4
312,56,121712,1,8
440,96,122225,2,2,B|504:136|488:232|488:232,1,140
424,336,123250,5,4
288,184,124020,2,2,B|192:184|192:280|192:360|88:360|88:360,1,280,2|4
80,224,125558,1,8
80,224,125814,1,0
184,144,126327,1,4
320,144,126840,1,4
440,208,127353,6,0,B|527:255|503:367|439:375|439:375,2,210,4|2|0
336,288,129404,1,4
320,152,129917,2,2,B|256:96|187:154|187:154,2,140,10|2|2
256,264,131455,5,4
184,80,132225,1,8
312,56,132738,1,0
256,176,133250,1,4
320,312,133763,5,0
256,344,134020,1,0
192,312,134276,1,0
150,251,134532,2,0,B|46:251|46:251,2,70,0|8|8
183,107,135558,6,0,B|127:24|54:120|-6:18|-6:18,2,210
329,107,137609,2,0,B|389:30|458:120|518:18|518:18,2,210
443,199,139661,1,4
385,336,140173,5,0
328,289,140430,2,0,B|159:289|159:289,1,140
130,334,141199,1,0
104,189,141712,6,0,B|154:110|239:102|239:102,1,140
298,107,142481,2,0,B|273:102|358:110|408:189,1,140,0|8
360,241,143250,1,8
303,376,143763,6,0,B|416:371|472:351|506:249|506:249,2,210
213,258,145814,2,0,B|100:253|44:233|10:131|10:131,2,210
258,117,147866,1,4
388,49,148379,5,0
452,83,148635,2,0,B|512:149|449:219|449:219,1,140
386,238,149404,1,0
256,167,149917,5,0
110,146,150430,1,0
46,180,150686,2,0,B|-14:246|49:316|49:316,1,140
112,335,151455,1,0
256,360,151968,5,4
345,243,152481,1,8
255,129,152994,2,0,B|204:86|141:136|141:136,2,105
217,192,154020,2,2,B|284:256|346:193|346:193,1,140,2|0
382,133,154789,2,0,B|407:44|299:15|299:15,1,140,4|0
172,29,155814,5,6
343,168,156584,1,0
310,311,157097,2,0,B|361:354|424:304|424:304,2,105
258,258,158122,2,2,B|246:209|198:209,2,70,2|2|0
220,321,158891,2,0,B|159:367|75:313|75:313,1,140,4|0
29,184,159917,5,6
186,29,160686,1,0
204,174,161199,2,0,B|257:136|320:183|320:183,2,105
160,232,162225,2,0,B|216:288|296:288|352:232|352:232,2,210,4|4|0
256,192,164276,12,4,168379
144,344,174532,5,4
352,264,175302,1,4
256,64,176071,1,8
112,40,176584,6,0,B|32:64|16:144|16:144,1,140,4|0
48,208,177353,2,2,B|168:184|240:320,1,210,2|2
360,352,178635,1,4
456,240,179148,1,8
408,184,179404,1,0
368,120,179661,2,2,B|392:40|480:32|480:32,2,140,2|2|4
480,312,181455,6,2,B|392:256|352:368|272:304|272:304,1,210
136,264,182738,1,4
64,136,183250,1,8
120,88,183507,1,0
176,40,183763,1,4
256,160,184276,1,4
336,288,184789,6,0,B|400:352|472:288|472:288,1,140,4|8
488,224,185558,2,2,B|392:216|352:160|344:88|344:88,1,210
480,40,186840,1,4
422,175,187353,1,8
387,239,187609,1,0
330,286,187866,2,2,B|259:336|159:268|159:268,1,140
71,210,188891,6,0,B|-4:160|28:68|28:68,1,140,4|0
79,39,189661,2,2,B|137:110|250:77|250:77,1,140
348,47,190686,2,0,B|432:59|479:141|479:141,1,140,4|8
475,192,191455,1,0
459,263,191712,1,0
403,311,191968,1,4
260,347,192481,1,4
115,318,192994,6,0,B|40:280|10:192,1,140,4|0
43,148,193763,2,2,B|168:202|246:80|246:80,1,210,2|2
102,28,195045,1,4
155,164,195558,1,8
218,201,195814,1,0
291,201,196071,1,0
355,166,196327,1,2
376,311,196840,5,0
376,311,197097,1,4
183,203,197866,1,4
326,171,198379,1,0
258,40,198891,1,4
256,192,199404,12,4,201199
