osu file format v14

[General]
AudioFilename: Paramore - Still Into You.mp3
AudioLeadIn: 0
PreviewTime: 45039
Countdown: 0
SampleSet: Normal
StackLeniency: 0.7
Mode: 3
LetterboxInBreaks: 0
SpecialStyle: 0
WidescreenStoryboard: 1

[Editor]
Bookmarks: 125333
DistanceSpacing: 0.6
BeatDivisor: 4
GridSize: 16
TimelineZoom: 1.4

[Metadata]
Title:Still Into You
TitleUnicode:Still Into You
Artist:Paramore
ArtistUnicode:Paramore
Creator:eJang
Version:MX
Source:
Tags:DrawdeX Rock Alternative Frim4503
BeatmapID:676511
BeatmapSetID:299734

[Difficulty]
HPDrainRate:7
CircleSize:4
OverallDifficulty:7
ApproachRate:6
SliderMultiplier:1.59999990463257
SliderTickRate:2

[Events]
//Background and Video events
0,0,"paramore_anime.jpg",0,0
//Break Periods
//Storyboard Layer 0 (Background)
//Storyboard Layer 1 (Fail)
//Storyboard Layer 2 (Pass)
//Storyboard Layer 3 (Foreground)
//Storyboard Sound Samples

[TimingPoints]
11510,441.176470588235,4,1,0,10,1,0
16102,-133.333333333333,4,1,0,10,0,0
16323,-100,4,1,0,10,0,0
23161,-133.333333333333,4,1,0,10,0,0
23382,-100,4,1,0,10,0,0
30220,-133.333333333333,4,1,0,10,0,0
30441,-100,4,1,0,10,0,0
37279,-133.333333333333,4,1,0,10,0,0
37499,-100,4,1,0,10,0,0
39705,-133.333333333333,4,1,0,10,0,0
45220,-100,4,1,0,10,0,0
45701,-100,4,1,0,100,0,1
71470,-133.333333333333,4,1,0,100,0,1
71509,-100,4,1,0,100,0,0
83161,-133.333333333333,4,1,0,100,0,0
83382,-100,4,1,0,100,0,0
90220,-133.333333333333,4,1,0,100,0,0
90441,-100,4,1,0,100,0,0
97279,-133.333333333333,4,1,0,100,0,0
97499,-100,4,1,0,100,0,0
104338,-133.333333333333,4,1,0,100,0,0
104558,-100,4,1,0,100,0,0
106764,-133.333333333333,4,1,0,100,0,0
110294,-117.647058823529,4,1,0,100,0,0
112318,-100,4,1,0,100,0,1
112318,-100,4,1,0,100,0,0
138568,-100,4,1,0,100,0,0
166764,-133.333333333333,4,1,0,100,0,0
177352,-90.9090909090909,4,1,0,100,0,0
179117,-100,4,1,0,100,0,0
180921,-100,4,1,0,100,0,1
209117,-80,4,1,0,100,0,1
212647,-200,4,1,0,100,0,1
213127,-200,4,1,0,100,0,0

[HitObjects]
64,192,2686,128,0,10958:0:0:0:0:
192,192,4451,128,0,10958:0:0:0:0:
320,192,9304,128,0,10958:0:0:0:0:
448,192,10186,128,0,10958:0:0:0:0:
448,192,11068,1,0,0:0:0:0:
320,192,11068,1,0,0:0:0:0:
192,192,11068,1,0,0:0:0:0:
64,192,11068,1,0,0:0:0:0:
448,192,11510,1,0,0:0:0:0:
320,192,11510,1,0,0:0:0:0:
192,192,11510,1,0,0:0:0:0:
64,192,11510,1,0,0:0:0:0:
448,192,11730,1,0,0:0:0:0:
64,192,11730,1,0,0:0:0:0:
320,192,11840,1,0,0:0:0:0:
448,192,11951,1,0,0:0:0:0:
192,192,11951,1,0,0:0:0:0:
64,192,11951,1,0,0:0:0:0:
192,192,12171,128,0,12392:0:0:0:0:
448,192,12171,1,0,0:0:0:0:
320,192,12282,1,0,0:0:0:0:
64,192,12392,128,0,12612:0:0:0:0:
448,192,12392,1,0,0:0:0:0:
192,192,12612,128,0,12833:0:0:0:0:
320,192,12612,1,0,0:0:0:0:
448,192,12612,1,0,0:0:0:0:
64,192,12833,1,0,0:0:0:0:
448,192,13054,1,0,0:0:0:0:
320,192,13054,1,0,0:0:0:0:
320,192,13274,1,0,0:0:0:0:
192,192,13274,1,0,0:0:0:0:
64,192,13495,1,0,0:0:0:0:
448,192,13495,1,0,0:0:0:0:
192,192,13605,1,0,0:0:0:0:
448,192,13715,1,0,0:0:0:0:
320,192,13715,1,0,0:0:0:0:
64,192,13715,1,0,0:0:0:0:
448,192,13936,128,0,14157:0:0:0:0:
192,192,13936,1,0,0:0:0:0:
320,192,14157,128,0,14377:0:0:0:0:
192,192,14377,128,0,14598:0:0:0:0:
64,192,14598,128,0,14818:0:0:0:0:
448,192,14598,1,0,0:0:0:0:
192,192,14818,1,0,0:0:0:0:
320,192,15039,1,0,0:0:0:0:
64,192,15260,1,0,0:0:0:0:
448,192,15260,1,0,0:0:0:0:
320,192,15370,1,0,0:0:0:0:
64,192,15480,1,0,0:0:0:0:
192,192,15480,1,0,0:0:0:0:
448,192,15480,1,0,0:0:0:0:
320,192,15701,128,0,15921:0:0:0:0:
64,192,15701,1,0,0:0:0:0:
448,192,15921,128,0,16142:0:0:0:0:
320,192,16142,128,0,16362:0:0:0:0:
64,192,16142,1,0,0:0:0:0:
192,192,16142,1,0,0:0:0:0:
192,192,16362,1,0,0:0:0:0:
64,192,16362,1,0,0:0:0:0:
192,192,16583,1,0,0:0:0:0:
320,192,16583,1,0,0:0:0:0:
448,192,16804,1,0,0:0:0:0:
192,192,16804,1,0,0:0:0:0:
64,192,17024,1,0,0:0:0:0:
448,192,17024,1,0,0:0:0:0:
192,192,17135,1,0,0:0:0:0:
320,192,17245,1,0,0:0:0:0:
448,192,17245,1,0,0:0:0:0:
64,192,17245,1,0,0:0:0:0:
192,192,17465,128,0,17686:0:0:0:0:
448,192,17465,1,0,0:0:0:0:
320,192,17686,128,0,17907:0:0:0:0:
448,192,17907,128,0,18127:0:0:0:0:
64,192,18127,1,0,0:0:0:0:
320,192,18127,128,0,18348:0:0:0:0:
192,192,18348,128,0,18568:0:0:0:0:
320,192,18568,1,0,0:0:0:0:
64,192,18789,1,0,0:0:0:0:
448,192,18789,1,0,0:0:0:0:
192,192,18899,1,0,0:0:0:0:
64,192,19010,1,0,0:0:0:0:
448,192,19010,1,0,0:0:0:0:
320,192,19010,1,0,0:0:0:0:
320,192,19230,128,0,19451:0:0:0:0:
64,192,19230,1,0,0:0:0:0:
192,192,19451,128,0,19671:0:0:0:0:
64,192,19671,128,0,19892:0:0:0:0:
192,192,19892,1,0,0:0:0:0:
448,192,19892,1,0,0:0:0:0:
64,192,20112,1,0,0:0:0:0:
192,192,20112,1,0,0:0:0:0:
448,192,20333,1,0,0:0:0:0:
320,192,20333,1,0,0:0:0:0:
64,192,20554,1,0,0:0:0:0:
448,192,20554,1,0,0:0:0:0:
320,192,20664,1,0,0:0:0:0:
192,192,20774,1,0,0:0:0:0:
64,192,20774,1,0,0:0:0:0:
448,192,20774,1,0,0:0:0:0:
320,192,20995,128,0,21215:0:0:0:0:
64,192,20995,1,0,0:0:0:0:
192,192,21215,128,0,21436:0:0:0:0:
64,192,21436,128,0,21657:0:0:0:0:
192,192,21657,128,0,21877:0:0:0:0:
448,192,21657,1,0,0:0:0:0:
320,192,21877,1,0,0:0:0:0:
448,192,22098,1,0,0:0:0:0:
64,192,22098,1,0,0:0:0:0:
64,192,22318,1,0,0:0:0:0:
448,192,22318,1,0,0:0:0:0:
192,192,22429,1,0,0:0:0:0:
448,192,22539,1,0,0:0:0:0:
320,192,22539,1,0,0:0:0:0:
64,192,22539,1,0,0:0:0:0:
192,192,22759,128,0,22980:0:0:0:0:
448,192,22759,1,0,0:0:0:0:
64,192,22980,128,0,23201:0:0:0:0:
448,192,23201,1,0,0:0:0:0:
192,192,23201,1,0,0:0:0:0:
64,192,23421,1,0,0:0:0:0:
448,192,23421,1,0,0:0:0:0:
192,192,23642,1,0,0:0:0:0:
320,192,23642,1,0,0:0:0:0:
192,192,23862,1,0,0:0:0:0:
448,192,23862,1,0,0:0:0:0:
448,192,24083,1,0,0:0:0:0:
64,192,24083,1,0,0:0:0:0:
320,192,24193,1,0,0:0:0:0:
192,192,24304,1,0,0:0:0:0:
64,192,24304,1,0,0:0:0:0:
448,192,24304,1,0,0:0:0:0:
448,192,24524,128,0,24745:0:0:0:0:
192,192,24524,1,0,0:0:0:0:
320,192,24745,128,0,24965:0:0:0:0:
448,192,24965,1,0,0:0:0:0:
192,192,24965,128,0,25186:0:0:0:0:
64,192,25186,128,0,25407:0:0:0:0:
448,192,25186,1,0,0:0:0:0:
320,192,25407,1,0,0:0:0:0:
192,192,25407,1,0,0:0:0:0:
320,192,25627,1,0,0:0:0:0:
192,192,25627,1,0,0:0:0:0:
64,192,25848,1,0,0:0:0:0:
448,192,25848,1,0,0:0:0:0:
192,192,25958,1,0,0:0:0:0:
448,192,26068,1,0,0:0:0:0:
320,192,26068,1,0,0:0:0:0:
64,192,26068,1,0,0:0:0:0:
320,192,26289,128,0,26509:0:0:0:0:
64,192,26289,1,0,0:0:0:0:
192,192,26509,128,0,26730:0:0:0:0:
64,192,26730,128,0,26951:0:0:0:0:
192,192,26951,1,0,0:0:0:0:
448,192,26951,1,0,0:0:0:0:
64,192,27171,1,0,0:0:0:0:
192,192,27171,1,0,0:0:0:0:
320,192,27392,1,0,0:0:0:0:
64,192,27392,1,0,0:0:0:0:
64,192,27612,1,0,0:0:0:0:
448,192,27612,1,0,0:0:0:0:
192,192,27723,1,0,0:0:0:0:
448,192,27833,1,0,0:0:0:0:
320,192,27833,1,0,0:0:0:0:
64,192,27833,1,0,0:0:0:0:
192,192,28054,128,0,28274:0:0:0:0:
448,192,28054,1,0,0:0:0:0:
64,192,28274,128,0,28495:0:0:0:0:
192,192,28495,128,0,28715:0:0:0:0:
448,192,28715,1,0,0:0:0:0:
320,192,28715,1,0,0:0:0:0:
448,192,28936,1,0,0:0:0:0:
320,192,28936,1,0,0:0:0:0:
320,192,29157,1,0,0:0:0:0:
64,192,29157,1,0,0:0:0:0:
448,192,29377,1,0,0:0:0:0:
64,192,29377,1,0,0:0:0:0:
320,192,29487,1,0,0:0:0:0:
64,192,29598,1,0,0:0:0:0:
192,192,29598,1,0,0:0:0:0:
448,192,29598,1,0,0:0:0:0:
448,192,29818,128,0,30039:0:0:0:0:
192,192,29818,1,0,0:0:0:0:
320,192,30039,1,0,0:0:0:0:
320,192,30259,1,0,0:0:0:0:
448,192,30480,1,0,0:0:0:0:
64,192,30480,1,0,0:0:0:0:
192,192,30480,1,0,0:0:0:0:
64,192,30701,1,0,0:0:0:0:
320,192,30701,1,0,0:0:0:0:
192,192,30921,1,0,0:0:0:0:
320,192,30921,1,0,0:0:0:0:
448,192,31142,1,0,0:0:0:0:
64,192,31142,1,0,0:0:0:0:
320,192,31252,1,0,0:0:0:0:
192,192,31362,1,0,0:0:0:0:
64,192,31362,1,0,0:0:0:0:
448,192,31362,1,0,0:0:0:0:
320,192,31583,128,0,31804:0:0:0:0:
64,192,31583,1,0,0:0:0:0:
448,192,31804,128,0,32024:0:0:0:0:
320,192,32024,128,0,32245:0:0:0:0:
448,192,32245,1,0,0:0:0:0:
192,192,32245,128,0,32465:0:0:0:0:
64,192,32465,128,0,32686:0:0:0:0:
192,192,32686,1,0,0:0:0:0:
448,192,32907,1,0,0:0:0:0:
64,192,32907,1,0,0:0:0:0:
320,192,33017,1,0,0:0:0:0:
192,192,33127,1,0,0:0:0:0:
64,192,33127,1,0,0:0:0:0:
448,192,33127,1,0,0:0:0:0:
320,192,33348,128,0,33568:0:0:0:0:
448,192,33348,1,0,0:0:0:0:
448,192,33568,128,0,33789:0:0:0:0:
320,192,33789,128,0,34009:0:0:0:0:
192,192,33789,1,0,0:0:0:0:
192,192,34009,1,0,0:0:0:0:
64,192,34009,1,0,0:0:0:0:
192,192,34230,1,0,0:0:0:0:
448,192,34230,1,0,0:0:0:0:
64,192,34451,1,0,0:0:0:0:
448,192,34451,1,0,0:0:0:0:
64,192,34671,1,0,0:0:0:0:
448,192,34671,1,0,0:0:0:0:
192,192,34782,1,0,0:0:0:0:
320,192,34892,1,0,0:0:0:0:
448,192,34892,1,0,0:0:0:0:
64,192,34892,1,0,0:0:0:0:
64,192,35112,128,0,35333:0:0:0:0:
192,192,35112,1,0,0:0:0:0:
320,192,35333,128,0,35554:0:0:0:0:
448,192,35333,1,0,0:0:0:0:
192,192,35554,128,0,35774:0:0:0:0:
64,192,35774,128,0,35995:0:0:0:0:
448,192,35774,1,0,0:0:0:0:
192,192,35995,1,0,0:0:0:0:
320,192,36215,1,0,0:0:0:0:
192,192,36215,1,0,0:0:0:0:
448,192,36436,1,0,0:0:0:0:
320,192,36436,1,0,0:0:0:0:
192,192,36546,1,0,0:0:0:0:
320,192,36657,1,0,0:0:0:0:
448,192,36657,1,0,0:0:0:0:
64,192,36657,1,0,0:0:0:0:
192,192,36877,128,0,37098:0:0:0:0:
448,192,36877,1,0,0:0:0:0:
64,192,37098,128,0,37318:0:0:0:0:
192,192,37318,128,0,37539:0:0:0:0:
448,192,37318,1,0,0:0:0:0:
320,192,37318,1,0,0:0:0:0:
320,192,37539,1,0,0:0:0:0:
448,192,37539,1,0,0:0:0:0:
64,192,37759,1,0,0:0:0:0:
320,192,37759,1,0,0:0:0:0:
448,192,37980,1,0,0:0:0:0:
448,192,38201,1,0,0:0:0:0:
192,192,38201,1,0,0:0:0:0:
192,192,38311,1,0,0:0:0:0:
320,192,38421,1,0,0:0:0:0:
448,192,38421,1,0,0:0:0:0:
64,192,38421,1,0,0:0:0:0:
192,192,38642,1,0,0:0:0:0:
448,192,38862,128,0,39304:0:0:0:0:
192,192,38862,1,0,0:0:0:0:
320,192,39083,1,0,0:0:0:0:
64,192,39083,1,0,0:0:0:0:
192,192,39304,1,0,0:0:0:0:
320,192,39304,1,0,0:0:0:0:
64,192,39524,1,0,0:0:0:0:
192,192,39524,1,0,0:0:0:0:
448,192,39745,1,0,0:0:0:0:
64,192,39745,128,0,40407:0:0:0:0:
448,192,39965,1,0,0:0:0:0:
448,192,40186,1,0,0:0:0:0:
448,192,40407,1,0,0:0:0:0:
448,192,40627,1,0,0:0:0:0:
448,192,40848,1,0,0:0:0:0:
448,192,41068,1,0,0:0:0:0:
448,192,41289,1,0,0:0:0:0:
192,192,41509,128,0,43274:0:0:0:0:
64,192,41509,1,0,0:0:0:0:
64,192,41730,1,0,0:0:0:0:
64,192,41951,1,0,0:0:0:0:
64,192,42171,1,0,0:0:0:0:
64,192,42392,1,0,0:0:0:0:
64,192,42612,1,0,0:0:0:0:
64,192,42833,1,0,0:0:0:0:
64,192,43054,1,0,0:0:0:0:
320,192,43274,1,0,0:0:0:0:
64,192,43274,128,0,45039:0:0:0:0:
320,192,43495,1,0,0:0:0:0:
320,192,43715,1,0,0:0:0:0:
320,192,43936,1,0,0:0:0:0:
320,192,44157,1,0,0:0:0:0:
320,192,44377,1,0,0:0:0:0:
320,192,44598,1,0,0:0:0:0:
320,192,44818,1,0,0:0:0:0:
320,192,45039,1,0,0:0:0:0:
192,192,45259,1,0,0:0:0:0:
64,192,45259,1,0,0:0:0:0:
448,192,45370,1,0,0:0:0:0:
320,192,45370,1,0,0:0:0:0:
192,192,45480,1,0,0:0:0:0:
64,192,45480,1,0,0:0:0:0:
192,192,45701,1,0,0:0:0:0:
320,192,45701,1,0,0:0:0:0:
64,192,45921,1,0,0:0:0:0:
192,192,45921,1,0,0:0:0:0:
320,192,46032,1,0,0:0:0:0:
448,192,46032,1,0,0:0:0:0:
192,192,46142,1,0,0:0:0:0:
64,192,46142,1,0,0:0:0:0:
192,192,46362,1,0,0:0:0:0:
448,192,46362,1,0,0:0:0:0:
320,192,46473,1,0,0:0:0:0:
448,192,46583,1,0,0:0:0:0:
192,192,46583,1,0,0:0:0:0:
64,192,46693,1,0,0:0:0:0:
320,192,46804,1,0,0:0:0:0:
448,192,46804,1,0,0:0:0:0:
192,192,46804,1,0,0:0:0:0:
64,192,47024,1,0,0:0:0:0:
192,192,47024,1,0,0:0:0:0:
448,192,47245,1,0,0:0:0:0:
320,192,47245,1,0,0:0:0:0:
192,192,47245,1,0,0:0:0:0:
448,192,47465,1,0,0:0:0:0:
320,192,47465,1,0,0:0:0:0:
64,192,47686,1,0,0:0:0:0:
192,192,47686,1,0,0:0:0:0:
320,192,47686,1,0,0:0:0:0:
192,192,47907,1,0,0:0:0:0:
320,192,47907,1,0,0:0:0:0:
320,192,48127,1,0,0:0:0:0:
192,192,48127,1,0,0:0:0:0:
448,192,48127,1,0,0:0:0:0:
64,192,48348,1,0,0:0:0:0:
320,192,48348,1,0,0:0:0:0:
64,192,48568,1,0,0:0:0:0:
448,192,48568,1,0,0:0:0:0:
192,192,48568,1,0,0:0:0:0:
320,192,48789,1,0,0:0:0:0:
192,192,48789,1,0,0:0:0:0:
448,192,49009,1,0,0:0:0:0:
64,192,49009,1,0,0:0:0:0:
320,192,49009,1,0,0:0:0:0:
192,192,49230,1,0,0:0:0:0:
448,192,49230,1,0,0:0:0:0:
320,192,49451,1,0,0:0:0:0:
448,192,49451,1,0,0:0:0:0:
64,192,49451,1,0,0:0:0:0:
192,192,49671,1,0,0:0:0:0:
320,192,49671,1,0,0:0:0:0:
64,192,49892,1,0,0:0:0:0:
448,192,49892,1,0,0:0:0:0:
320,192,49892,1,0,0:0:0:0:
448,192,50112,1,0,0:0:0:0:
320,192,50112,1,0,0:0:0:0:
64,192,50333,1,0,0:0:0:0:
192,192,50333,1,0,0:0:0:0:
320,192,50333,1,0,0:0:0:0:
64,192,50554,1,0,0:0:0:0:
192,192,50554,1,0,0:0:0:0:
64,192,50774,1,0,0:0:0:0:
320,192,50774,1,0,0:0:0:0:
448,192,50774,1,0,0:0:0:0:
448,192,50995,1,0,0:0:0:0:
64,192,50995,1,0,0:0:0:0:
320,192,51215,1,0,0:0:0:0:
192,192,51215,1,0,0:0:0:0:
64,192,51215,1,0,0:0:0:0:
320,192,51436,1,0,0:0:0:0:
192,192,51436,1,0,0:0:0:0:
448,192,51657,1,0,0:0:0:0:
64,192,51657,1,0,0:0:0:0:
320,192,51657,1,0,0:0:0:0:
192,192,51877,1,0,0:0:0:0:
320,192,51877,1,0,0:0:0:0:
448,192,52098,1,0,0:0:0:0:
192,192,52098,1,0,0:0:0:0:
320,192,52208,1,0,0:0:0:0:
192,192,52318,128,0,52539:0:0:0:0:
448,192,52318,1,0,0:0:0:0:
64,192,52539,128,0,52980:0:0:0:0:
448,192,52539,1,0,0:0:0:0:
320,192,52759,1,0,0:0:0:0:
448,192,52759,1,0,0:0:0:0:
192,192,52980,128,0,53421:0:0:0:0:
448,192,52980,1,0,0:0:0:0:
64,192,53201,1,0,0:0:0:0:
448,192,53201,1,0,0:0:0:0:
320,192,53311,1,0,0:0:0:0:
448,192,53421,1,0,0:0:0:0:
64,192,53421,1,0,0:0:0:0:
192,192,53642,1,0,0:0:0:0:
448,192,53642,1,0,0:0:0:0:
320,192,53752,1,0,0:0:0:0:
448,192,53862,1,0,0:0:0:0:
64,192,53862,1,0,0:0:0:0:
192,192,53973,1,0,0:0:0:0:
448,192,54083,1,0,0:0:0:0:
192,192,54193,1,0,0:0:0:0:
64,192,54304,1,0,0:0:0:0:
192,192,54304,1,0,0:0:0:0:
448,192,54414,1,0,0:0:0:0:
64,192,54524,1,0,0:0:0:0:
320,192,54634,1,0,0:0:0:0:
320,192,54745,1,0,0:0:0:0:
448,192,54745,1,0,0:0:0:0:
192,192,54855,1,0,0:0:0:0:
64,192,54965,1,0,0:0:0:0:
192,192,55076,1,0,0:0:0:0:
192,192,55186,1,0,0:0:0:0:
320,192,55186,1,0,0:0:0:0:
448,192,55296,1,0,0:0:0:0:
192,192,55407,1,0,0:0:0:0:
64,192,55517,1,0,0:0:0:0:
64,192,55627,1,0,0:0:0:0:
192,192,55627,1,0,0:0:0:0:
320,192,55737,1,0,0:0:0:0:
64,192,55848,1,0,0:0:0:0:
320,192,55958,1,0,0:0:0:0:
448,192,56068,1,0,0:0:0:0:
320,192,56068,1,0,0:0:0:0:
192,192,56179,1,0,0:0:0:0:
448,192,56289,1,0,0:0:0:0:
192,192,56399,1,0,0:0:0:0:
64,192,56509,1,0,0:0:0:0:
192,192,56509,1,0,0:0:0:0:
448,192,56620,1,0,0:0:0:0:
64,192,56730,1,0,0:0:0:0:
320,192,56840,1,0,0:0:0:0:
320,192,56951,1,0,0:0:0:0:
448,192,56951,1,0,0:0:0:0:
64,192,57061,1,0,0:0:0:0:
448,192,57171,1,0,0:0:0:0:
192,192,57282,1,0,0:0:0:0:
192,192,57392,1,0,0:0:0:0:
64,192,57392,1,0,0:0:0:0:
448,192,57502,1,0,0:0:0:0:
64,192,57612,1,0,0:0:0:0:
320,192,57723,1,0,0:0:0:0:
320,192,57833,1,0,0:0:0:0:
448,192,57833,1,0,0:0:0:0:
192,192,57943,1,0,0:0:0:0:
448,192,58054,1,0,0:0:0:0:
192,192,58164,1,0,0:0:0:0:
192,192,58274,1,0,0:0:0:0:
64,192,58274,1,0,0:0:0:0:
448,192,58384,1,0,0:0:0:0:
192,192,58495,1,0,0:0:0:0:
448,192,58605,1,0,0:0:0:0:
192,192,58715,1,0,0:0:0:0:
64,192,58715,1,0,0:0:0:0:
320,192,58715,1,0,0:0:0:0:
448,192,58826,1,0,0:0:0:0:
320,192,58936,1,0,0:0:0:0:
192,192,59046,1,0,0:0:0:0:
448,192,59157,1,0,0:0:0:0:
320,192,59157,1,0,0:0:0:0:
64,192,59157,1,0,0:0:0:0:
320,192,59377,1,0,0:0:0:0:
64,192,59487,1,0,0:0:0:0:
192,192,59598,1,0,0:0:0:0:
320,192,59708,1,0,0:0:0:0:
448,192,59708,1,0,0:0:0:0:
448,192,59929,1,0,0:0:0:0:
320,192,60039,1,0,0:0:0:0:
192,192,60149,1,0,0:0:0:0:
64,192,60259,1,0,0:0:0:0:
448,192,60333,1,0,0:0:0:0:
64,192,60480,1,0,0:0:0:0:
320,192,60480,1,0,0:0:0:0:
192,192,60590,1,0,0:0:0:0:
320,192,60701,1,0,0:0:0:0:
64,192,60701,1,0,0:0:0:0:
192,192,60811,1,0,0:0:0:0:
64,192,60921,1,0,0:0:0:0:
448,192,60921,1,0,0:0:0:0:
320,192,61032,1,0,0:0:0:0:
192,192,61142,1,0,0:0:0:0:
448,192,61252,1,0,0:0:0:0:
320,192,61252,1,0,0:0:0:0:
64,192,61362,1,0,0:0:0:0:
192,192,61362,1,0,0:0:0:0:
320,192,61362,1,0,0:0:0:0:
448,192,61473,1,0,0:0:0:0:
320,192,61583,1,0,0:0:0:0:
64,192,61693,1,0,0:0:0:0:
192,192,61693,1,0,0:0:0:0:
192,192,61804,1,0,0:0:0:0:
320,192,61804,1,0,0:0:0:0:
448,192,61804,1,0,0:0:0:0:
64,192,61914,1,0,0:0:0:0:
448,192,62024,1,0,0:0:0:0:
320,192,62134,1,0,0:0:0:0:
192,192,62134,1,0,0:0:0:0:
64,192,62245,1,0,0:0:0:0:
448,192,62245,1,0,0:0:0:0:
320,192,62245,1,0,0:0:0:0:
192,192,62355,1,0,0:0:0:0:
320,192,62465,1,0,0:0:0:0:
192,192,62576,1,0,0:0:0:0:
64,192,62576,1,0,0:0:0:0:
192,192,62686,1,0,0:0:0:0:
320,192,62686,1,0,0:0:0:0:
448,192,62686,1,0,0:0:0:0:
64,192,62796,1,0,0:0:0:0:
320,192,62907,1,0,0:0:0:0:
192,192,63017,1,0,0:0:0:0:
64,192,63017,1,0,0:0:0:0:
64,192,63127,1,0,0:0:0:0:
448,192,63127,1,0,0:0:0:0:
320,192,63127,1,0,0:0:0:0:
192,192,63237,1,0,0:0:0:0:
448,192,63348,1,0,0:0:0:0:
320,192,63458,1,0,0:0:0:0:
64,192,63458,1,0,0:0:0:0:
448,192,63568,1,0,0:0:0:0:
320,192,63568,1,0,0:0:0:0:
192,192,63568,1,0,0:0:0:0:
64,192,63679,1,0,0:0:0:0:
320,192,63789,1,0,0:0:0:0:
192,192,63899,1,0,0:0:0:0:
448,192,63899,1,0,0:0:0:0:
64,192,64009,1,0,0:0:0:0:
320,192,64009,1,0,0:0:0:0:
448,192,64009,1,0,0:0:0:0:
192,192,64120,1,0,0:0:0:0:
320,192,64230,1,0,0:0:0:0:
192,192,64340,1,0,0:0:0:0:
64,192,64340,1,0,0:0:0:0:
448,192,64451,1,0,0:0:0:0:
320,192,64451,1,0,0:0:0:0:
192,192,64451,1,0,0:0:0:0:
64,192,64561,1,0,0:0:0:0:
320,192,64671,1,0,0:0:0:0:
448,192,64782,1,0,0:0:0:0:
192,192,64782,1,0,0:0:0:0:
448,192,64892,1,0,0:0:0:0:
64,192,64892,1,0,0:0:0:0:
320,192,64892,1,0,0:0:0:0:
192,192,65002,1,0,0:0:0:0:
320,192,65112,1,0,0:0:0:0:
192,192,65223,1,0,0:0:0:0:
64,192,65223,1,0,0:0:0:0:
64,192,65333,1,0,0:0:0:0:
448,192,65333,1,0,0:0:0:0:
320,192,65333,1,0,0:0:0:0:
192,192,65443,1,0,0:0:0:0:
320,192,65554,1,0,0:0:0:0:
64,192,65664,1,0,0:0:0:0:
448,192,65664,1,0,0:0:0:0:
448,192,65774,1,0,0:0:0:0:
320,192,65774,1,0,0:0:0:0:
192,192,65774,1,0,0:0:0:0:
64,192,65884,1,0,0:0:0:0:
320,192,65995,1,0,0:0:0:0:
192,192,66105,1,0,0:0:0:0:
64,192,66215,1,0,0:0:0:0:
192,192,66215,1,0,0:0:0:0:
448,192,66215,1,0,0:0:0:0:
320,192,66326,1,0,0:0:0:0:
448,192,66326,1,0,0:0:0:0:
192,192,66436,1,0,0:0:0:0:
64,192,66546,1,0,0:0:0:0:
320,192,66546,1,0,0:0:0:0:
448,192,66657,1,0,0:0:0:0:
320,192,66657,1,0,0:0:0:0:
64,192,66877,1,0,0:0:0:0:
64,192,67098,1,0,0:0:0:0:
320,192,67318,1,0,0:0:0:0:
448,192,67318,1,0,0:0:0:0:
448,192,67539,1,0,0:0:0:0:
320,192,67539,1,0,0:0:0:0:
64,192,67539,1,0,0:0:0:0:
64,192,67759,1,0,0:0:0:0:
320,192,67759,1,0,0:0:0:0:
448,192,67980,1,0,0:0:0:0:
192,192,67980,1,0,0:0:0:0:
320,192,68090,1,0,0:0:0:0:
448,192,68201,1,0,0:0:0:0:
64,192,68311,1,0,0:0:0:0:
448,192,68421,1,0,0:0:0:0:
320,192,68421,1,0,0:0:0:0:
64,192,68532,1,0,0:0:0:0:
192,192,68642,1,0,0:0:0:0:
64,192,68752,1,0,0:0:0:0:
192,192,68862,1,0,0:0:0:0:
448,192,68862,1,0,0:0:0:0:
320,192,68973,1,0,0:0:0:0:
448,192,69083,1,0,0:0:0:0:
320,192,69193,1,0,0:0:0:0:
448,192,69304,1,0,0:0:0:0:
192,192,69304,1,0,0:0:0:0:
448,192,69524,1,0,0:0:0:0:
320,192,69524,1,0,0:0:0:0:
192,192,69524,1,0,0:0:0:0:
64,192,69524,1,0,0:0:0:0:
192,192,69745,128,0,70186:0:0:0:0:
320,192,69745,128,0,70186:0:0:0:0:
448,192,69745,1,0,0:0:0:0:
64,192,69745,1,0,0:0:0:0:
320,192,70627,128,0,71289:0:0:0:0:
192,192,70627,128,0,71289:0:0:0:0:
64,192,71509,1,0,0:0:0:0:
320,192,71509,1,0,0:0:0:0:
448,192,71509,1,0,0:0:0:0:
192,192,71509,1,0,0:0:0:0:
64,192,71730,1,0,0:0:0:0:
192,192,71730,1,0,0:0:0:0:
448,192,71951,1,0,0:0:0:0:
320,192,71951,1,0,0:0:0:0:
192,192,72171,128,0,72392:0:0:0:0:
64,192,72171,1,0,0:0:0:0:
64,192,72392,128,0,72612:0:0:0:0:
448,192,72392,1,0,0:0:0:0:
320,192,72502,1,0,0:0:0:0:
192,192,72612,1,0,0:0:0:0:
448,192,72833,1,0,0:0:0:0:
320,192,72833,1,0,0:0:0:0:
64,192,73054,1,0,0:0:0:0:
320,192,73164,1,0,0:0:0:0:
64,192,73274,1,0,0:0:0:0:
192,192,73274,1,0,0:0:0:0:
192,192,73495,1,0,0:0:0:0:
320,192,73495,1,0,0:0:0:0:
320,192,73715,1,0,0:0:0:0:
448,192,73715,1,0,0:0:0:0:
320,192,73936,128,0,74157:0:0:0:0:
64,192,73936,1,0,0:0:0:0:
192,192,74157,128,0,74377:0:0:0:0:
64,192,74377,128,0,74598:0:0:0:0:
192,192,74598,128,0,74818:0:0:0:0:
448,192,74598,1,0,0:0:0:0:
320,192,74818,1,0,0:0:0:0:
448,192,75039,1,0,0:0:0:0:
192,192,75259,1,0,0:0:0:0:
320,192,75370,1,0,0:0:0:0:
64,192,75480,1,0,0:0:0:0:
192,192,75480,1,0,0:0:0:0:
64,192,75701,128,0,75921:0:0:0:0:
320,192,75701,1,0,0:0:0:0:
192,192,75921,128,0,76142:0:0:0:0:
320,192,76142,1,0,0:0:0:0:
448,192,76362,1,0,0:0:0:0:
320,192,76362,1,0,0:0:0:0:
64,192,76583,1,0,0:0:0:0:
320,192,76693,1,0,0:0:0:0:
64,192,76804,1,0,0:0:0:0:
320,192,77024,1,0,0:0:0:0:
448,192,77024,1,0,0:0:0:0:
192,192,77134,1,0,0:0:0:0:
320,192,77355,1,0,0:0:0:0:
64,192,77465,1,0,0:0:0:0:
192,192,77465,1,0,0:0:0:0:
320,192,77686,1,0,0:0:0:0:
192,192,77686,1,0,0:0:0:0:
448,192,77796,1,0,0:0:0:0:
64,192,78127,1,0,0:0:0:0:
320,192,78127,128,0,78568:0:0:0:0:
448,192,78127,128,0,78568:0:0:0:0:
192,192,78237,1,0,0:0:0:0:
64,192,78348,1,0,0:0:0:0:
192,192,78458,1,0,0:0:0:0:
64,192,78568,1,0,0:0:0:0:
448,192,78789,1,0,0:0:0:0:
320,192,78899,1,0,0:0:0:0:
192,192,79009,1,0,0:0:0:0:
64,192,79009,1,0,0:0:0:0:
448,192,79009,1,0,0:0:0:0:
64,192,79230,128,0,79451:0:0:0:0:
448,192,79230,1,0,0:0:0:0:
192,192,79230,1,0,0:0:0:0:
192,192,79451,128,0,79671:0:0:0:0:
320,192,79671,1,0,0:0:0:0:
448,192,79892,1,0,0:0:0:0:
64,192,79892,1,0,0:0:0:0:
192,192,80112,1,0,0:0:0:0:
320,192,80112,1,0,0:0:0:0:
448,192,80333,1,0,0:0:0:0:
192,192,80554,1,0,0:0:0:0:
448,192,80554,1,0,0:0:0:0:
320,192,80664,1,0,0:0:0:0:
64,192,80774,1,0,0:0:0:0:
448,192,80774,1,0,0:0:0:0:
448,192,80995,128,0,81215:0:0:0:0:
64,192,80995,1,0,0:0:0:0:
320,192,81215,128,0,81436:0:0:0:0:
192,192,81436,128,0,81657:0:0:0:0:
64,192,81657,128,0,81877:0:0:0:0:
448,192,81657,1,0,0:0:0:0:
192,192,81877,1,0,0:0:0:0:
320,192,82098,1,0,0:0:0:0:
64,192,82318,1,0,0:0:0:0:
448,192,82318,1,0,0:0:0:0:
192,192,82429,1,0,0:0:0:0:
448,192,82539,1,0,0:0:0:0:
64,192,82539,1,0,0:0:0:0:
320,192,82539,1,0,0:0:0:0:
192,192,82759,128,0,82980:0:0:0:0:
448,192,82759,1,0,0:0:0:0:
64,192,82980,128,0,83201:0:0:0:0:
448,192,83201,1,0,0:0:0:0:
320,192,83201,1,0,0:0:0:0:
192,192,83201,1,0,0:0:0:0:
448,192,83421,1,0,0:0:0:0:
320,192,83421,1,0,0:0:0:0:
64,192,83642,1,0,0:0:0:0:
192,192,83642,1,0,0:0:0:0:
320,192,83862,1,0,0:0:0:0:
64,192,83862,1,0,0:0:0:0:
64,192,84083,1,0,0:0:0:0:
448,192,84083,1,0,0:0:0:0:
320,192,84193,1,0,0:0:0:0:
192,192,84304,1,0,0:0:0:0:
448,192,84304,1,0,0:0:0:0:
64,192,84304,1,0,0:0:0:0:
320,192,84524,1,0,0:0:0:0:
448,192,84745,1,0,0:0:0:0:
192,192,84965,1,0,0:0:0:0:
320,192,84965,1,0,0:0:0:0:
64,192,85186,1,0,0:0:0:0:
192,192,85407,1,0,0:0:0:0:
320,192,85627,128,0,85848:0:0:0:0:
448,192,85627,1,0,0:0:0:0:
64,192,85848,1,0,0:0:0:0:
448,192,85848,1,0,0:0:0:0:
192,192,85958,1,0,0:0:0:0:
64,192,86068,1,0,0:0:0:0:
448,192,86068,1,0,0:0:0:0:
320,192,86068,1,0,0:0:0:0:
320,192,86289,128,0,86509:0:0:0:0:
192,192,86289,1,0,0:0:0:0:
64,192,86509,1,0,0:0:0:0:
448,192,86730,1,0,0:0:0:0:
320,192,86730,1,0,0:0:0:0:
192,192,86951,1,0,0:0:0:0:
320,192,87171,1,0,0:0:0:0:
448,192,87171,1,0,0:0:0:0:
192,192,87392,1,0,0:0:0:0:
448,192,87392,1,0,0:0:0:0:
64,192,87612,1,0,0:0:0:0:
448,192,87612,1,0,0:0:0:0:
320,192,87723,1,0,0:0:0:0:
448,192,87833,1,0,0:0:0:0:
64,192,87833,1,0,0:0:0:0:
192,192,87833,1,0,0:0:0:0:
192,192,88054,128,0,88274:0:0:0:0:
448,192,88054,1,0,0:0:0:0:
320,192,88274,128,0,88495:0:0:0:0:
192,192,88495,128,0,88715:0:0:0:0:
448,192,88715,128,0,88936:0:0:0:0:
64,192,88715,1,0,0:0:0:0:
320,192,88936,128,0,89157:0:0:0:0:
192,192,89157,1,0,0:0:0:0:
448,192,89377,1,0,0:0:0:0:
64,192,89377,1,0,0:0:0:0:
192,192,89487,1,0,0:0:0:0:
448,192,89598,1,0,0:0:0:0:
64,192,89598,1,0,0:0:0:0:
320,192,89598,1,0,0:0:0:0:
192,192,89818,128,0,90039:0:0:0:0:
320,192,89818,1,0,0:0:0:0:
320,192,90039,128,0,90259:0:0:0:0:
448,192,90259,128,0,90480:0:0:0:0:
64,192,90259,1,0,0:0:0:0:
192,192,90259,1,0,0:0:0:0:
64,192,90480,1,0,0:0:0:0:
192,192,90480,1,0,0:0:0:0:
192,192,90701,1,0,0:0:0:0:
448,192,90701,1,0,0:0:0:0:
320,192,90921,1,0,0:0:0:0:
192,192,90921,1,0,0:0:0:0:
448,192,91142,1,0,0:0:0:0:
64,192,91142,1,0,0:0:0:0:
320,192,91252,1,0,0:0:0:0:
64,192,91362,1,0,0:0:0:0:
448,192,91362,1,0,0:0:0:0:
192,192,91362,1,0,0:0:0:0:
320,192,91583,128,0,91804:0:0:0:0:
64,192,91583,1,0,0:0:0:0:
448,192,91804,128,0,92024:0:0:0:0:
320,192,92024,128,0,92245:0:0:0:0:
64,192,92024,1,0,0:0:0:0:
192,192,92245,128,0,92465:0:0:0:0:
64,192,92465,128,0,92686:0:0:0:0:
192,192,92686,1,0,0:0:0:0:
192,192,92907,1,0,0:0:0:0:
448,192,92907,1,0,0:0:0:0:
320,192,93017,1,0,0:0:0:0:
64,192,93127,1,0,0:0:0:0:
448,192,93127,1,0,0:0:0:0:
192,192,93127,1,0,0:0:0:0:
192,192,93348,128,0,93568:0:0:0:0:
448,192,93348,1,0,0:0:0:0:
64,192,93568,128,0,93789:0:0:0:0:
192,192,93789,1,0,0:0:0:0:
448,192,94009,1,0,0:0:0:0:
320,192,94009,1,0,0:0:0:0:
64,192,94230,1,0,0:0:0:0:
192,192,94230,1,0,0:0:0:0:
64,192,94451,1,0,0:0:0:0:
448,192,94451,1,0,0:0:0:0:
192,192,94671,1,0,0:0:0:0:
64,192,94671,1,0,0:0:0:0:
320,192,94782,1,0,0:0:0:0:
192,192,94892,1,0,0:0:0:0:
64,192,94892,1,0,0:0:0:0:
448,192,94892,1,0,0:0:0:0:
320,192,95112,128,0,95333:0:0:0:0:
64,192,95112,1,0,0:0:0:0:
448,192,95333,128,0,95554:0:0:0:0:
320,192,95554,128,0,95774:0:0:0:0:
448,192,95774,1,0,0:0:0:0:
192,192,95774,128,0,95995:0:0:0:0:
64,192,95995,1,0,0:0:0:0:
192,192,96215,1,0,0:0:0:0:
448,192,96436,1,0,0:0:0:0:
64,192,96436,1,0,0:0:0:0:
192,192,96546,1,0,0:0:0:0:
448,192,96657,1,0,0:0:0:0:
64,192,96657,1,0,0:0:0:0:
320,192,96657,1,0,0:0:0:0:
192,192,96877,128,0,97098:0:0:0:0:
448,192,96877,1,0,0:0:0:0:
64,192,97098,128,0,97318:0:0:0:0:
448,192,97318,1,0,0:0:0:0:
320,192,97318,1,0,0:0:0:0:
192,192,97318,128,0,97539:0:0:0:0:
448,192,97539,1,0,0:0:0:0:
320,192,97539,1,0,0:0:0:0:
64,192,97759,1,0,0:0:0:0:
320,192,97759,1,0,0:0:0:0:
320,192,97980,1,0,0:0:0:0:
448,192,97980,1,0,0:0:0:0:
192,192,98201,1,0,0:0:0:0:
448,192,98201,1,0,0:0:0:0:
320,192,98311,1,0,0:0:0:0:
192,192,98421,1,0,0:0:0:0:
64,192,98421,1,0,0:0:0:0:
448,192,98421,1,0,0:0:0:0:
320,192,98642,128,0,98862:0:0:0:0:
64,192,98642,1,0,0:0:0:0:
448,192,98862,128,0,99083:0:0:0:0:
320,192,99083,128,0,99304:0:0:0:0:
448,192,99304,128,0,99524:0:0:0:0:
192,192,99304,1,0,0:0:0:0:
64,192,99304,1,0,0:0:0:0:
320,192,99524,128,0,99745:0:0:0:0:
192,192,99745,1,0,0:0:0:0:
64,192,99965,1,0,0:0:0:0:
448,192,99965,1,0,0:0:0:0:
320,192,100076,1,0,0:0:0:0:
64,192,100186,1,0,0:0:0:0:
192,192,100186,1,0,0:0:0:0:
448,192,100186,1,0,0:0:0:0:
192,192,100407,128,0,100627:0:0:0:0:
448,192,100407,1,0,0:0:0:0:
64,192,100627,128,0,100848:0:0:0:0:
192,192,100848,128,0,101068:0:0:0:0:
448,192,101068,1,0,0:0:0:0:
320,192,101068,1,0,0:0:0:0:
64,192,101289,1,0,0:0:0:0:
320,192,101289,1,0,0:0:0:0:
192,192,101509,1,0,0:0:0:0:
320,192,101509,1,0,0:0:0:0:
64,192,101730,1,0,0:0:0:0:
448,192,101730,1,0,0:0:0:0:
192,192,101840,1,0,0:0:0:0:
320,192,101951,1,0,0:0:0:0:
448,192,101951,1,0,0:0:0:0:
64,192,101951,1,0,0:0:0:0:
192,192,102171,128,0,102392:0:0:0:0:
448,192,102171,1,0,0:0:0:0:
320,192,102392,128,0,102612:0:0:0:0:
448,192,102612,128,0,102833:0:0:0:0:
320,192,102833,128,0,103054:0:0:0:0:
64,192,102833,1,0,0:0:0:0:
192,192,103054,128,0,103274:0:0:0:0:
64,192,103274,1,0,0:0:0:0:
64,192,103495,1,0,0:0:0:0:
448,192,103495,1,0,0:0:0:0:
320,192,103605,1,0,0:0:0:0:
192,192,103715,1,0,0:0:0:0:
448,192,103715,1,0,0:0:0:0:
64,192,103715,1,0,0:0:0:0:
448,192,103936,128,0,104157:0:0:0:0:
192,192,103936,1,0,0:0:0:0:
320,192,104157,128,0,104377:0:0:0:0:
448,192,104377,1,0,0:0:0:0:
192,192,104377,128,0,104598:0:0:0:0:
64,192,104377,1,0,0:0:0:0:
64,192,104598,1,0,0:0:0:0:
448,192,104598,1,0,0:0:0:0:
192,192,104818,1,0,0:0:0:0:
320,192,104818,1,0,0:0:0:0:
192,192,105039,1,0,0:0:0:0:
64,192,105039,1,0,0:0:0:0:
320,192,105259,1,0,0:0:0:0:
64,192,105480,1,0,0:0:0:0:
192,192,105701,1,0,0:0:0:0:
320,192,105921,128,0,106804:0:0:0:0:
448,192,105921,1,0,0:0:0:0:
64,192,105921,1,0,0:0:0:0:
64,192,106142,1,0,0:0:0:0:
192,192,106142,1,0,0:0:0:0:
192,192,106362,1,0,0:0:0:0:
448,192,106362,1,0,0:0:0:0:
448,192,106583,1,0,0:0:0:0:
64,192,106583,1,0,0:0:0:0:
64,192,106804,1,0,0:0:0:0:
192,192,106804,128,0,112098:0:0:0:0:
320,192,107024,1,0,0:0:0:0:
64,192,107245,1,0,0:0:0:0:
448,192,107465,1,0,0:0:0:0:
64,192,107686,1,0,0:0:0:0:
320,192,107907,1,0,0:0:0:0:
64,192,108127,1,0,0:0:0:0:
448,192,108348,1,0,0:0:0:0:
64,192,108568,1,0,0:0:0:0:
320,192,108789,1,0,0:0:0:0:
448,192,109009,1,0,0:0:0:0:
64,192,109230,1,0,0:0:0:0:
448,192,109451,1,0,0:0:0:0:
64,192,109671,1,0,0:0:0:0:
448,192,109892,1,0,0:0:0:0:
64,192,110112,1,0,0:0:0:0:
64,192,110333,1,0,0:0:0:0:
448,192,110333,1,0,0:0:0:0:
320,192,110443,1,0,0:0:0:0:
448,192,110554,1,0,0:0:0:0:
320,192,110664,1,0,0:0:0:0:
64,192,110774,1,0,0:0:0:0:
448,192,110774,1,0,0:0:0:0:
320,192,110884,1,0,0:0:0:0:
448,192,110995,1,0,0:0:0:0:
320,192,111105,1,0,0:0:0:0:
64,192,111215,1,0,0:0:0:0:
448,192,111215,1,0,0:0:0:0:
320,192,111326,1,0,0:0:0:0:
448,192,111436,1,0,0:0:0:0:
320,192,111546,1,0,0:0:0:0:
448,192,111657,1,0,0:0:0:0:
64,192,111657,1,0,0:0:0:0:
320,192,111767,1,0,0:0:0:0:
448,192,111877,1,0,0:0:0:0:
320,192,111987,1,0,0:0:0:0:
64,192,112098,1,0,0:0:0:0:
448,192,112098,1,0,0:0:0:0:
64,192,112318,1,0,0:0:0:0:
192,192,112429,1,0,0:0:0:0:
320,192,112429,1,0,0:0:0:0:
448,192,112539,1,0,0:0:0:0:
320,192,112759,1,0,0:0:0:0:
64,192,112759,1,0,0:0:0:0:
192,192,112870,1,0,0:0:0:0:
64,192,112980,1,0,0:0:0:0:
320,192,113090,1,0,0:0:0:0:
448,192,113201,1,0,0:0:0:0:
64,192,113201,1,0,0:0:0:0:
448,192,113421,1,0,0:0:0:0:
192,192,113421,1,0,0:0:0:0:
64,192,113532,1,0,0:0:0:0:
320,192,113642,1,0,0:0:0:0:
448,192,113752,1,0,0:0:0:0:
192,192,113862,1,0,0:0:0:0:
320,192,113862,1,0,0:0:0:0:
64,192,113973,1,0,0:0:0:0:
192,192,114083,1,0,0:0:0:0:
64,192,114193,1,0,0:0:0:0:
320,192,114304,1,0,0:0:0:0:
448,192,114304,1,0,0:0:0:0:
192,192,114414,1,0,0:0:0:0:
320,192,114524,1,0,0:0:0:0:
64,192,114634,1,0,0:0:0:0:
320,192,114745,1,0,0:0:0:0:
192,192,114745,1,0,0:0:0:0:
64,192,114855,1,0,0:0:0:0:
320,192,114965,1,0,0:0:0:0:
448,192,115076,1,0,0:0:0:0:
192,192,115186,1,0,0:0:0:0:
64,192,115186,1,0,0:0:0:0:
448,192,115296,1,0,0:0:0:0:
320,192,115407,1,0,0:0:0:0:
64,192,115517,1,0,0:0:0:0:
320,192,115627,1,0,0:0:0:0:
192,192,115627,1,0,0:0:0:0:
448,192,115737,1,0,0:0:0:0:
192,192,115848,1,0,0:0:0:0:
64,192,115958,1,0,0:0:0:0:
320,192,116068,1,0,0:0:0:0:
448,192,116068,1,0,0:0:0:0:
64,192,116179,1,0,0:0:0:0:
192,192,116289,1,0,0:0:0:0:
448,192,116399,1,0,0:0:0:0:
64,192,116509,1,0,0:0:0:0:
192,192,116509,1,0,0:0:0:0:
448,192,116620,1,0,0:0:0:0:
192,192,116730,1,0,0:0:0:0:
64,192,116840,1,0,0:0:0:0:
448,192,116951,1,0,0:0:0:0:
320,192,116951,1,0,0:0:0:0:
192,192,117061,1,0,0:0:0:0:
64,192,117171,1,0,0:0:0:0:
192,192,117282,1,0,0:0:0:0:
448,192,117392,1,0,0:0:0:0:
320,192,117392,1,0,0:0:0:0:
192,192,117502,1,0,0:0:0:0:
320,192,117612,1,0,0:0:0:0:
192,192,117723,1,0,0:0:0:0:
64,192,117833,1,0,0:0:0:0:
448,192,117833,1,0,0:0:0:0:
192,192,117943,1,0,0:0:0:0:
320,192,118054,1,0,0:0:0:0:
192,192,118164,1,0,0:0:0:0:
448,192,118274,1,0,0:0:0:0:
64,192,118274,1,0,0:0:0:0:
320,192,118384,1,0,0:0:0:0:
448,192,118495,1,0,0:0:0:0:
320,192,118605,1,0,0:0:0:0:
64,192,118715,1,0,0:0:0:0:
192,192,118715,1,0,0:0:0:0:
320,192,118826,1,0,0:0:0:0:
192,192,118936,1,0,0:0:0:0:
320,192,119046,1,0,0:0:0:0:
448,192,119157,1,0,0:0:0:0:
64,192,119157,1,0,0:0:0:0:
320,192,119267,1,0,0:0:0:0:
64,192,119377,128,0,119598:0:0:0:0:
448,192,119377,1,0,0:0:0:0:
320,192,119487,1,0,0:0:0:0:
192,192,119598,128,0,119818:0:0:0:0:
448,192,119598,1,0,0:0:0:0:
320,192,119818,1,0,0:0:0:0:
448,192,120039,1,0,0:0:0:0:
320,192,120039,1,0,0:0:0:0:
448,192,120259,1,0,0:0:0:0:
64,192,120259,1,0,0:0:0:0:
320,192,120370,1,0,0:0:0:0:
192,192,120480,1,0,0:0:0:0:
64,192,120480,1,0,0:0:0:0:
320,192,120701,1,0,0:0:0:0:
192,192,120811,1,0,0:0:0:0:
448,192,120921,1,0,0:0:0:0:
64,192,120921,1,0,0:0:0:0:
192,192,121032,1,0,0:0:0:0:
320,192,121142,1,0,0:0:0:0:
64,192,121252,1,0,0:0:0:0:
448,192,121362,1,0,0:0:0:0:
192,192,121362,1,0,0:0:0:0:
320,192,121473,1,0,0:0:0:0:
192,192,121583,1,0,0:0:0:0:
320,192,121693,1,0,0:0:0:0:
448,192,121804,1,0,0:0:0:0:
192,192,121804,1,0,0:0:0:0:
64,192,121914,1,0,0:0:0:0:
192,192,122024,1,0,0:0:0:0:
64,192,122134,1,0,0:0:0:0:
448,192,122245,1,0,0:0:0:0:
320,192,122245,1,0,0:0:0:0:
192,192,122355,1,0,0:0:0:0:
320,192,122465,1,0,0:0:0:0:
192,192,122576,1,0,0:0:0:0:
320,192,122686,1,0,0:0:0:0:
64,192,122686,1,0,0:0:0:0:
448,192,122796,1,0,0:0:0:0:
320,192,122907,1,0,0:0:0:0:
64,192,123017,1,0,0:0:0:0:
448,192,123127,1,0,0:0:0:0:
192,192,123127,1,0,0:0:0:0:
320,192,123237,1,0,0:0:0:0:
192,192,123348,1,0,0:0:0:0:
320,192,123458,1,0,0:0:0:0:
448,192,123568,1,0,0:0:0:0:
64,192,123568,1,0,0:0:0:0:
192,192,123679,1,0,0:0:0:0:
448,192,123789,1,0,0:0:0:0:
64,192,123899,1,0,0:0:0:0:
448,192,124009,1,0,0:0:0:0:
192,192,124009,1,0,0:0:0:0:
320,192,124120,1,0,0:0:0:0:
192,192,124230,1,0,0:0:0:0:
64,192,124340,1,0,0:0:0:0:
448,192,124451,1,0,0:0:0:0:
192,192,124451,1,0,0:0:0:0:
320,192,124561,1,0,0:0:0:0:
64,192,124671,1,0,0:0:0:0:
320,192,124782,1,0,0:0:0:0:
448,192,124892,1,0,0:0:0:0:
192,192,124892,1,0,0:0:0:0:
320,192,125002,1,0,0:0:0:0:
192,192,125112,1,0,0:0:0:0:
64,192,125223,1,0,0:0:0:0:
448,192,125333,1,0,0:0:0:0:
192,192,125333,1,0,0:0:0:0:
64,192,125443,1,0,0:0:0:0:
192,192,125554,1,0,0:0:0:0:
320,192,125664,1,0,0:0:0:0:
448,192,125774,1,0,0:0:0:0:
64,192,125774,1,0,0:0:0:0:
320,192,125884,1,0,0:0:0:0:
192,192,125995,1,0,0:0:0:0:
320,192,126105,1,0,0:0:0:0:
448,192,126215,1,0,0:0:0:0:
192,192,126215,1,0,0:0:0:0:
448,192,126436,1,0,0:0:0:0:
64,192,126436,1,0,0:0:0:0:
320,192,126546,1,0,0:0:0:0:
192,192,126546,1,0,0:0:0:0:
64,192,126657,1,0,0:0:0:0:
448,192,126657,1,0,0:0:0:0:
192,192,126877,1,0,0:0:0:0:
448,192,126987,1,0,0:0:0:0:
320,192,127098,1,0,0:0:0:0:
192,192,127208,1,0,0:0:0:0:
64,192,127318,1,0,0:0:0:0:
320,192,127318,1,0,0:0:0:0:
448,192,127429,1,0,0:0:0:0:
320,192,127539,1,0,0:0:0:0:
64,192,127649,1,0,0:0:0:0:
448,192,127649,1,0,0:0:0:0:
192,192,127759,1,0,0:0:0:0:
320,192,127870,1,0,0:0:0:0:
64,192,127980,1,0,0:0:0:0:
192,192,127980,1,0,0:0:0:0:
448,192,128090,1,0,0:0:0:0:
320,192,128201,1,0,0:0:0:0:
192,192,128311,1,0,0:0:0:0:
64,192,128311,1,0,0:0:0:0:
192,192,128421,1,0,0:0:0:0:
320,192,128421,1,0,0:0:0:0:
64,192,128532,1,0,0:0:0:0:
448,192,128642,1,0,0:0:0:0:
192,192,128752,1,0,0:0:0:0:
320,192,128752,1,0,0:0:0:0:
64,192,128862,1,0,0:0:0:0:
192,192,128862,1,0,0:0:0:0:
448,192,128973,1,0,0:0:0:0:
64,192,129083,1,0,0:0:0:0:
192,192,129193,1,0,0:0:0:0:
320,192,129193,1,0,0:0:0:0:
448,192,129304,1,0,0:0:0:0:
320,192,129304,1,0,0:0:0:0:
64,192,129414,1,0,0:0:0:0:
320,192,129524,1,0,0:0:0:0:
64,192,129634,1,0,0:0:0:0:
192,192,129634,1,0,0:0:0:0:
192,192,129745,1,0,0:0:0:0:
320,192,129745,1,0,0:0:0:0:
448,192,129855,1,0,0:0:0:0:
192,192,129965,1,0,0:0:0:0:
320,192,130076,1,0,0:0:0:0:
448,192,130076,1,0,0:0:0:0:
64,192,130186,1,0,0:0:0:0:
192,192,130186,1,0,0:0:0:0:
320,192,130296,1,0,0:0:0:0:
192,192,130407,1,0,0:0:0:0:
64,192,130517,1,0,0:0:0:0:
192,192,130517,1,0,0:0:0:0:
448,192,130627,1,0,0:0:0:0:
320,192,130627,1,0,0:0:0:0:
192,192,130737,1,0,0:0:0:0:
64,192,130848,1,0,0:0:0:0:
448,192,130958,1,0,0:0:0:0:
320,192,130958,1,0,0:0:0:0:
192,192,131068,1,0,0:0:0:0:
320,192,131068,1,0,0:0:0:0:
448,192,131179,1,0,0:0:0:0:
64,192,131289,1,0,0:0:0:0:
192,192,131399,1,0,0:0:0:0:
320,192,131399,1,0,0:0:0:0:
64,192,131509,1,0,0:0:0:0:
192,192,131509,1,0,0:0:0:0:
448,192,131620,1,0,0:0:0:0:
320,192,131730,1,0,0:0:0:0:
64,192,131840,1,0,0:0:0:0:
192,192,131840,1,0,0:0:0:0:
192,192,131951,1,0,0:0:0:0:
320,192,131951,1,0,0:0:0:0:
64,192,132061,1,0,0:0:0:0:
320,192,132171,1,0,0:0:0:0:
448,192,132282,1,0,0:0:0:0:
192,192,132282,1,0,0:0:0:0:
64,192,132392,1,0,0:0:0:0:
192,192,132392,1,0,0:0:0:0:
320,192,132502,1,0,0:0:0:0:
192,192,132612,1,0,0:0:0:0:
64,192,132723,1,0,0:0:0:0:
320,192,132723,1,0,0:0:0:0:
448,192,132833,1,0,0:0:0:0:
320,192,132833,1,0,0:0:0:0:
64,192,132943,1,0,0:0:0:0:
320,192,133054,1,0,0:0:0:0:
192,192,133164,1,0,0:0:0:0:
64,192,133164,1,0,0:0:0:0:
448,192,133274,1,0,0:0:0:0:
320,192,133274,1,0,0:0:0:0:
192,192,133384,1,0,0:0:0:0:
448,192,133495,1,0,0:0:0:0:
192,192,133605,1,0,0:0:0:0:
320,192,133605,1,0,0:0:0:0:
64,192,133715,1,0,0:0:0:0:
192,192,133715,1,0,0:0:0:0:
448,192,133826,1,0,0:0:0:0:
192,192,133936,1,0,0:0:0:0:
64,192,134046,1,0,0:0:0:0:
320,192,134046,1,0,0:0:0:0:
320,192,134157,1,0,0:0:0:0:
192,192,134157,1,0,0:0:0:0:
64,192,134377,1,0,0:0:0:0:
192,192,134377,1,0,0:0:0:0:
64,192,134598,1,0,0:0:0:0:
192,192,134598,1,0,0:0:0:0:
192,192,134818,1,0,0:0:0:0:
448,192,134929,1,0,0:0:0:0:
320,192,135039,1,0,0:0:0:0:
192,192,135039,1,0,0:0:0:0:
64,192,135149,1,0,0:0:0:0:
320,192,135259,1,0,0:0:0:0:
448,192,135370,1,0,0:0:0:0:
320,192,135480,1,0,0:0:0:0:
192,192,135480,1,0,0:0:0:0:
448,192,135590,1,0,0:0:0:0:
320,192,135701,1,0,0:0:0:0:
192,192,135811,1,0,0:0:0:0:
448,192,135921,1,0,0:0:0:0:
64,192,135921,1,0,0:0:0:0:
192,192,136032,1,0,0:0:0:0:
64,192,136142,1,0,0:0:0:0:
448,192,136252,1,0,0:0:0:0:
320,192,136362,1,0,0:0:0:0:
192,192,136362,1,0,0:0:0:0:
64,192,136473,1,0,0:0:0:0:
320,192,136583,1,0,0:0:0:0:
192,192,136693,1,0,0:0:0:0:
320,192,136804,1,0,0:0:0:0:
448,192,136804,1,0,0:0:0:0:
192,192,136914,1,0,0:0:0:0:
320,192,137024,1,0,0:0:0:0:
448,192,137134,1,0,0:0:0:0:
192,192,137245,1,0,0:0:0:0:
64,192,137245,1,0,0:0:0:0:
320,192,137465,1,0,0:0:0:0:
192,192,137465,1,0,0:0:0:0:
192,192,137686,1,0,0:0:0:0:
448,192,137686,1,0,0:0:0:0:
192,192,137907,1,0,0:0:0:0:
320,192,137907,1,0,0:0:0:0:
64,192,138127,1,0,0:0:0:0:
448,192,138127,1,0,0:0:0:0:
192,192,138348,1,0,0:0:0:0:
320,192,138348,1,0,0:0:0:0:
64,192,138568,1,0,0:0:0:0:
320,192,138568,128,0,139009:0:0:0:0:
192,192,138568,1,0,0:0:0:0:
448,192,138789,1,0,0:0:0:0:
64,192,139009,1,0,0:0:0:0:
448,192,139009,1,0,0:0:0:0:
448,192,139230,128,0,139451:0:0:0:0:
64,192,139230,1,0,0:0:0:0:
192,192,139451,128,0,139892:0:0:0:0:
320,192,139451,1,0,0:0:0:0:
448,192,139671,1,0,0:0:0:0:
64,192,139892,1,0,0:0:0:0:
320,192,139892,128,0,140333:0:0:0:0:
64,192,140112,1,0,0:0:0:0:
192,192,140333,1,0,0:0:0:0:
192,192,140554,1,0,0:0:0:0:
448,192,140774,1,0,0:0:0:0:
320,192,140774,1,0,0:0:0:0:
192,192,140995,128,0,141215:0:0:0:0:
448,192,140995,1,0,0:0:0:0:
320,192,141215,128,0,141657:0:0:0:0:
64,192,141436,1,0,0:0:0:0:
192,192,141657,1,0,0:0:0:0:
64,192,141657,1,0,0:0:0:0:
448,192,141657,128,0,142098:0:0:0:0:
192,192,141877,1,0,0:0:0:0:
320,192,142098,128,0,143421:0:0:0:0:
448,192,142318,1,0,0:0:0:0:
192,192,142539,1,0,0:0:0:0:
64,192,142539,1,0,0:0:0:0:
64,192,142759,1,0,0:0:0:0:
448,192,142980,1,0,0:0:0:0:
192,192,143201,1,0,0:0:0:0:
448,192,143421,1,0,0:0:0:0:
192,192,143421,1,0,0:0:0:0:
64,192,143642,128,0,143862:0:0:0:0:
448,192,143642,1,0,0:0:0:0:
192,192,143862,128,0,144745:0:0:0:0:
448,192,144083,1,0,0:0:0:0:
320,192,144304,1,0,0:0:0:0:
448,192,144304,1,0,0:0:0:0:
64,192,144524,1,0,0:0:0:0:
448,192,144745,1,0,0:0:0:0:
320,192,144745,1,0,0:0:0:0:
64,192,144745,1,0,0:0:0:0:
448,192,144965,1,0,0:0:0:0:
192,192,145076,1,0,0:0:0:0:
320,192,145186,1,0,0:0:0:0:
192,192,145186,1,0,0:0:0:0:
192,192,145407,1,0,0:0:0:0:
192,192,145627,1,0,0:0:0:0:
320,192,145848,1,0,0:0:0:0:
64,192,146068,1,0,0:0:0:0:
192,192,146068,1,0,0:0:0:0:
320,192,146068,1,0,0:0:0:0:
320,192,146289,128,0,146509:0:0:0:0:
64,192,146289,1,0,0:0:0:0:
192,192,146509,128,0,146951:0:0:0:0:
448,192,146730,1,0,0:0:0:0:
448,192,146951,1,0,0:0:0:0:
64,192,146951,128,0,147392:0:0:0:0:
320,192,147171,1,0,0:0:0:0:
192,192,147392,1,0,0:0:0:0:
64,192,147612,1,0,0:0:0:0:
448,192,147612,1,0,0:0:0:0:
448,192,147833,1,0,0:0:0:0:
320,192,147833,1,0,0:0:0:0:
64,192,147833,1,0,0:0:0:0:
64,192,148054,128,0,148274:0:0:0:0:
320,192,148054,1,0,0:0:0:0:
448,192,148274,1,0,0:0:0:0:
192,192,148274,128,0,148715:0:0:0:0:
320,192,148495,1,0,0:0:0:0:
64,192,148715,1,0,0:0:0:0:
448,192,148715,1,0,0:0:0:0:
320,192,148715,128,0,149157:0:0:0:0:
64,192,148936,1,0,0:0:0:0:
64,192,149157,1,0,0:0:0:0:
192,192,149157,1,0,0:0:0:0:
448,192,149157,128,0,150480:0:0:0:0:
192,192,149377,1,0,0:0:0:0:
192,192,149598,1,0,0:0:0:0:
320,192,149598,1,0,0:0:0:0:
64,192,149818,1,0,0:0:0:0:
192,192,150039,1,0,0:0:0:0:
64,192,150039,1,0,0:0:0:0:
320,192,150259,1,0,0:0:0:0:
64,192,150480,1,0,0:0:0:0:
320,192,150480,128,0,150701:0:0:0:0:
192,192,150480,1,0,0:0:0:0:
192,192,150701,128,0,150921:0:0:0:0:
448,192,150921,1,0,0:0:0:0:
64,192,150921,128,0,152245:0:0:0:0:
320,192,150921,1,0,0:0:0:0:
448,192,151142,1,0,0:0:0:0:
448,192,151362,1,0,0:0:0:0:
320,192,151362,1,0,0:0:0:0:
192,192,151583,1,0,0:0:0:0:
320,192,151804,1,0,0:0:0:0:
192,192,151804,1,0,0:0:0:0:
192,192,152024,1,0,0:0:0:0:
448,192,152134,1,0,0:0:0:0:
448,192,152245,1,0,0:0:0:0:
320,192,152245,1,0,0:0:0:0:
320,192,152465,1,0,0:0:0:0:
192,192,152465,1,0,0:0:0:0:
320,192,152686,1,0,0:0:0:0:
192,192,152686,1,0,0:0:0:0:
192,192,152907,1,0,0:0:0:0:
64,192,152907,1,0,0:0:0:0:
192,192,153127,1,0,0:0:0:0:
448,192,153127,1,0,0:0:0:0:
64,192,153348,1,0,0:0:0:0:
320,192,153568,1,0,0:0:0:0:
192,192,153568,1,0,0:0:0:0:
64,192,153789,1,0,0:0:0:0:
448,192,153789,1,0,0:0:0:0:
64,192,154009,1,0,0:0:0:0:
448,192,154009,1,0,0:0:0:0:
320,192,154230,1,0,0:0:0:0:
320,192,154451,1,0,0:0:0:0:
192,192,154451,1,0,0:0:0:0:
192,192,154671,1,0,0:0:0:0:
64,192,154671,1,0,0:0:0:0:
448,192,154892,1,0,0:0:0:0:
448,192,155112,1,0,0:0:0:0:
320,192,155112,1,0,0:0:0:0:
320,192,155333,1,0,0:0:0:0:
192,192,155333,1,0,0:0:0:0:
320,192,155554,1,0,0:0:0:0:
448,192,155554,1,0,0:0:0:0:
320,192,155774,1,0,0:0:0:0:
192,192,155774,1,0,0:0:0:0:
192,192,155995,1,0,0:0:0:0:
64,192,155995,1,0,0:0:0:0:
64,192,156215,128,0,156657:0:0:0:0:
448,192,156436,1,0,0:0:0:0:
192,192,156657,1,0,0:0:0:0:
320,192,156877,1,0,0:0:0:0:
320,192,157098,1,0,0:0:0:0:
448,192,157098,1,0,0:0:0:0:
192,192,157318,1,0,0:0:0:0:
192,192,157539,1,0,0:0:0:0:
64,192,157539,1,0,0:0:0:0:
64,192,157759,1,0,0:0:0:0:
448,192,157980,1,0,0:0:0:0:
320,192,157980,1,0,0:0:0:0:
192,192,158201,1,0,0:0:0:0:
64,192,158421,1,0,0:0:0:0:
192,192,158421,1,0,0:0:0:0:
320,192,158642,1,0,0:0:0:0:
320,192,158862,128,0,159304:0:0:0:0:
448,192,158862,1,0,0:0:0:0:
192,192,159083,1,0,0:0:0:0:
64,192,159083,1,0,0:0:0:0:
192,192,159304,1,0,0:0:0:0:
64,192,159304,1,0,0:0:0:0:
448,192,159304,128,0,160186:0:0:0:0:
64,192,159524,1,0,0:0:0:0:
192,192,159745,1,0,0:0:0:0:
320,192,159965,1,0,0:0:0:0:
192,192,160186,1,0,0:0:0:0:
64,192,160186,1,0,0:0:0:0:
320,192,160407,1,0,0:0:0:0:
192,192,160627,1,0,0:0:0:0:
64,192,160627,1,0,0:0:0:0:
64,192,160848,1,0,0:0:0:0:
448,192,161068,1,0,0:0:0:0:
192,192,161068,1,0,0:0:0:0:
320,192,161289,1,0,0:0:0:0:
64,192,161509,1,0,0:0:0:0:
448,192,161730,1,0,0:0:0:0:
320,192,161730,1,0,0:0:0:0:
64,192,161951,1,0,0:0:0:0:
320,192,162171,1,0,0:0:0:0:
192,192,162171,1,0,0:0:0:0:
320,192,162392,1,0,0:0:0:0:
448,192,162392,1,0,0:0:0:0:
320,192,162612,1,0,0:0:0:0:
448,192,162612,1,0,0:0:0:0:
320,192,162833,1,0,0:0:0:0:
192,192,162833,1,0,0:0:0:0:
64,192,163054,1,0,0:0:0:0:
192,192,163054,1,0,0:0:0:0:
64,192,163274,128,0,163715:0:0:0:0:
448,192,163274,1,0,0:0:0:0:
320,192,163495,1,0,0:0:0:0:
192,192,163715,1,0,0:0:0:0:
448,192,163936,1,0,0:0:0:0:
320,192,164157,1,0,0:0:0:0:
192,192,164157,1,0,0:0:0:0:
64,192,164377,1,0,0:0:0:0:
448,192,164598,1,0,0:0:0:0:
320,192,164598,1,0,0:0:0:0:
448,192,164818,1,0,0:0:0:0:
320,192,165039,1,0,0:0:0:0:
192,192,165039,1,0,0:0:0:0:
320,192,165259,1,0,0:0:0:0:
192,192,165480,1,0,0:0:0:0:
64,192,165480,1,0,0:0:0:0:
448,192,165701,1,0,0:0:0:0:
320,192,165921,128,0,166804:0:0:0:0:
64,192,165921,1,0,0:0:0:0:
192,192,166032,1,0,0:0:0:0:
192,192,166142,1,0,0:0:0:0:
448,192,166362,128,0,167245:0:0:0:0:
64,192,166362,1,0,0:0:0:0:
192,192,166473,1,0,0:0:0:0:
64,192,166583,1,0,0:0:0:0:
192,192,166804,1,0,0:0:0:0:
64,192,166804,1,0,0:0:0:0:
320,192,167024,1,0,0:0:0:0:
192,192,167245,1,0,0:0:0:0:
64,192,167245,1,0,0:0:0:0:
320,192,167465,1,0,0:0:0:0:
192,192,167686,1,0,0:0:0:0:
64,192,167686,1,0,0:0:0:0:
448,192,167907,1,0,0:0:0:0:
192,192,168127,1,0,0:0:0:0:
64,192,168127,1,0,0:0:0:0:
320,192,168348,1,0,0:0:0:0:
192,192,168568,1,0,0:0:0:0:
64,192,168568,1,0,0:0:0:0:
448,192,168789,1,0,0:0:0:0:
192,192,169009,1,0,0:0:0:0:
64,192,169009,1,0,0:0:0:0:
320,192,169230,128,0,171657:0:0:0:0:
448,192,169230,1,0,0:0:0:0:
192,192,169451,1,0,0:0:0:0:
64,192,169451,1,0,0:0:0:0:
448,192,169671,1,0,0:0:0:0:
192,192,169892,1,0,0:0:0:0:
64,192,169892,1,0,0:0:0:0:
448,192,170112,1,0,0:0:0:0:
192,192,170333,1,0,0:0:0:0:
64,192,170333,1,0,0:0:0:0:
448,192,170554,1,0,0:0:0:0:
64,192,170774,1,0,0:0:0:0:
192,192,170774,1,0,0:0:0:0:
448,192,170995,1,0,0:0:0:0:
192,192,171215,1,0,0:0:0:0:
64,192,171215,1,0,0:0:0:0:
448,192,171436,1,0,0:0:0:0:
192,192,171657,1,0,0:0:0:0:
64,192,171657,1,0,0:0:0:0:
320,192,171877,1,0,0:0:0:0:
192,192,172098,1,0,0:0:0:0:
64,192,172098,1,0,0:0:0:0:
448,192,172318,1,0,0:0:0:0:
192,192,172539,1,0,0:0:0:0:
64,192,172539,1,0,0:0:0:0:
320,192,172759,1,0,0:0:0:0:
192,192,172980,1,0,0:0:0:0:
64,192,172980,1,0,0:0:0:0:
448,192,173201,1,0,0:0:0:0:
192,192,173421,1,0,0:0:0:0:
64,192,173421,1,0,0:0:0:0:
320,192,173642,1,0,0:0:0:0:
192,192,173862,1,0,0:0:0:0:
64,192,173862,1,0,0:0:0:0:
448,192,174083,1,0,0:0:0:0:
192,192,174304,1,0,0:0:0:0:
64,192,174304,1,0,0:0:0:0:
320,192,174524,1,0,0:0:0:0:
192,192,174745,1,0,0:0:0:0:
64,192,174745,1,0,0:0:0:0:
448,192,174965,1,0,0:0:0:0:
192,192,175186,1,0,0:0:0:0:
64,192,175186,1,0,0:0:0:0:
320,192,175407,1,0,0:0:0:0:
448,192,175517,128,0,176951:0:0:0:0:
192,192,175627,1,0,0:0:0:0:
64,192,175627,1,0,0:0:0:0:
320,192,175848,1,0,0:0:0:0:
192,192,176068,1,0,0:0:0:0:
64,192,176068,1,0,0:0:0:0:
320,192,176289,1,0,0:0:0:0:
192,192,176509,1,0,0:0:0:0:
64,192,176509,1,0,0:0:0:0:
320,192,176730,1,0,0:0:0:0:
64,192,176951,1,0,0:0:0:0:
192,192,176951,1,0,0:0:0:0:
448,192,177171,1,0,0:0:0:0:
320,192,177392,1,0,0:0:0:0:
192,192,177392,1,0,0:0:0:0:
192,192,177612,1,0,0:0:0:0:
320,192,177612,1,0,0:0:0:0:
320,192,177833,1,0,0:0:0:0:
192,192,177833,1,0,0:0:0:0:
320,192,178054,1,0,0:0:0:0:
192,192,178054,1,0,0:0:0:0:
320,192,178274,1,0,0:0:0:0:
192,192,178274,1,0,0:0:0:0:
320,192,178495,1,0,0:0:0:0:
192,192,178495,1,0,0:0:0:0:
320,192,178715,1,0,0:0:0:0:
192,192,178715,1,0,0:0:0:0:
320,192,178936,1,0,0:0:0:0:
192,192,178936,1,0,0:0:0:0:
320,192,179157,1,0,0:0:0:0:
64,192,179157,1,0,0:0:0:0:
448,192,179267,1,0,0:0:0:0:
320,192,179377,1,0,0:0:0:0:
448,192,179487,1,0,0:0:0:0:
192,192,179487,1,0,0:0:0:0:
320,192,179598,1,0,0:0:0:0:
64,192,179598,1,0,0:0:0:0:
192,192,179708,1,0,0:0:0:0:
448,192,179818,1,0,0:0:0:0:
64,192,179929,1,0,0:0:0:0:
320,192,179929,1,0,0:0:0:0:
192,192,180149,1,0,0:0:0:0:
448,192,180149,1,0,0:0:0:0:
320,192,180259,1,0,0:0:0:0:
192,192,180370,1,0,0:0:0:0:
448,192,180480,1,0,0:0:0:0:
64,192,180480,1,0,0:0:0:0:
320,192,180590,1,0,0:0:0:0:
192,192,180701,1,0,0:0:0:0:
448,192,180701,1,0,0:0:0:0:
320,192,180811,1,0,0:0:0:0:
448,192,180921,1,0,0:0:0:0:
192,192,180921,1,0,0:0:0:0:
64,192,180921,1,0,0:0:0:0:
320,192,181032,1,0,0:0:0:0:
448,192,181142,1,0,0:0:0:0:
192,192,181252,1,0,0:0:0:0:
64,192,181362,1,0,0:0:0:0:
448,192,181362,1,0,0:0:0:0:
192,192,181473,1,0,0:0:0:0:
320,192,181583,1,0,0:0:0:0:
448,192,181693,1,0,0:0:0:0:
192,192,181804,1,0,0:0:0:0:
320,192,181804,1,0,0:0:0:0:
448,192,181914,1,0,0:0:0:0:
64,192,182024,1,0,0:0:0:0:
192,192,182134,1,0,0:0:0:0:
448,192,182245,1,0,0:0:0:0:
320,192,182245,1,0,0:0:0:0:
192,192,182355,1,0,0:0:0:0:
320,192,182465,1,0,0:0:0:0:
64,192,182576,1,0,0:0:0:0:
192,192,182686,1,0,0:0:0:0:
320,192,182686,1,0,0:0:0:0:
448,192,182796,1,0,0:0:0:0:
192,192,182907,1,0,0:0:0:0:
448,192,183017,1,0,0:0:0:0:
64,192,183127,1,0,0:0:0:0:
192,192,183127,1,0,0:0:0:0:
320,192,183237,1,0,0:0:0:0:
448,192,183348,1,0,0:0:0:0:
192,192,183458,1,0,0:0:0:0:
320,192,183568,1,0,0:0:0:0:
448,192,183568,1,0,0:0:0:0:
192,192,183679,1,0,0:0:0:0:
64,192,183789,1,0,0:0:0:0:
448,192,183899,1,0,0:0:0:0:
192,192,184009,1,0,0:0:0:0:
320,192,184009,1,0,0:0:0:0:
64,192,184120,1,0,0:0:0:0:
320,192,184230,1,0,0:0:0:0:
64,192,184340,1,0,0:0:0:0:
192,192,184451,1,0,0:0:0:0:
320,192,184451,1,0,0:0:0:0:
448,192,184561,1,0,0:0:0:0:
64,192,184671,1,0,0:0:0:0:
448,192,184782,1,0,0:0:0:0:
192,192,184892,1,0,0:0:0:0:
64,192,184892,1,0,0:0:0:0:
320,192,185002,1,0,0:0:0:0:
448,192,185112,1,0,0:0:0:0:
64,192,185223,1,0,0:0:0:0:
320,192,185333,1,0,0:0:0:0:
448,192,185333,1,0,0:0:0:0:
64,192,185443,1,0,0:0:0:0:
192,192,185554,1,0,0:0:0:0:
448,192,185664,1,0,0:0:0:0:
64,192,185774,1,0,0:0:0:0:
192,192,185774,1,0,0:0:0:0:
320,192,185884,1,0,0:0:0:0:
320,192,185995,1,0,0:0:0:0:
64,192,186105,1,0,0:0:0:0:
320,192,186215,1,0,0:0:0:0:
448,192,186215,1,0,0:0:0:0:
192,192,186326,1,0,0:0:0:0:
64,192,186436,1,0,0:0:0:0:
448,192,186546,1,0,0:0:0:0:
320,192,186657,1,0,0:0:0:0:
192,192,186657,1,0,0:0:0:0:
64,192,186767,1,0,0:0:0:0:
448,192,186877,1,0,0:0:0:0:
320,192,186987,1,0,0:0:0:0:
192,192,187098,1,0,0:0:0:0:
64,192,187098,1,0,0:0:0:0:
448,192,187318,1,0,0:0:0:0:
64,192,187318,1,0,0:0:0:0:
320,192,187429,1,0,0:0:0:0:
448,192,187539,1,0,0:0:0:0:
192,192,187539,1,0,0:0:0:0:
64,192,187759,1,0,0:0:0:0:
448,192,187759,1,0,0:0:0:0:
192,192,187870,1,0,0:0:0:0:
320,192,187980,1,0,0:0:0:0:
448,192,187980,1,0,0:0:0:0:
192,192,188090,1,0,0:0:0:0:
64,192,188201,1,0,0:0:0:0:
192,192,188311,1,0,0:0:0:0:
448,192,188421,1,0,0:0:0:0:
320,192,188421,1,0,0:0:0:0:
192,192,188532,1,0,0:0:0:0:
448,192,188642,1,0,0:0:0:0:
320,192,188752,1,0,0:0:0:0:
448,192,188862,1,0,0:0:0:0:
192,192,188862,1,0,0:0:0:0:
320,192,188973,1,0,0:0:0:0:
448,192,189083,1,0,0:0:0:0:
192,192,189193,1,0,0:0:0:0:
64,192,189304,1,0,0:0:0:0:
320,192,189304,1,0,0:0:0:0:
192,192,189414,1,0,0:0:0:0:
320,192,189524,1,0,0:0:0:0:
448,192,189634,1,0,0:0:0:0:
320,192,189745,1,0,0:0:0:0:
192,192,189745,1,0,0:0:0:0:
64,192,189855,1,0,0:0:0:0:
320,192,189965,1,0,0:0:0:0:
448,192,190076,1,0,0:0:0:0:
64,192,190186,1,0,0:0:0:0:
320,192,190186,1,0,0:0:0:0:
448,192,190296,1,0,0:0:0:0:
320,192,190407,1,0,0:0:0:0:
448,192,190517,1,0,0:0:0:0:
64,192,190627,1,0,0:0:0:0:
320,192,190627,1,0,0:0:0:0:
192,192,190737,1,0,0:0:0:0:
320,192,190848,1,0,0:0:0:0:
192,192,190958,1,0,0:0:0:0:
448,192,191068,1,0,0:0:0:0:
320,192,191068,1,0,0:0:0:0:
192,192,191179,1,0,0:0:0:0:
64,192,191289,1,0,0:0:0:0:
320,192,191399,1,0,0:0:0:0:
64,192,191509,1,0,0:0:0:0:
192,192,191509,1,0,0:0:0:0:
320,192,191620,1,0,0:0:0:0:
448,192,191730,1,0,0:0:0:0:
192,192,191840,1,0,0:0:0:0:
448,192,191951,1,0,0:0:0:0:
320,192,191951,1,0,0:0:0:0:
64,192,192061,1,0,0:0:0:0:
448,192,192171,1,0,0:0:0:0:
192,192,192282,1,0,0:0:0:0:
448,192,192392,1,0,0:0:0:0:
320,192,192392,1,0,0:0:0:0:
64,192,192502,1,0,0:0:0:0:
320,192,192612,1,0,0:0:0:0:
192,192,192723,1,0,0:0:0:0:
64,192,192833,1,0,0:0:0:0:
320,192,192833,1,0,0:0:0:0:
448,192,192943,1,0,0:0:0:0:
64,192,193054,1,0,0:0:0:0:
320,192,193164,1,0,0:0:0:0:
192,192,193164,1,0,0:0:0:0:
64,192,193274,1,0,0:0:0:0:
448,192,193274,1,0,0:0:0:0:
320,192,193274,1,0,0:0:0:0:
448,192,193495,1,0,0:0:0:0:
64,192,193495,1,0,0:0:0:0:
320,192,193605,1,0,0:0:0:0:
448,192,193715,1,0,0:0:0:0:
192,192,193715,1,0,0:0:0:0:
448,192,193936,1,0,0:0:0:0:
320,192,193936,1,0,0:0:0:0:
64,192,194157,1,0,0:0:0:0:
448,192,194157,1,0,0:0:0:0:
192,192,194267,1,0,0:0:0:0:
448,192,194377,1,0,0:0:0:0:
320,192,194487,1,0,0:0:0:0:
448,192,194598,1,0,0:0:0:0:
64,192,194598,1,0,0:0:0:0:
320,192,194708,1,0,0:0:0:0:
192,192,194818,1,0,0:0:0:0:
64,192,194929,1,0,0:0:0:0:
448,192,195039,1,0,0:0:0:0:
320,192,195039,1,0,0:0:0:0:
192,192,195149,1,0,0:0:0:0:
64,192,195259,1,0,0:0:0:0:
192,192,195370,1,0,0:0:0:0:
448,192,195480,1,0,0:0:0:0:
320,192,195480,1,0,0:0:0:0:
192,192,195590,1,0,0:0:0:0:
320,192,195701,1,0,0:0:0:0:
448,192,195811,1,0,0:0:0:0:
64,192,195921,1,0,0:0:0:0:
192,192,195921,1,0,0:0:0:0:
320,192,196032,1,0,0:0:0:0:
192,192,196142,1,0,0:0:0:0:
320,192,196252,1,0,0:0:0:0:
448,192,196362,1,0,0:0:0:0:
64,192,196362,1,0,0:0:0:0:
320,192,196473,1,0,0:0:0:0:
192,192,196583,1,0,0:0:0:0:
320,192,196693,1,0,0:0:0:0:
64,192,196804,1,0,0:0:0:0:
192,192,196804,1,0,0:0:0:0:
320,192,196914,1,0,0:0:0:0:
448,192,197024,1,0,0:0:0:0:
192,192,197134,1,0,0:0:0:0:
448,192,197245,1,0,0:0:0:0:
320,192,197245,1,0,0:0:0:0:
192,192,197355,1,0,0:0:0:0:
448,192,197465,1,0,0:0:0:0:
192,192,197576,1,0,0:0:0:0:
448,192,197686,1,0,0:0:0:0:
320,192,197686,1,0,0:0:0:0:
192,192,197796,1,0,0:0:0:0:
64,192,197907,1,0,0:0:0:0:
320,192,198017,1,0,0:0:0:0:
64,192,198127,1,0,0:0:0:0:
192,192,198127,1,0,0:0:0:0:
320,192,198237,1,0,0:0:0:0:
448,192,198348,1,0,0:0:0:0:
192,192,198458,1,0,0:0:0:0:
320,192,198568,1,0,0:0:0:0:
64,192,198568,1,0,0:0:0:0:
448,192,198679,1,0,0:0:0:0:
192,192,198789,1,0,0:0:0:0:
320,192,198899,1,0,0:0:0:0:
64,192,199009,1,0,0:0:0:0:
192,192,199009,1,0,0:0:0:0:
320,192,199120,1,0,0:0:0:0:
448,192,199230,1,0,0:0:0:0:
192,192,199340,1,0,0:0:0:0:
448,192,199451,1,0,0:0:0:0:
320,192,199451,1,0,0:0:0:0:
192,192,199561,1,0,0:0:0:0:
64,192,199671,1,0,0:0:0:0:
192,192,199782,1,0,0:0:0:0:
320,192,199892,1,0,0:0:0:0:
448,192,199892,1,0,0:0:0:0:
192,192,200002,1,0,0:0:0:0:
64,192,200112,1,0,0:0:0:0:
320,192,200223,1,0,0:0:0:0:
64,192,200333,1,0,0:0:0:0:
192,192,200333,1,0,0:0:0:0:
320,192,200443,1,0,0:0:0:0:
192,192,200554,1,0,0:0:0:0:
448,192,200664,1,0,0:0:0:0:
320,192,200774,1,0,0:0:0:0:
192,192,200774,1,0,0:0:0:0:
64,192,200995,1,0,0:0:0:0:
192,192,200995,1,0,0:0:0:0:
448,192,201215,1,0,0:0:0:0:
320,192,201215,1,0,0:0:0:0:
192,192,201436,1,0,0:0:0:0:
64,192,201436,1,0,0:0:0:0:
192,192,201657,1,0,0:0:0:0:
320,192,201657,1,0,0:0:0:0:
64,192,201657,1,0,0:0:0:0:
448,192,201877,1,0,0:0:0:0:
320,192,201877,1,0,0:0:0:0:
448,192,202098,1,0,0:0:0:0:
320,192,202098,1,0,0:0:0:0:
192,192,202208,1,0,0:0:0:0:
448,192,202318,1,0,0:0:0:0:
64,192,202429,1,0,0:0:0:0:
320,192,202539,1,0,0:0:0:0:
192,192,202539,1,0,0:0:0:0:
448,192,202649,1,0,0:0:0:0:
320,192,202759,1,0,0:0:0:0:
64,192,202870,1,0,0:0:0:0:
448,192,202980,1,0,0:0:0:0:
320,192,202980,1,0,0:0:0:0:
192,192,203090,1,0,0:0:0:0:
448,192,203201,1,0,0:0:0:0:
64,192,203311,1,0,0:0:0:0:
320,192,203421,1,0,0:0:0:0:
192,192,203421,1,0,0:0:0:0:
64,192,203532,1,0,0:0:0:0:
320,192,203642,1,0,0:0:0:0:
64,192,203752,1,0,0:0:0:0:
448,192,203862,1,0,0:0:0:0:
320,192,203862,1,0,0:0:0:0:
192,192,203973,1,0,0:0:0:0:
448,192,204083,1,0,0:0:0:0:
64,192,204193,1,0,0:0:0:0:
320,192,204304,1,0,0:0:0:0:
192,192,204304,1,0,0:0:0:0:
192,192,204524,1,0,0:0:0:0:
64,192,204524,1,0,0:0:0:0:
448,192,204745,1,0,0:0:0:0:
64,192,204745,1,0,0:0:0:0:
320,192,204855,1,0,0:0:0:0:
192,192,204965,1,0,0:0:0:0:
64,192,204965,1,0,0:0:0:0:
448,192,205186,1,0,0:0:0:0:
192,192,205186,1,0,0:0:0:0:
320,192,205296,1,0,0:0:0:0:
64,192,205296,1,0,0:0:0:0:
192,192,205407,1,0,0:0:0:0:
64,192,205517,1,0,0:0:0:0:
448,192,205627,1,0,0:0:0:0:
320,192,205627,1,0,0:0:0:0:
192,192,205737,1,0,0:0:0:0:
64,192,205848,1,0,0:0:0:0:
64,192,205958,1,0,0:0:0:0:
448,192,206068,1,0,0:0:0:0:
320,192,206068,1,0,0:0:0:0:
192,192,206068,1,0,0:0:0:0:
192,192,206179,1,0,0:0:0:0:
448,192,206289,1,0,0:0:0:0:
448,192,206399,1,0,0:0:0:0:
320,192,206509,1,0,0:0:0:0:
192,192,206509,1,0,0:0:0:0:
64,192,206509,1,0,0:0:0:0:
448,192,206620,1,0,0:0:0:0:
64,192,206730,1,0,0:0:0:0:
64,192,206840,1,0,0:0:0:0:
448,192,206951,1,0,0:0:0:0:
320,192,206951,1,0,0:0:0:0:
192,192,206951,1,0,0:0:0:0:
64,192,207061,1,0,0:0:0:0:
320,192,207171,1,0,0:0:0:0:
320,192,207282,1,0,0:0:0:0:
448,192,207392,1,0,0:0:0:0:
64,192,207392,1,0,0:0:0:0:
192,192,207392,1,0,0:0:0:0:
192,192,207502,1,0,0:0:0:0:
64,192,207612,1,0,0:0:0:0:
64,192,207723,1,0,0:0:0:0:
320,192,207833,1,0,0:0:0:0:
448,192,207833,1,0,0:0:0:0:
192,192,207833,1,0,0:0:0:0:
192,192,207943,1,0,0:0:0:0:
448,192,208054,1,0,0:0:0:0:
448,192,208164,1,0,0:0:0:0:
320,192,208274,1,0,0:0:0:0:
64,192,208274,1,0,0:0:0:0:
192,192,208274,1,0,0:0:0:0:
448,192,208495,1,0,0:0:0:0:
320,192,208495,1,0,0:0:0:0:
64,192,208495,1,0,0:0:0:0:
448,192,208715,1,0,0:0:0:0:
320,192,208715,1,0,0:0:0:0:
64,192,208715,1,0,0:0:0:0:
64,192,208936,1,0,0:0:0:0:
64,192,209046,1,0,0:0:0:0:
448,192,209157,1,0,0:0:0:0:
320,192,209157,1,0,0:0:0:0:
320,192,209377,1,0,0:0:0:0:
192,192,209377,1,0,0:0:0:0:
448,192,209598,1,0,0:0:0:0:
64,192,209598,1,0,0:0:0:0:
192,192,209598,1,0,0:0:0:0:
320,192,209598,1,0,0:0:0:0:
320,192,209818,1,0,0:0:0:0:
192,192,209818,1,0,0:0:0:0:
64,192,210039,1,0,0:0:0:0:
448,192,210039,1,0,0:0:0:0:
192,192,210039,1,0,0:0:0:0:
320,192,210039,1,0,0:0:0:0:
320,192,210259,1,0,0:0:0:0:
192,192,210259,1,0,0:0:0:0:
448,192,210480,1,0,0:0:0:0:
64,192,210480,1,0,0:0:0:0:
192,192,210480,1,0,0:0:0:0:
320,192,210480,1,0,0:0:0:0:
320,192,210701,1,0,0:0:0:0:
192,192,210701,1,0,0:0:0:0:
192,192,210921,1,0,0:0:0:0:
320,192,210921,1,0,0:0:0:0:
64,192,211142,1,0,0:0:0:0:
448,192,211142,1,0,0:0:0:0:
192,192,211142,1,0,0:0:0:0:
320,192,211142,1,0,0:0:0:0:
320,192,211362,1,0,0:0:0:0:
192,192,211362,1,0,0:0:0:0:
448,192,211583,1,0,0:0:0:0:
64,192,211583,1,0,0:0:0:0:
192,192,211583,1,0,0:0:0:0:
320,192,211583,1,0,0:0:0:0:
192,192,211804,1,0,0:0:0:0:
320,192,211804,1,0,0:0:0:0:
448,192,212024,1,0,0:0:0:0:
64,192,212024,1,0,0:0:0:0:
192,192,212024,1,0,0:0:0:0:
320,192,212024,1,0,0:0:0:0:
192,192,212245,1,0,0:0:0:0:
320,192,212245,1,0,0:0:0:0:
448,192,212465,1,0,0:0:0:0:
64,192,212465,1,0,0:0:0:0:
192,192,212465,1,0,0:0:0:0:
320,192,212465,1,0,0:0:0:0:
448,192,212686,128,0,213127:0:0:0:0:
320,192,212686,128,0,213127:0:0:0:0:
192,192,212686,128,0,213127:0:0:0:0:
64,192,212686,128,0,213127:0:0:0:0:
