osu file format v9

[General]
AudioFilename: 02 Pressure.mp3
AudioLeadIn: 0
PreviewTime: 80707
Countdown: 1
SampleSet: Normal
StackLeniency: 0.7
Mode: 0
LetterboxInBreaks: 1

[Editor]
Bookmarks: 31644,79696
DistanceSpacing: 0.85
BeatDivisor: 4
GridSize: 8

[Metadata]
Title:Pressure
Artist:Paramore
Creator:EEeee
Version:Pressured
Source:
Tags:Hayley Williams All We Know Is Falling

[Difficulty]
HPDrainRate:7
CircleSize:5
OverallDifficulty:7
ApproachRate:7
SliderMultiplier:1.8
SliderTickRate:2

[Events]
//Background and Video events
0,0,"paramore.jpg"
Video,-200,"Paramore Pressure [OFFICIAL VIDEO].flv"
//Break Periods
2,59621,63891
//Storyboard Layer 0 (Background)
//Storyboard Layer 1 (Fail)
//Storyboard Layer 2 (Pass)
//Storyboard Layer 3 (Foreground)
//Storyboard Sound Samples
//Background Colour Transformations
3,100,0,0,0

[TimingPoints]
5347,370.37037037037,4,1,2,70,1,0
11919,-100,4,1,1,60,0,0
23773,-100,4,1,1,70,0,0
35718,-100,4,1,1,80,0,1
59235,-100,4,1,0,80,0,1
59842,-100,4,1,1,60,0,0
71192,-100,4,1,2,70,0,0
83030,-100,4,1,1,80,0,0
83122,-100,4,1,1,80,0,1
106365,-100,4,1,2,80,0,1
106624,-100,4,1,2,70,0,0
124503,-100,4,1,1,50,0,0
136448,-100,4,1,1,70,0,0
148217,-100,4,1,2,5,0,0
149439,-100,4,1,1,51,0,0
151170,-100,4,1,1,80,0,0
151262,-100,4,1,1,80,0,1
174884,-100,4,1,0,80,0,0
174976,-100,4,1,2,80,0,1
176594,-100,4,1,1,80,0,0

[Colours]
Combo1 : 234,0,0
Combo2 : 0,0,119
Combo3 : 255,255,0

[HitObjects]
176,40,5346,1,0
176,40,5439,1,0
176,40,5532,1,0
176,40,5717,2,0,B|80:40,1,90
256,40,6272,6,0,B|432:136,1,180
480,176,6828,2,0,B|480:272,1,90
400,232,7198,2,0,B|312:312,1,90
256,112,7754,2,0,B|80:208,1,180
32,248,8309,2,0,B|32:344,1,90
112,304,8680,2,0,B|200:384,1,90
256,192,9235,6,0,B|256:400,1,180
328,328,9791,2,0,B|351:281|329:241,1,90
182,241,10161,2,0,B|161:281|184:328,1,90
256,192,10717,2,0,B|256:-16,1,180
328,56,11272,2,0,B|351:103|329:143,1,90
182,142,11643,2,0,B|161:103|184:56,1,90
256,104,12013,5,0
256,104,12198,1,0
256,104,12384,1,0
24,352,13124,6,0,B|112:368|112:368|176:264,1,180
72,280,13680,1,0
72,280,13865,1,0
488,352,14606,2,0,B|400:368|400:368|336:264,1,180
440,280,15161,1,0
440,280,15347,1,0
24,32,16087,6,0,B|112:16|112:16|176:120,1,180
72,104,16643,1,0
72,104,16828,1,0
488,32,17569,2,0,B|400:16|400:16|336:120,1,180
440,104,18124,1,0
440,104,18309,1,0
23,351,19050,6,0,B|112:368|112:368|159:290,1,180
72,280,19606,1,0
72,280,19791,1,0
487,352,20532,2,0,B|400:368|400:368|352:290,1,180
440,280,21087,1,0
440,280,21272,1,0
56,56,22013,6,0,B|104:104|-40:152|48:248,1,180
64,296,22569,1,0
136,344,22754,1,0
216,360,22939,1,0
256,360,23032,1,0
296,352,23124,1,0
376,328,23309,1,0
440,272,23495,1,0
480,192,23680,1,0
464,104,23865,5,0
48,104,24235,1,0
256,360,24606,1,0
168,40,24976,1,0
256,56,25161,1,0
344,40,25346,1,0
48,104,25717,5,0
464,104,26087,1,0
168,344,26458,1,0
256,328,26643,1,0
344,344,26828,1,0
464,104,27198,5,0
48,104,27569,1,0
344,344,27939,1,0
256,328,28124,1,0
168,344,28309,1,0
48,104,28680,5,0
464,104,29050,1,0
168,344,29421,1,0
256,328,29606,1,0
344,344,29791,1,0
48,280,30161,5,0
464,280,30532,1,0
192,216,30902,1,0
320,216,31087,1,0
256,328,31272,1,0
48,192,31643,5,0
464,192,32013,1,0
192,128,32384,1,0
320,128,32569,1,0
256,240,32754,1,0
48,104,33124,5,0
472,104,33495,1,0
256,240,33865,1,0
256,240,34050,1,0
256,240,34235,1,0
312,280,34421,1,0
288,312,34513,1,0
256,328,34606,1,0
224,312,34698,1,0
200,280,34791,1,0
176,208,34976,1,0
176,168,35069,1,0
192,136,35161,1,0
216,104,35254,1,0
256,96,35346,1,0
296,104,35439,1,0
320,136,35532,1,0
336,168,35624,1,0
336,208,35717,6,4,B|382:391|108:390|186:166,1,360
336,176,36828,2,4,B|382:-7|108:-6|186:218,1,360
416,192,37939,1,4
416,192,38309,1,4
64,40,39050,5,4
448,40,39421,1,4
136,344,39791,1,4
376,344,40161,1,4
296,344,40346,1,0
216,344,40532,1,0
136,344,40717,1,0
184,280,40902,2,4,B|256:232|256:232|344:288,3,180
488,192,42384,5,4
416,48,42754,2,4,B|312:153|292:-21|174:-2|64:56,1,360
24,192,43865,1,4
96,336,44235,2,4,B|201:230|221:405|339:386|448:328,1,360
488,192,45346,1,4
416,48,45717,2,4,B|312:153|292:-21|174:-2|144:32,1,270
96,24,46458,2,0,B|32:40|48:120|0:48,5,90
32,152,47569,6,4,B|77:335|318:205|144:44,1,360
480,152,48680,2,4,B|434:335|193:205|367:44,1,360
256,208,49791,1,4
256,208,50161,1,4
448,40,50902,5,4
64,40,51272,1,4
376,344,51643,1,4
136,344,52013,1,4
216,344,52198,1,0
296,344,52384,1,0
376,344,52569,1,0
328,280,52754,2,4,B|256:232|256:232|168:288,3,180
32,192,54235,5,4
144,64,54606,2,4,B|256:208|256:208|368:48,1,360
480,192,55717,1,4
368,320,56087,2,4,B|256:176|256:176|144:336,1,360
32,192,57198,1,4
256,192,57569,12,4,59421
104,32,64791,5,0
104,32,64976,1,0
16,184,65346,1,0
104,184,65532,1,0
192,184,65717,2,0,B|408:184|408:184|520:312,1,360,0|0
480,136,66828,5,0
448,56,67013,1,0
360,56,67198,2,0,B|144:56|144:56|-16:144,1,360
16,336,68309,5,0
104,336,68495,1,0
192,336,68680,2,0,B|344:248|344:248|520:344,1,360
480,168,69791,5,0
440,96,69976,1,0
368,48,70161,1,0
288,24,70346,1,0
248,24,70439,1,0
208,24,70532,2,0,B|112:40,1,90
56,96,70902,2,0,B|16:192,1,90
40,256,71272,6,0,B|224:368,1,180
96,208,72013,2,0,B|280:320,1,180
336,304,72569,1,0
304,224,72754,2,0,B|150:130,1,180
360,176,73495,2,0,B|206:82,1,180
256,8,74050,5,0
305,82,74235,2,0,B|152:176,1,180
361,130,74976,2,0,B|208:224,1,180
176,304,75532,1,0
256,344,75717,1,0
176,192,76087,1,0
344,192,76458,1,0
336,24,76828,1,0
256,48,77013,1,0
176,24,77198,1,0
40,128,77569,5,0
16,296,77939,1,0
176,352,78309,1,0
256,320,78495,1,0
336,336,78680,1,0
480,248,79050,2,0,B|456:168|512:64,1,180
336,48,79791,1,0
256,64,79976,1,0
176,32,80161,1,0
112,192,80532,2,0,B|212:240|275:203|282:164,2,180
40,144,81458,1,0
48,56,81643,5,0
128,24,81828,1,0
216,40,82013,1,0
248,120,82198,1,0
304,56,82384,1,0
352,128,82569,1,0
408,56,82754,5,0
408,56,82939,1,0
408,56,83124,2,4,B|512:128|368:232|360:240|368:312|440:336|504:344,1,360
256,56,84235,2,4,B|152:128|296:232|304:240|296:312|224:336|160:344,1,360
40,288,85347,1,4
24,136,85717,2,4,B|57:21|134:144|150:29,2,180
40,288,86828,1,4
184,352,87198,1,4
336,344,87569,2,0,B|416:280,1,90,4|0
480,256,87939,2,0,B|400:192,1,90
344,160,88309,2,4,B|227:149|167:83,3,180
24,176,89791,5,4
96,336,90161,2,4,B|256:240|448:344,1,360
488,176,91272,1,4
432,16,91643,2,4,B|248:115|88:19,1,360
24,176,92754,1,0
96,336,93124,2,4,B|256:240|384:320,1,270
424,256,93865,1,0
360,200,94050,1,0
280,168,94235,1,0
192,152,94421,1,0
104,152,94606,1,0
24,176,94791,1,0
16,88,94976,6,4,B|144:48|240:40|384:88,1,360
16,296,96087,2,4,B|144:336|240:344|384:296,1,360
152,192,97198,1,4
152,192,97569,1,4
416,40,98309,5,4
416,192,98680,1,4
416,344,99050,1,4
416,192,99421,1,4
368,136,99606,1,0
320,80,99791,1,0
264,136,99976,1,0
216,192,100161,2,4,B|128:256|128:256|56:232,3,180
128,368,101643,5,4
280,368,102013,2,4,B|448:240|328:32,1,360
384,368,103124,1,4
232,368,103495,2,4,B|64:240|184:32,1,360
256,336,104606,1,4
368,208,104976,2,4,B|256:-64|136:232,2,360
256,336,106828,5,0
256,336,107013,1,0
256,336,107198,2,0,B|160:328,1,90
80,312,107569,2,0,B|24:216,1,90
8,152,107939,2,0,B|40:96|80:80,1,90
208,184,108495,5,0
208,184,108680,2,0,B|296:256,1,90
352,280,109050,2,0,B|416:280,4,45
352,280,109606,1,0
464,152,109976,6,0,B|368:144,2,90
480,64,110532,2,0,B|368:56,1,90
312,96,110902,2,0,B|284:106|252:162,1,90
112,72,111458,5,0
56,136,111643,2,0,B|63:211|143:209,1,90
160,144,112013,1,0
160,144,112106,1,0
160,144,112198,1,0
160,144,112291,1,0
160,144,112384,1,0
176,224,112569,6,0,B|248:304|248:392,2,180
96,256,113495,2,0,B|142:295|140:330,1,90
64,360,113865,2,0,B|8:344|24:280,1,90
56,128,114421,2,0,B|216:80|248:48,1,180
304,48,114976,2,0,B|368:56|424:48,1,90
480,64,115347,2,0,B|456:168,1,90
456,320,115902,6,0,B|400:272|336:360|272:312,1,180
208,280,116458,2,0,B|160:240|128:312,1,90
56,264,116828,2,0,B|72:208|56:160,1,90
160,32,117384,2,0,B|232:32|272:72|352:40,1,180
424,24,117939,2,0,B|472:56|464:112,1,90
376,104,118309,2,0,B|432:224,1,90
256,120,118865,6,0,B|248:192|384:216|376:288,1,180
424,320,119421,1,0
424,320,119606,1,0
336,336,119791,1,0
336,336,119976,1,0
256,120,120347,2,0,B|264:192|128:216|136:288,1,180
88,320,120902,1,0
88,320,121087,1,0
176,336,121272,1,0
176,336,121458,1,0
256,296,121643,5,0
312,232,121828,1,0
328,152,122013,1,0
312,72,122198,1,0
256,8,122384,1,0
200,72,122569,1,0
184,152,122754,1,0
200,232,122939,1,0
256,296,123124,5,0
312,232,123309,1,0
200,232,123495,1,0
328,152,123680,1,0
184,152,123865,1,0
312,72,124050,1,0
200,72,124235,1,0
256,8,124421,1,0
256,8,124606,6,0,B|256:192,3,180
336,192,125902,1,0
336,112,126087,2,0,B|520:112,3,180
512,192,127384,1,0
432,192,127569,2,0,B|432:384,3,180
512,368,128865,1,0
512,288,129050,2,0,B|328:288,3,180
256,288,130347,1,0
256,368,130532,6,0,B|56:368,1,180
8,232,131272,2,0,B|192:232,1,180
256,192,131828,1,0
304,128,132013,6,0,B|504:128,1,180
360,40,132754,2,0,B|176:40,1,180
104,40,133309,1,0
56,96,133495,2,0,B|16:152|120:224|64:288,2,180
184,176,134606,1,0
256,192,134791,1,0
328,176,134976,2,0,B|360:120|448:168|488:160|480:96,2,180
328,176,135809,1,0
328,176,135902,1,0
328,176,135995,1,0
328,176,136087,1,0
328,176,136180,1,0
328,176,136272,1,0
328,176,136365,1,0
328,176,136458,1,0
320,264,136643,5,0
320,264,136735,1,0
320,264,136828,2,0,B|387:320|504:312,2,180
328,176,137754,1,0
280,104,137939,2,0,B|168:88|104:8,3,180
48,72,139235,1,0
32,112,139328,1,0
32,152,139421,1,0
64,232,139606,5,0
64,232,139698,1,0
64,232,139791,2,0,B|128:296|144:400,2,180
152,232,140717,1,0
232,216,140902,2,0,B|136:144|192:48,3,180
256,16,142198,1,0
296,0,142291,1,0
336,8,142384,1,0
328,96,142569,5,0
328,96,142661,1,0
328,96,142754,2,0,B|456:88|520:64,2,180
296,176,143680,1,0
368,224,143865,2,0,B|472:240|496:344,3,180
408,352,145161,1,0
368,360,145254,1,0
328,360,145347,1,0
248,336,145532,1,0
208,328,145624,1,0
168,336,145717,1,0
168,168,146087,2,0,B|256:136|360:176,1,180
256,192,146828,12,0,148309
24,120,150532,5,0
24,120,150902,1,0
24,120,151272,2,4,B|136:72|176:248|384:80,1,360
360,248,152384,2,4,B|248:200|208:376|0:208,1,360
88,360,153495,1,4
240,360,153865,1,4
488,176,154606,5,4
408,40,154976,1,4
256,32,155347,1,4
104,40,155717,2,4,B|189:166|64:136|8:224|112:272,1,270
256,32,156828,2,4,B|247:184|339:93|487:153|359:343,1,360
216,352,157939,5,4
48,352,158309,2,4,B|120:240|-136:152|24:32,1,360
192,32,159421,1,4
360,32,159791,2,4,B|321:159|591:173|471:332,1,360
304,352,160902,1,4
136,352,161272,2,4,B|16:352|32:48|184:56,1,360
256,192,162384,2,0,B|256:240,8,45,4|0|0|0|4|0|0|0|4
152,304,163495,1,4
48,192,163865,5,4
48,192,164235,2,4,B|72:80|176:32|264:80|304:216,1,360
464,192,165347,1,4
464,192,165717,2,4,B|440:80|336:32|248:80|208:216,1,360
176,336,166828,1,4
336,336,167198,1,4
96,192,167569,5,4
176,192,167754,1,0
256,192,167939,1,0
336,192,168124,1,0
416,192,168309,2,4,B|496:96|496:96|432:24,3,180
256,192,169791,12,4,172384
256,192,172754,12,4,174976
