osu file format v9

[General]
AudioFilename: 02 Pressure.mp3
AudioLeadIn: 0
PreviewTime: 80707
Countdown: 1
SampleSet: Normal
StackLeniency: 0.7
Mode: 0
LetterboxInBreaks: 1

[Editor]
Bookmarks: 31644,79696
DistanceSpacing: 0.8
BeatDivisor: 4
GridSize: 8

[Metadata]
Title:Pressure
Artist:Paramore
Creator:EEeee
Version:Compressed
Source:
Tags:Hayley Williams All We Know Is Falling

[Difficulty]
HPDrainRate:4
CircleSize:4
OverallDifficulty:4
ApproachRate:4
SliderMultiplier:1
SliderTickRate:1

[Events]
//Background and Video events
0,0,"paramore.jpg"
Video,-200,"Paramore Pressure [OFFICIAL VIDEO].flv"
//Break Periods
2,59621,63471
//Storyboard Layer 0 (Background)
//Storyboard Layer 1 (Fail)
//Storyboard Layer 2 (Pass)
//Storyboard Layer 3 (Foreground)
//Storyboard Sound Samples
//Background Colour Transformations
3,100,0,0,0

[TimingPoints]
5347,370.37037037037,4,1,1,70,1,0
11919,-100,4,1,2,60,0,0
23773,-100,4,1,1,70,0,0
35718,-100,4,1,1,80,0,1
59235,-100,4,1,2,80,0,1
59842,-100,4,1,2,60,0,0
71192,-100,4,1,1,70,0,0
83030,-100,4,1,1,80,0,0
83122,-100,4,1,1,80,0,1
106624,-100,4,1,2,70,0,0
113495,-100,4,1,1,70,0,0
114235,-100,4,1,2,70,0,0
114976,-100,4,1,1,70,0,0
115717,-100,4,1,2,70,0,0
116458,-100,4,1,1,70,0,0
117198,-100,4,1,2,70,0,0
117939,-100,4,1,1,70,0,0
118680,-100,4,1,2,70,0,0
119421,-100,4,1,1,70,0,0
124503,-100,4,1,1,50,0,0
136448,-100,4,1,1,70,0,0
148124,-100,4,1,1,5,0,0
149439,-100,4,1,1,70,0,0
151170,-100,4,1,1,80,0,0
151262,-100,4,1,1,80,0,1
169606,-100,4,1,2,80,0,1
174884,-100,4,1,0,80,0,0
174976,-100,4,1,2,80,0,1
176594,-100,4,1,1,80,0,0

[Colours]
Combo1 : 234,0,0
Combo2 : 0,0,119
Combo3 : 255,255,0

[HitObjects]
32,40,12013,1,0
32,40,12384,2,0,B|32:248,1,200
104,96,13865,2,0,B|104:304,1,200
176,152,15347,2,0,B|176:360,1,200
336,352,16828,6,0,B|336:152,1,200
408,296,18309,2,0,B|408:88,1,200
480,248,19791,2,0,B|480:40,1,200
360,152,21272,6,0,B|256:168|256:168|152:152,1,200
256,192,22384,12,4,23865
32,112,24235,6,0,B|144:112,1,100
128,192,24976,2,0,B|128:264,2,50
208,192,25717,2,0,B|320:192,1,100
304,112,26458,2,0,B|304:40,2,50
384,112,27198,6,0,B|484:112,1,100
488,192,27939,2,0,B|488:264,2,50
408,192,28680,2,0,B|408:296,1,100
328,296,29421,2,0,B|328:368,2,50
256,256,30161,6,0,B|256:368,1,100
176,352,30902,2,0,B|176:296,2,50
96,344,31643,2,0,B|96:232,1,100
16,248,32384,2,0,B|16:304,2,50
16,168,33124,2,0,B|16:56,1,100
256,192,33865,12,4,35717
112,128,36458,5,4
112,208,36828,1,4
32,344,37569,1,4
112,344,37939,1,4
192,344,38309,1,4
352,344,39050,6,4,B|352:232,2,100
432,344,40161,2,4,B|432:184,1,150
432,72,41272,2,4,B|224:72,1,200
152,72,42384,5,4
72,72,42754,2,4,B|72:288,2,200
312,72,45346,5,4
392,72,45717,2,4,B|392:288,2,200
472,72,47569,6,4,B|504:168|472:280,1,200
392,272,48680,2,4,B|288:272|192:352,2,200
256,192,50902,6,4,B|256:80,2,100
176,192,52013,2,4,B|136:248|216:256|168:336,2,150
352,32,54235,5,4
352,32,54606,2,4,B|256:62|256:62|136:25,1,200
160,112,55717,1,4
160,112,56087,2,4,B|256:142|256:142|376:105,1,200
256,192,57198,12,4,59421
256,48,64791,6,0,B|256:104,1,50
176,96,65346,1,0
176,96,65717,2,0,B|106:192|106:192|18:218,2,200
336,96,67939,2,0,B|405:192|405:192|493:218,2,200
256,192,69791,12,4,71272
480,112,71643,6,0,B|368:112,1,100
384,192,72384,2,0,B|384:264,2,50
304,192,73124,2,0,B|192:192,1,100
208,112,73865,2,0,B|208:40,2,50
128,112,74606,6,0,B|28:112,1,100
24,192,75346,2,0,B|24:264,2,50
104,192,76087,2,0,B|104:296,1,100
184,296,76828,2,0,B|184:368,2,50
256,256,77569,6,0,B|256:368,1,100
336,352,78309,2,0,B|336:296,2,50
416,344,79050,2,0,B|416:232,1,100
496,248,79791,2,0,B|496:304,2,50
496,168,80532,6,0,B|496:56,1,100
416,64,81272,2,0,B|352:64,10,50,0|0|0|0|0|0|0|0|0|0|4
256,64,83865,5,4
256,144,84235,1,4
336,280,84976,1,4
256,280,85347,1,4
176,280,85717,1,4
16,280,86458,6,4,B|16:168,2,100
96,280,87569,2,4,B|96:120,1,150
176,40,88680,2,4,B|176:256,1,200
176,320,89791,5,4
256,320,90161,2,4,B|472:320,2,200
256,80,92754,5,4
256,160,93124,2,4,B|472:160,2,200
256,240,94976,6,4,B|154:269|58:237,1,200
56,160,96087,2,4,B|151:128|252:157,2,200
192,240,98309,6,4,B|192:352,2,100
272,240,99421,2,4,B|328:200|336:280|416:232,2,150
160,32,101643,5,4
160,32,102013,2,4,B|256:62|256:62|376:25,1,200
352,112,103124,1,4
352,112,103495,2,4,B|256:142|256:142|136:105,1,200
256,192,104606,12,4,106828
16,32,107198,5,0
96,32,107569,1,0
176,32,107939,2,0,B|176:104,1,50
176,200,108680,1,0
256,200,109050,1,0
336,200,109421,2,0,B|336:272,1,50
336,128,110161,5,0
256,128,110532,1,0
176,128,110902,2,0,B|176:200,1,50
176,296,111643,1,0
96,296,112013,1,0
16,296,112384,2,0,B|16:368,1,50,0|4
96,296,112939,6,0,B|72:144,2,150
176,296,114421,2,0,B|152:128,2,150
256,296,115902,2,0,B|256:128,2,150
336,296,117384,2,0,B|360:136,2,150
416,296,118865,2,0,B|440:136,2,150
256,192,120161,12,0,121272
256,192,121643,6,0,B|256:136,16,50
176,192,124976,5,0
96,192,125347,1,0
16,192,125717,2,0,B|16:256,2,50
16,112,126458,5,0
96,112,126828,1,0
176,112,127198,2,0,B|176:48,2,50
256,112,127939,5,0
336,112,128309,1,0
416,112,128680,2,0,B|416:48,2,50
496,112,129421,5,0
496,192,129791,1,0
496,272,130161,2,0,B|496:336,2,50
416,272,130902,5,0
360,216,131272,1,0
296,168,131643,2,0,B|337:119,2,50
216,168,132384,5,0
152,216,132754,1,0
96,272,133124,2,0,B|54:320,2,50
152,216,133865,5,0
216,168,134235,1,0
256,96,134606,2,0,B|256:40,2,50
296,168,135347,5,0
360,216,135717,2,0,B|360:248,8,25
440,224,136828,5,0
440,144,137198,1,0
440,64,137569,1,0
440,64,137754,1,0
440,64,137939,1,0
360,64,138309,5,0
280,64,138680,1,0
200,64,139050,2,0,B|136:64,2,50
200,144,139791,5,0
280,144,140161,1,0
360,144,140532,1,0
360,144,140717,1,0
360,144,140902,1,0
440,144,141272,5,0
440,224,141643,1,0
440,304,142013,2,0,B|440:368,2,50
360,304,142754,6,0,B|256:304,1,100
176,304,143495,1,0
176,304,143680,1,0
176,304,143865,1,0
96,304,144235,6,0,B|96:192,1,100
96,120,144976,2,0,B|96:64,2,50
176,120,145717,6,0,B|280:120,1,100
360,120,146458,1,0
400,120,146643,1,0
440,120,146828,1,0
256,192,147013,12,0,148309
72,48,150532,5,0
72,48,150902,1,0
72,48,151272,2,4,B|40:104|128:192|64:256,1,200
48,320,152384,2,4,B|136:384|264:344,1,200
320,352,153495,1,4
320,352,153865,1,4
320,192,154606,5,4
296,112,154976,1,4
320,32,155347,1,4
400,32,155717,2,4,B|400:200,2,150
256,224,157939,6,4,B|256:344,1,100
96,320,159050,2,4,B|96:112,2,200
16,320,160902,6,4,B|16:200,3,100
16,136,162384,2,0,B|16:96,8,25,0|0|0|0|0|0|0|0|4
160,64,163865,5,4
160,64,164235,2,4,B|256:94|256:94|376:57,1,200
424,96,165347,1,4
424,96,165717,2,4,B|424:192|424:192|400:312,1,200
336,336,166828,5,4
256,336,167198,1,4
176,336,167569,1,4
256,336,167939,2,0,B|256:272,8,50,0|0|0|0|4|0|4|0|4
256,192,169791,12,4,172384
256,192,172754,12,4,174976
