osu file format v7

[General]
AudioFilename: Paramore - Looking Up.mp3
AudioLeadIn: 1000
PreviewTime: 41852
Countdown: 0
SampleSet: Normal
StackLeniency: 0.7
Mode: 0
LetterboxInBreaks: 0

[Editor]
Bookmarks: 10015,71240,115322,125117,139811,159403,176546,183893,193689
DistanceSpacing: 0.8
BeatDivisor: 4
GridSize: 8

[Metadata]
Title:Looking Up
Artist:Paramore
Creator:Lesjuh
Version:Normal
Source:
Tags:Gladi Symbolic collab

[Difficulty]
HPDrainRate:4
CircleSize:4
OverallDifficulty:5
ApproachRate:5
SliderMultiplier:1.2
SliderTickRate:2

[Events]
//Background and Video events
0,0,"Background.png"
//Break Periods
2,61338,70040
2,115522,123917
//Storyboard Layer 0 (Background)
//Storyboard Layer 1 (Fail)
//Storyboard Layer 2 (Pass)
Sprite,Pass,Centre,"Flash.png",320,240 M,0,41852,,321,240 S,0,41852,,0.63136 F,0,41852,42464,1,0 F,0,46750,47362,1,0.05228758 F,0,47362,47453,0.05228758,0.04527012 F,0,51648,52260,1,0.04527012 F,0,93281,93893,1,0 F,0,103077,103689,1,0.01960784 F,0,139811,140424,1,0.03082146 F,0,149607,150220,1,0.03082146 F,0,159403,160015,1,0.04188874 F,0,176546,177158,1,0
//Storyboard Layer 3 (Foreground)
Sprite,Foreground,Centre,"Lesjuh.png",320,240 M,0,10015,,544,440 S,0,10015,,0.6313599 F,0,10015,11240,0,1 F,0,61444,62668,1,0 F,0,62668,,0 F,0,62668,,0 F,0,125117,126342,0,1 F,0,126342,138587,1 F,0,138587,139811,1,0 F,0,139811,159403,0 F,0,159403,160628,0,1 F,0,160628,,1 F,0,169199,170424,0.9938099,0 F,0,170424,,0 F,0,170424,183893,0,0.07139203 F,0,183893,185117,0.07139203,1 F,0,185117,193689,1 F,0,193689,194913,1,0
Sprite,Foreground,Centre,"fade.png",320,240 M,0,42158,,46,241 F,0,42158,42464,1,0 F,0,42771,43077,1,0.05555558 F,0,43383,43689,1,0.08950622 F,0,43995,44301,1,0.08950622 F,0,44607,44913,1,0.08950622 F,0,45220,45526,1,0.08950622 F,0,45832,46138,1,0.08950622 F,0,46444,46750,1,0.08950622 F,0,47056,47362,1,0.08950622 F,0,47668,47975,1,0.08950622 F,0,48281,48587,1,0.08950622 F,0,48893,49199,1,0.08950622 F,0,49505,49811,1,0.08950622 F,0,50117,50424,1,0.08950622 F,0,50424,,0.08950622 F,0,50730,51036,1,0.08950622 F,0,51036,,0.08950622 F,0,51342,51572,1,0 F,0,51648,51954,1,0.08950622 F,0,52873,53179,1,0.1400892 F,0,54097,54403,1,0.1400892 F,0,55322,55628,1,0.1400892 F,0,56546,56852,1,0.1400892 F,0,57771,58077,1,0.1400892 F,0,58995,59301,1,0.1400892 F,0,60220,60526,1,0.1400892 F,0,93587,93893,1,0.08950622 F,0,94199,94505,1,0.08950622 F,0,94811,95117,1,0.08950622 F,0,95424,95730,1,0.08950622 F,0,96036,96342,1,0.08950622 F,0,96648,96954,1,0.08950622 F,0,97260,97566,1,0.08950622 F,0,97873,98179,1,0.08950622 F,0,98485,98791,1,0.08950622 F,0,99097,99403,1,0.08950622 F,0,99709,100015,1,0.08950622 F,0,100322,100628,1,0.08950622 F,0,100934,101240,1,0.08950622 F,0,101546,101852,1,0.08950622 F,0,102158,102464,1,0.08950622 F,0,102771,103000,1,0.08950622 F,0,103077,103383,1,0.08950622 F,0,104301,104607,1,0.08950622 F,0,105526,105832,1,0.1192609 F,0,106750,107056,1,0.1192609 F,0,107975,108281,1,0.1192609 F,0,109199,109505,1,0.1192609 F,0,109505,,0 F,0,110424,,1 F,0,110424,,1 F,0,110424,110730,1,0 F,0,110730,,0 F,0,111648,,1 F,0,111648,111954,1,0 F,0,111954,,0,0.1192609 F,0,112873,113179,1,0 F,0,114097,114403,1,0.02941179 F,0,114709,115015,1,0.02941179 F,0,115322,115628,1,0.02941179 F,0,140117,140424,1,0.02941179 F,0,140730,141036,1,0.02941179 F,0,141342,141648,1,0.02941179 F,0,141954,142260,1,0.02941179 F,0,142566,142873,1,0.02941179 F,0,143179,143485,1,0.02941179 F,0,143791,144097,1,0.02941179 F,0,144403,144709,1,0.02941179 F,0,145015,145322,1,0.02941179 F,0,145628,145934,1,0.02941179 F,0,146240,146546,1,0.02941179 F,0,146852,147158,1,0.02941179 F,0,147464,147771,1,0.02941179 F,0,148077,148383,1,0.02941179 F,0,148689,148995,1,0.02941179 F,0,149301,149531,1,0.02941179 F,0,149607,149913,1,0.02941179 F,0,150832,151138,1,0.02941179 F,0,152056,152362,1,0.02941179 F,0,153281,153587,1,0.02941179 F,0,154505,154811,1,0.02941179 F,0,155730,156036,1,0.02941179 F,0,156954,157260,1,0.02941179 F,0,158179,158485,1,0.02941179 F,0,159403,159709,1,0.02941179 F,0,160628,160934,1,0.02941179 F,0,161852,162158,1,0.02941179 F,0,163077,163383,1,0.02941179 F,0,164301,164607,1,0.02941179 F,0,165526,165832,1,0.02941179 F,0,166750,167056,1,0.02941179 F,0,167975,168281,1,0.02941179 F,0,168281,,0.02941179
Sprite,Foreground,Centre,"fade.png",320,240 M,0,42158,,594,240 R,0,42158,,-9.4208 F,0,42158,42464,1,0.05882353 F,0,42771,43077,1,0.05882353 F,0,43383,43689,1,0.05882353 F,0,43995,44301,1,0.05882353 F,0,44607,44913,1,0.05882353 F,0,45220,45526,1,0.05882353 F,0,45832,46138,1,0.05882353 F,0,46444,46750,1,0.05882353 F,0,47056,47362,1,0.05882353 F,0,47668,47975,1,0.05882353 F,0,48281,48587,1,0.05882353 F,0,48893,49199,1,0.05882353 F,0,49505,49811,1,0.05882353 F,0,50117,50424,1,0.05882353 F,0,50730,51036,1,0.05882353 F,0,51342,51572,1,0 F,0,51648,51954,1,0 F,0,52873,53179,1,0.03921568 F,0,54097,54403,1,0.05177496 F,0,55322,55628,1,0.05177496 F,0,56546,56852,1,0.05177496 F,0,57771,58077,1,0.05177496 F,0,58995,59301,1,0.05177496 F,0,60220,60526,1,0.05177496 F,0,93587,93893,1,0 F,0,94199,94505,1,0 F,0,94811,95117,1,0 F,0,95117,,0 F,0,95424,95730,1,0 F,0,95730,,0 F,0,96036,,1 F,0,96036,96342,1,0 F,0,96036,96342,1,0 F,0,96648,96954,1,0 F,0,96954,,0 F,0,97260,,1 F,0,97260,97566,0.5648964,0 F,0,97260,97566,1,0 F,0,97566,,0 F,0,97566,,0 F,0,97873,98179,1,0 F,0,98179,,0 F,0,98485,98791,1,0 F,0,99097,,1 F,0,99097,,0.8004164 F,0,99097,,1 F,0,99097,99403,1,0 F,0,99709,,1 F,0,99709,100015,1,0 F,0,100015,,0 F,0,100322,,1 F,0,100322,100628,1,0 F,0,100628,,0 F,0,100934,101240,1,0 F,0,101240,,0 F,0,101240,,0 F,0,101546,101852,1,0 F,0,102158,102464,1,0 F,0,102464,,0.6659412 F,0,102464,,0 F,0,102771,,1 F,0,102771,103000,1,0 F,0,103077,103383,1,0 F,0,104301,104607,1,0 F,0,105526,105832,1,0 F,0,106750,107056,1,0 F,0,107975,108281,1,0 F,0,109199,109505,1,0 F,0,110424,110730,1,0 F,0,111648,111954,1,0 F,0,112873,113179,1,0 F,0,114097,114403,1,0 F,0,114709,115015,1,0 F,0,115322,115628,1,0 F,0,140117,140424,1,0.03594774 F,0,140730,141036,1,0.03548704 F,0,141342,141648,1,0 F,0,141954,142260,1,0 F,0,142566,142873,1,0 F,0,143179,143485,1,0 F,0,143791,144097,1,0 F,0,144403,144709,1,0 F,0,145015,145322,1,0 F,0,145322,,0 F,0,145628,145934,1,0 F,0,146240,146546,1,0 F,0,146852,147158,1,0 F,0,147464,147771,1,0 F,0,148077,148383,1,0 F,0,148689,148995,1,0 F,0,149301,149531,1,0 F,0,149531,,0.03594774 F,0,149531,,0 F,0,149531,,0 F,0,149531,,0 F,0,149607,149913,1,0.03594774 F,0,150832,,1 F,0,150832,,1 F,0,150832,151138,0.7629877,0.03594774 F,0,152056,152362,1,0.03832371 F,0,153281,153587,1,0.03832371 F,0,154505,154811,1,0.03832371 F,0,155730,156036,1,0.03832371 F,0,156954,157260,1,0.03832371 F,0,158179,158485,1,0.03832371 F,0,159403,159709,1,0.03832371 F,0,160628,160934,1,0.03832371 F,0,161852,162158,1,0.03832371 F,0,163077,163383,1,0.03832371 F,0,164301,164607,1,0.03832371 F,0,165526,165832,1,0.03832371 F,0,166750,167056,1,0.03832371 F,0,167975,168281,1,0.03832371
Sprite,Foreground,Centre,"Symbolic.png",320,240 M,0,71240,,509,439 S,0,71240,,0.6518405 F,0,71240,72464,0,1 F,0,115322,116546,1,0 F,0,139811,141036,0,1 F,0,158179,159327,0.9967347,0 F,0,176546,177771,0,1 F,0,182668,183893,0.9395918,0
//Storyboard Sound Samples
//Background Colour Transformations
3,100,0,0,0

[TimingPoints]
220,306.122448979592,4,1,0,50,1,0
41852,-100,4,1,0,50,0,1
43918,-100,4,1,1,50,0,1
44072,-100,4,1,0,50,0,1
45143,-100,4,1,1,50,0,1
45296,-100,4,1,0,50,0,1
51495,-100,4,1,0,50,0,0
51648,-100,4,1,0,50,0,1
61138,-100,4,1,0,50,0,0
93281,-100,4,1,0,50,0,1
103000,-100,4,1,0,50,0,0
103077,-100,4,1,0,50,0,1
115322,-100,4,1,0,50,0,0
139811,-100,4,1,0,50,0,1
149531,-100,4,1,0,50,0,0
149607,-100,4,1,0,50,0,1
159327,-100,4,1,0,50,0,0
159403,-100,4,1,0,50,0,1
169276,-100,4,1,0,50,0,0
169352,-100,4,1,0,50,0,1
169429,-100,4,1,0,50,0,0
193689,-100,4,1,0,50,0,0
193765,-100,4,2,0,0,0,1
193765,-100,4,2,0,0,0,0
193841,-100,4,2,0,0,0,0

[Colours]
Combo1 : 234,234,0
Combo2 : 193,0,0
Combo3 : 0,106,213
Combo4 : 0,215,0

[HitObjects]
48,96,10015,2,2,B|152:48|208:144,1,180,6|2
144,216,10781,1,0
144,216,10934,2,2,B|232:352|352:240,1,240,6|8
312,104,12005,1,0
312,104,12158,1,8
360,16,12464,6,2,B|304:112|400:176,1,180,6|2
480,208,13230,1,0
480,208,13383,2,2,B|336:128|288:280,1,240,6|8
160,336,14454,2,0,B|128:328,2,30,0|0|8
224,264,14913,6,0,B|232:208|216:144,1,120,6|0
224,96,15373,2,2,B|184:144|112:160,1,120,2|2
80,136,15832,6,0,B|192:96|216:192|320:144,1,240,6|8
416,48,16903,2,0,B|424:96,2,30
480,120,17362,6,0,B|448:176|440:240,1,120,6|8
472,264,17822,2,2,B|352:288,1,120,2|8
320,320,18281,2,0,B|280:312|240:312,2,60,2|0|8
336,368,18740,1,6
296,232,19199,1,6
328,144,19505,1,2
264,72,19811,6,2,B|200:80|144:120,1,120,4|10
112,88,20271,1,0
64,224,20730,1,8
144,272,21036,6,2,B|207:264|255:230,1,120,6|10
296,256,21496,1,0
432,296,21954,1,8
464,208,22260,1,6
464,208,22566,2,0,B|456:144,1,60,8|2
320,40,23179,1,8
232,72,23485,5,4
296,144,23791,2,0,B|360:136,1,60,10|0
312,232,24250,2,0,B|248:224,1,60,2|12
184,296,24709,6,2,B|128:328|56:320,1,120,2|8
32,352,25168,2,2,B|48:224,1,120,2|0
24,192,25628,1,10
80,112,25934,5,4
80,112,26240,2,0,B|112:128|160:120,1,60,8|0
224,168,26699,2,2,B|257:156|286:117,1,60,0|10
336,56,27158,6,10,B|400:64|456:96,2,120,6|10|2
240,56,28077,1,8
160,112,28383,5,4
160,112,28689,2,2,B|168:176,1,60,10|0
200,208,28995,2,2,B|160:256|96:280,1,120,2|10
32,216,29607,6,6,B|40:368|232:392|288:264,1,360,6|12
376,232,30832,1,0
376,232,30985,1,0
376,232,31138,1,10
464,264,31444,1,2
496,176,31750,1,10
456,88,32056,6,2,B|392:80|336:112,1,120,6|10
296,88,32515,1,0
248,216,32975,1,8
160,256,33281,5,4
160,256,33434,1,0
160,256,33587,2,2,B|120:208|112:136,2,120,10|2|10
240,312,34505,2,2,B|368:224|448:360,1,240,6|2
488,264,35424,1,8
416,200,35730,5,4
416,200,36036,2,2,B|440:144|448:80,2,120,10|2|10
328,240,36954,2,2,B|264:224|208:184,1,120,2|8
200,144,37413,1,0
88,56,37873,1,8
16,120,38179,6,2,B|32:176|40:240,1,120,4|10
16,280,38638,2,2,B|136:312,1,120
160,344,39097,1,8
280,256,39403,6,0,B|376:208|432:312,1,180,4|4
232,144,40322,1,2
232,144,40475,1,2
232,144,40628,6,0,B|136:96|80:200,1,180,4|4
256,352,41852,5,4
344,312,42158,1,10
440,336,42464,1,0
464,240,42771,2,2,B|496:152|408:72|320:144,1,240,10|10
304,184,43536,1,0
208,168,43842,1,2
128,112,44148,1,2
24,208,44607,5,8
24,208,44760,2,2,B|32:272|64:328,1,120,2|2
152,352,45373,1,2
256,248,45832,1,8
256,248,45985,2,2,B|320:232|384:224,2,120,2|10|10
208,232,46750,5,4
136,168,47056,1,10
168,80,47362,1,2
264,96,47668,1,10
352,64,47975,2,2,B|368:136|432:160|496:120,2,180
288,192,49352,5,0
288,192,49505,1,10
264,288,49811,1,2
168,272,50117,1,10
72,296,50424,1,2
72,296,50577,2,2,B|64:240|48:168,2,120
256,336,51648,5,6
344,296,51954,1,2
392,216,52260,1,0
344,136,52566,2,2,B|216:224|144:80,1,240
56,56,53485,1,2
24,144,53791,2,2,B|48:208|56:272,1,120,2|6
128,320,54403,5,0
128,320,54556,2,2,B|256:304,1,120
344,320,55168,1,0
344,320,55321,1,2
384,232,55628,1,0
384,232,55781,2,2,B|264:217,1,120
128,256,56546,5,6
72,184,56852,1,2
104,96,57158,1,0
200,104,57464,2,2,B|336:192|400:48,1,240
472,120,58383,1,2
432,208,58689,2,2,B|440:272|424:328,1,120,2|6
336,296,59301,5,0
336,296,59454,2,2,B|208:312,1,120
176,288,59913,1,2
136,200,60220,6,0,B|104:208|72:224,2,60,10|2|0
160,160,60679,2,0,B|176:128|184:96,2,60,2|0|0
120,136,61138,1,12
72,96,71240,6,2,B|160:96|208:136,1,120,4|10
187,121,71699,1,0
80,264,72158,1,4
168,344,72464,6,2,B|232:304|288:296,1,120,4|10
277,297,72924,1,0
456,328,73383,1,4
384,232,73689,6,2,B|384:176|416:160|408:112,1,120,4|10
344,136,74148,2,0,B|344:72|288:32,1,120
232,16,74607,1,8
216,136,74913,5,4
128,216,75220,2,0,B|64:184,1,60,10|0
192,248,75679,2,0,B|256:280,1,60,0|8
104,304,76138,5,4
192,384,76444,1,10
320,384,76750,1,2
408,304,77056,1,8
408,304,77209,1,2
384,248,77362,6,0,B|360:192|368:104|392:64,2,180,4|0|8
448,256,78434,1,0
464,136,78740,2,0,B|376:160|280:128,1,180
48,48,80117,5,10
48,48,80424,1,0
48,48,80730,1,10
48,48,81036,2,2,B|16:136|40:224|120:264|224:264|288:224|304:144|304:96,1,480,6|0
416,56,82566,5,10
488,152,82873,1,0
400,232,83179,1,10
464,336,83485,2,2,B|496:248|472:160|392:120|288:120|224:160|208:240|208:288,1,480,6|0
288,376,85015,5,10
344,272,85322,1,0
400,168,85628,1,10
456,64,85934,1,6
256,192,86546,1,2
56,64,87158,1,0
56,64,87464,5,10
112,168,87771,1,0
168,272,88077,1,10
224,376,88383,1,6
344,104,89760,5,2
344,104,89913,1,10
256,16,90220,1,0
168,104,90526,1,10
256,192,90832,5,6
256,192,91291,1,6
256,192,91750,1,6
80,128,93281,6,2,B|128:96|192:80,2,120,4|10|0
64,248,94199,2,2,B|88:344|200:360|256:288,1,240,10|10
272,240,94964,1,0
152,240,95271,2,2,B|128:304|72:344,2,120,2|6|0
160,184,96036,6,0,B|216:144,1,60,8|0
320,112,96495,1,2
408,192,96801,2,2,B|384:288|272:304|216:232,1,240,6|2
160,136,97720,1,10
64,200,98026,1,10
64,376,98485,5,10
192,376,98791,1,0
320,376,99097,1,10
448,376,99403,2,2,B|472:288|448:192,2,180,6|2|10
316,256,100781,5,0
316,256,100934,2,2,B|252:264|188:256,2,120,10|2|8
316,128,101852,5,6
316,128,102005,2,2,B|252:120|188:128,2,120,2|2|2
464,232,103077,5,4
400,328,103383,1,0
336,232,103689,1,0
272,328,103995,2,6,B|200:360|128:320|104:264|120:200,1,240
224,232,104913,1,2
224,232,105220,2,6,B|237:178|213:122|141:82|69:114,1,240
24,352,106444,5,0
24,352,106597,1,0
200,352,107056,1,0
200,352,107209,1,0
200,232,107515,1,0
48,152,107975,5,4
112,56,108281,1,0
176,152,108587,1,0
240,56,108893,2,6,B|312:24|384:64|408:120|392:184,1,240
288,152,109811,1,2
288,152,110118,2,6,B|274:205|298:261|370:301|442:269,1,240
488,32,111189,5,0
488,32,111342,1,0
368,32,111648,1,0
368,32,111801,1,0
368,152,112107,1,0
368,328,112566,1,0
256,192,112720,12,0,114097
256,192,115322,5,4
40,96,125117,6,2,B|176:32|248:168,1,240,6|8
224,200,125883,1,0
192,288,126189,5,0
192,288,126342,2,2,B|328:352|400:216,1,240,6|8
376,184,127108,1,0
328,104,127413,5,0
328,104,127566,2,2,B|264:240|400:312,1,240,6|8
432,288,128332,1,0
448,192,128638,5,0
448,192,128791,2,0,B|248:-64|56:200,1,480,6|6
184,344,130628,5,8
184,344,130781,2,0,B|240:304|320:328,1,120
336,352,131240,1,6
472,216,131852,5,8
472,216,132005,2,0,B|512:160|488:80,1,120
464,64,132464,1,6
280,8,133077,5,8
280,8,133230,2,0,B|240:64|264:144,1,120
288,160,133689,6,0,B|160:64|88:208,1,240,6|0
72,296,134607,1,0
144,352,134913,6,6,B|248:360|312:288,1,180,6|2
368,160,135832,2,6,B|264:168|200:96,1,180,6|2
184,56,136444,1,0
96,24,136750,1,2
64,112,137056,5,2
64,112,137209,1,0
64,112,137362,2,2,B|88:176|80:240,1,120,6|0
48,264,137822,2,0,B|96:304,1,60,2|0
144,288,138128,2,0,B|152:352,2,60,0|2|0
184,256,138587,5,4
280,240,138893,1,4
368,288,139199,1,4
440,224,139505,1,4
432,128,139811,6,2,B|384:96|320:80,2,120,4|10|0
448,248,140729,2,2,B|424:344|312:360|256:288,1,240,10|10
240,240,141494,1,0
360,240,141801,2,2,B|384:304|440:344,2,120,2|6|0
352,184,142566,6,0,B|296:144,1,60,8|0
192,112,143025,1,2
104,192,143331,2,2,B|128:288|240:304|296:232,1,240,6|2
352,136,144250,1,10
448,200,144556,1,10
448,376,145015,5,10
320,376,145321,1,0
192,376,145627,1,10
64,376,145933,2,2,B|40:288|64:192,2,180,6|2|10
196,256,147311,5,0
196,256,147464,2,2,B|260:264|324:256,2,120,10|2|8
196,128,148382,5,6
196,128,148535,2,2,B|260:120|324:128,2,120,2|2|2
48,232,149607,5,4
112,328,149913,1,0
176,232,150219,1,0
240,328,150525,2,6,B|312:360|384:320|408:264|392:200,1,240
288,232,151443,1,2
288,232,151750,2,6,B|274:178|298:122|370:82|442:114,1,240
488,352,152974,5,0
488,352,153127,1,0
312,352,153586,1,0
312,352,153739,1,0
312,232,154045,1,0
464,152,154505,5,4
400,56,154811,1,0
336,152,155117,1,0
272,56,155423,2,6,B|200:24|128:64|104:120|120:184,1,240
224,152,156341,1,2
224,152,156648,2,6,B|237:205|213:261|141:301|69:269,1,240
24,32,157873,5,0
24,32,158026,1,0
200,32,158485,1,0
200,32,158638,1,0
256,336,159403,5,6
168,296,159709,1,2
120,216,160015,1,0
168,136,160321,2,2,B|296:224|368:80,1,240
456,56,161240,1,2
488,144,161546,2,2,B|464:208|456:272,1,120,2|6
384,320,162158,5,0
384,320,162311,2,2,B|256:304,1,120
168,320,162923,1,0
168,320,163076,1,2
128,232,163383,1,0
128,232,163536,2,2,B|248:217,1,120
384,256,164301,5,6
440,184,164607,1,2
408,96,164913,1,0
312,104,165219,2,2,B|176:192|112:48,1,240
40,120,166138,1,2
80,208,166444,2,2,B|72:272|88:328,1,120,2|6
176,296,167056,5,0
176,296,167209,2,2,B|304:312,1,120
336,288,167668,1,2
376,200,167975,6,0,B|408:208|440:224,2,60,10|2|0
352,160,168434,2,0,B|336:128|328:96,2,60,2|0|0
392,128,168893,1,8
432,40,169199,1,4
256,192,169352,12,0,174097
192,16,176546,6,2,B|128:48|104:120,1,120,6|0
224,136,177158,2,0,B|192:200|128:232,1,120,8|0
88,256,177617,1,0
72,320,177771,6,2,B|208:320,1,120,6|0
320,320,178383,2,0,B|440:320,1,120,8|0
424,256,178842,1,0
368,223,178995,6,2,B|320:200|288:136,1,120,6|0
400,101,179607,2,0,B|384:48|320:16,1,120,8|0
256,120,180220,2,2,B|256:192,1,60,2|0
192,288,180679,1,0
320,288,180985,1,0
336,112,181444,6,2,B|344:176|336:240,3,120,6|0|8|0
176,272,182668,6,2,B|168:208|176:144,3,120,6|0|8|0
232,72,183893,6,2,B|368:8|440:144,1,240,6|8
416,176,184659,1,0
336,232,184965,5,0
336,232,185118,2,2,B|200:168|128:304,1,240,6|8
120,344,185884,1,0
48,280,186189,5,0
48,280,186342,2,2,B|-16:144|120:72,1,240,6|8
160,72,187108,1,0
256,48,187414,5,0
256,48,187566,2,0,B|400:48|424:272|96:120|120:352|264:352,1,480,6|6
432,272,189404,5,8
432,272,189557,2,0,B|392:216|416:136,1,120
440,120,190016,1,6
256,72,190628,5,8
256,72,190781,2,0,B|296:128|272:208,1,120
248,224,191240,1,6
56,184,191853,5,8
56,184,192006,2,0,B|112:144|192:168,1,120
152,120,192465,6,0,B|280:216|352:72,1,240,6|8
256,48,193383,1,0
256,48,193689,1,4
256,192,193842,12,0,197362
