osu file format v12

[General]
AudioFilename: Paramore - Ignorance.mp3
AudioLeadIn: 2007
PreviewTime: 70161
Countdown: 0
SampleSet: Soft
StackLeniency: 0.7
Mode: 0
LetterboxInBreaks: 1
WidescreenStoryboard: 0

[Editor]
Bookmarks: 128,11356,22584,33812,45040,56268,70303,81531,92759,98373,109601,120829,132057,143285,146092,157320,168549
DistanceSpacing: 1
BeatDivisor: 4
GridSize: 4

[Metadata]
Title:Ignorance
TitleUnicode:Ignorance
Artist:Paramore
ArtistUnicode:Paramore
Creator:ZzzBlackLight
Version:Ignorance
Source:
Tags:
BeatmapID:270550
BeatmapSetID:102372

[Difficulty]
HPDrainRate:6
CircleSize:4
OverallDifficulty:7
ApproachRate:9
SliderMultiplier:1.6
SliderTickRate:2

[Events]
//Background and Video events
0,0,"BG.jpg",0,0
//Break Periods
//Storyboard Layer 0 (Background)
//Storyboard Layer 1 (Fail)
//Storyboard Layer 2 (Pass)
//Storyboard Layer 3 (Foreground)
//Storyboard Sound Samples
//Background Colour Transformations
3,100,114,89,213

[TimingPoints]
128,350.877192982456,4,2,0,75,1,0
5742,-80,4,2,0,75,0,0
16970,-66.6666666666667,4,2,0,75,0,0
22584,-80,4,2,0,35,0,0
33812,-80,4,2,0,55,0,0
45040,-80,4,2,0,75,0,0
70303,-74.0740740740741,4,2,0,75,0,1
92759,-80,4,2,0,35,0,0
98373,-80,4,2,0,55,0,0

[Colours]
Combo1 : 131,67,67
Combo2 : 197,182,216
Combo3 : 217,169,4
Combo4 : 187,4,4

[HitObjects]
88,240,128,2,8,B|144:296,1,80,12|8,0:0|0:0,0:0:0:0:
424,144,654,2,8,B|368:88,1,80
88,240,1180,1,8,0:0:0:0:
360,88,1531,6,0,B|304:144,1,80
152,296,2057,2,0,B|208:240,1,80
256,192,2584,1,8,0:0:0:0:
364,228,2935,5,8,0:0:0:0:
364,228,3110,1,8,0:0:0:0:
152,228,3461,1,8,0:0:0:0:
152,228,3636,1,8,0:0:0:0:
256,192,3987,1,8,0:0:0:0:
176,120,4338,6,0,B|104:48,1,80,8|8,0:0|0:0,0:0:0:0:
176,120,4689,1,0,0:0:0:0:
336,120,4864,2,8,B|408:48,1,80
336,120,5215,1,0,0:0:0:0:
256,192,5391,1,8,0:0:0:0:
112,248,5742,5,12,0:0:0:0:
168,312,5917,2,0,B|208:352|208:352|256:352,1,99.9999985098839,8|0,0:0|0:0,0:0:0:0:
320,296,6268,1,12,0:0:0:0:
320,208,6443,2,0,B|320:160|320:160|360:120,1,99.9999985098839,8|0,0:0|0:0,0:0:0:0:
460,128,6794,1,8,0:0:0:0:
384,56,7145,6,0,B|368:128|288:120|288:120,2,99.9999985098839,12|8|0,0:0|0:0|0:0,0:0:0:0:
288,40,7671,2,0,B|232:72|160:40|160:40,2,99.9999985098839,12|8|0,0:0|0:0|0:0,0:0:0:0:
260,140,8198,1,8,0:0:0:0:
192,264,8549,6,8,B|120:336,1,99.9999985098839
320,264,9075,2,8,B|392:336,1,99.9999985098839
256,188,9601,1,8,0:0:0:0:
64,320,9952,5,8,0:0:0:0:
136,248,10127,1,8,0:0:0:0:
224,288,10303,1,0,0:0:0:0:
320,296,10478,1,8,0:0:0:0:
392,224,10654,1,8,0:0:0:0:
384,128,10829,2,0,B|360:48|288:16|192:48,1,199.999997019768
156,128,11356,6,0,B|84:56,2,99.9999985098839,8|8|0,0:0|0:0|0:0,0:0:0:0:
152,236,11882,2,0,B|80:308,2,99.9999985098839,8|8|0,0:0|0:0|0:0,0:0:0:0:
256,196,12408,1,8,0:0:0:0:
360,196,12584,1,0,0:0:0:0:
436,128,12759,6,0,B|476:88|476:88|476:40,2,99.9999985098839,8|8|0,0:0|0:0|0:0,0:0:0:0:
428,236,13285,2,0,B|428:284|428:284|388:324,2,99.9999985098839,8|8|0,0:0|0:0|0:0,0:0:0:0:
308,236,13812,2,0,B|309:291|237:291,1,99.9999985098839,8|0,0:0|0:0,0:0:0:0:
104,240,14163,5,8,0:0:0:0:
32,160,14338,1,8,0:0:0:0:
104,240,14513,1,0,0:0:0:0:
192,192,14689,1,8,0:0:0:0:
184,88,14864,1,8,0:0:0:0:
192,192,15040,1,0,0:0:0:0:
312,200,15215,2,0,B|360:104,1,99.9999985098839,8|0,0:0|0:0,0:0:0:0:
448,224,15566,6,0,B|424:288|352:288,2,99.9999985098839,8|8|0,0:0|0:0|0:0,0:0:0:0:
392,160,16092,2,0,B|432:120|432:64,2,99.9999985098839,8|8|0,0:0|0:0|0:0,0:0:0:0:
312,200,16619,2,0,B|264:168|256:88,1,99.9999985098839,8|0,0:0|0:0,0:0:0:0:
256,32,16970,5,8,0:0:0:0:
256,160,17145,5,8,0:0:0:0:
256,160,17320,1,0,0:0:0:0:
152,248,17495,5,8,0:0:0:0:
256,160,17671,5,8,0:0:0:0:
256,160,17847,1,0,0:0:0:0:
360,252,18022,5,8,0:0:0:0:
360,252,18198,1,0,0:0:0:0:
256,160,18373,6,8,B|256:32,1,119.999996423721
256,160,18724,5,0,0:0:0:0:
204,240,18899,6,8,B|100:328,1,119.999996423721
204,240,19250,5,0,0:0:0:0:
360,252,19426,5,8,0:0:0:0:
360,252,19601,1,0,0:0:0:0:
208,152,19777,6,8,B|104:56,1,119.999996423721
304,232,20303,2,8,B|408:328,1,119.999996423721
256,192,20829,1,8,0:0:0:0:
284,52,21180,5,8,0:0:0:0:
284,52,21268,1,0,0:0:0:0:
284,52,21356,1,8,0:0:0:0:
356,108,21531,5,0,0:0:0:0:
356,108,21619,1,0,0:0:0:0:
356,108,21706,1,8,0:0:0:0:
432,192,21882,5,8,0:0:0:0:
432,192,21970,1,0,0:0:0:0:
432,192,22057,2,0,B|435:199|435:199|424:195|424:195|428:202|428:202|417:199|417:199|421:206|421:206|410:202|410:202|413:209|413:209|403:206|403:206|406:213|406:213|396:209|396:209|399:216|399:216|388:213|388:213|392:220|392:220|381:216|381:216|385:223|385:223|374:220|374:220|377:227|377:227|367:223|367:223|370:230|370:230|360:227|360:227|363:234|363:234|352:230|352:230|356:237|356:237|345:234|345:234|349:241|349:241|338:237|338:237|342:244|342:244|331:241|331:241|334:248|334:248|324:244|324:244,1,239.999992847443
200,316,22584,6,0,B|148:316|148:316|96:348,1,99.9999985098839
80,268,22935,2,0,B|188:192,1,99.9999985098839
232,244,23285,2,0,B|248:196|248:196|204:124,1,99.9999985098839
148,128,23636,2,0,B|56:192,1,99.9999985098839
64,84,23987,5,0,0:0:0:0:
152,36,24163,1,0,0:0:0:0:
232,92,24338,1,0,0:0:0:0:
324,56,24513,1,0,0:0:0:0:
312,156,24689,2,0,B|368:120|440:132,1,99.9999985098839
456,208,25040,2,0,B|420:292|372:296,1,100
304,308,25391,6,0,B|288:256|232:204,1,100
172,240,25742,1,0,0:0:0:0:
104,304,25917,1,0,0:0:0:0:
36,240,26092,2,0,B|48:180|116:160,1,99.9999985098839
188,152,26443,2,0,B|248:124|228:44,1,99.9999985098839
144,44,26794,5,0,0:0:0:0:
64,88,26970,1,0,0:0:0:0:
96,180,27145,1,0,0:0:0:0:
184,152,27320,1,0,0:0:0:0:
264,108,27496,2,0,B|320:68|376:128,1,99.9999985098839
316,196,27847,2,0,B|376:232|436:176,1,99.9999985098839
404,108,28198,5,0,0:0:0:0:
404,108,28373,1,0,0:0:0:0:
380,20,28549,2,0,B|296:28|260:72,1,99.9999985098839
256,144,28899,2,0,B|324:168|344:228,1,99.9999985098839
428,236,29250,2,0,B|448:288|372:328,1,99.9999985098839
288,324,29601,5,0,0:0:0:0:
288,324,29777,1,0,0:0:0:0:
196,344,29952,2,0,B|120:340|104:292|104:292|104:268,1,100
176,256,30303,2,0,B|164:200|72:192,1,99.9999985098839
56,120,30654,2,0,B|48:200|144:200,1,100
204,120,31005,5,0,0:0:0:0:
204,120,31180,1,0,0:0:0:0:
272,48,31356,1,0,0:0:0:0:
272,48,31531,1,0,0:0:0:0:
324,128,31706,5,0,0:0:0:0:
412,188,31882,1,0,0:0:0:0:
404,300,32057,1,0,0:0:0:0:
288,312,32233,1,0,0:0:0:0:
264,184,32408,5,0,0:0:0:0:
388,164,32584,1,0,0:0:0:0:
404,300,32759,1,0,0:0:0:0:
288,312,32935,1,0,0:0:0:0:
180,308,33110,6,0,B|100:268|68:180|92:116|88:120,1,199.999997019768
268,60,33812,5,4,0:0:0:0:
296,64,33899,1,0,0:0:0:0:
324,76,33987,2,0,B|400:124|384:200,1,99.9999985098839
408,248,34338,2,0,B|348:256|260:240|228:168,1,199.999997019768
168,100,34864,2,0,B|120:168|152:224,1,99.9999985098839
140,292,35215,5,0,0:0:0:0:
140,292,35391,1,0,0:0:0:0:
232,328,35566,2,0,B|352:344,1,99.9999985098839
404,272,35917,2,0,B|280:256,1,99.9999985098839
276,176,36268,2,0,B|396:192,1,99.9999985098839
408,92,36619,5,0,0:0:0:0:
316,56,36794,1,0,0:0:0:0:
216,48,36970,2,0,B|172:164,1,99.9999985098839
80,152,37320,2,0,B|92:204|92:204|152:236|152:236|148:232,1,99.9999985098839
224,184,37671,1,0,0:0:0:0:
320,156,37847,1,0,0:0:0:0:
412,192,38022,6,0,B|412:252|336:288,1,99.9999985098839
280,220,38373,2,0,B|268:300|208:312,1,99.9999985098839
136,280,38724,5,0,0:0:0:0:
108,264,38812,1,0,0:0:0:0:
92,240,38899,1,0,0:0:0:0:
88,208,38987,1,0,0:0:0:0:
96,172,39075,1,0,0:0:0:0:
112,144,39163,1,0,0:0:0:0:
136,128,39250,1,0,0:0:0:0:
340,96,39426,5,4,0:0:0:0:
408,168,39601,1,0,0:0:0:0:
372,260,39777,1,0,0:0:0:0:
372,260,39952,1,0,0:0:0:0:
276,292,40127,2,0,B|300:236|264:172,1,99.9999985098839
188,236,40478,2,0,B|152:200|188:128,1,99.9999985098839
264,56,40829,5,0,0:0:0:0:
152,40,41005,2,0,B|92:8|40:84,1,99.9999985098839
72,152,41356,1,0,0:0:0:0:
192,152,41531,1,0,0:0:0:0:
124,224,41706,2,0,B|84:272|124:328,1,100
320,288,42233,5,0,0:0:0:0:
380,180,42408,1,0,0:0:0:0:
320,288,42584,1,0,0:0:0:0:
380,180,42759,1,0,0:0:0:0:
260,236,42935,6,0,B|324:128,1,99.9999985098839
268,72,43285,2,0,B|196:180|200:180,1,99.9999985098839
164,84,43636,2,0,B|88:184,2,99.9999985098839
264,92,44163,5,0,0:0:0:0:
328,160,44338,5,0,0:0:0:0:
332,188,44426,1,0,0:0:0:0:
324,216,44513,1,0,0:0:0:0:
304,240,44601,1,0,0:0:0:0:
276,248,44689,2,0,B|248:256|228:248,3,49.999999254942
128,200,45040,5,4,0:0:0:0:
64,124,45215,1,0,0:0:0:0:
148,72,45391,1,0,0:0:0:0:
248,64,45566,2,0,B|340:64|376:116,2,99.9999985098839
276,160,46092,1,0,0:0:0:0:
360,212,46268,5,0,0:0:0:0:
360,212,46356,5,0,0:0:0:0:
361,211,46443,5,0,0:0:0:0:
328,312,46619,6,0,B|228:256,1,99.9999985098839,0|0,0:0|0:0,0:0:0:0:
108,288,46970,5,0,0:0:0:0:
108,288,47057,1,0,0:0:0:0:
108,288,47145,2,0,B|80:224|104:156,1,99.9999985098839
176,172,47496,2,0,B|156:108|184:36,1,100
256,40,47847,2,4,B|256:244,1,199.999997019768
336,300,48373,6,0,B|388:340,2,49.999999254942
392,224,48724,2,0,B|432:184|432:116,1,99.9999985098839
384,52,49075,1,0,0:0:0:0:
256,52,49426,5,0,0:0:0:0:
256,144,49777,2,0,B|256:208,2,50
256,248,50127,2,0,B|200:264|148:228,2,100
152,144,50654,5,0,0:0:0:0:
152,144,50829,1,0,0:0:0:0:
152,144,51005,1,0,0:0:0:0:
220,72,51180,2,0,B|280:40|368:40|428:68,1,199.999997019768
360,140,51706,5,0,0:0:0:0:
264,192,51882,1,0,0:0:0:0:
360,240,52057,5,0,0:0:0:0:
360,240,52232,1,0,0:0:0:0:
360,240,52408,1,0,0:0:0:0:
284,308,52583,2,0,B|220:328|132:328|92:300,1,150
64,228,53110,2,0,B|128:208|152:152,1,99.9999985098839
40,120,53461,6,0,B|88:68|188:32|236:40,1,199.999997019768
288,108,53987,1,0,0:0:0:0:
288,108,54163,1,0,0:0:0:0:
288,108,54338,1,0,0:0:0:0:
388,96,54513,2,0,B|392:160|360:200,1,99.9999985098839
408,284,54864,6,0,B|320:304|272:256,1,99.9999985098839
232,344,55215,2,0,B|184:288|104:308,1,99.9999985098839
84,220,55566,1,0,0:0:0:0:
112,124,55742,1,0,0:0:0:0:
128,100,55829,1,0,0:0:0:0:
148,80,55917,1,0,0:0:0:0:
176,68,56005,1,0,0:0:0:0:
204,64,56092,1,0,0:0:0:0:
236,64,56180,1,0,0:0:0:0:
264,72,56268,1,4,0:0:0:0:
356,112,56443,6,0,B|448:160|424:296,1,199.999997019768
328,308,56970,2,0,B|264:312|204:352,1,99.9999985098839
140,296,57320,2,0,B|232:308|260:264,1,99.9999985098839
384,200,57701,5,0,0:0:0:0:
384,200,57788,1,0,0:0:0:0:
384,200,57876,1,0,0:0:0:0:
428,120,58198,6,0,B|360:76|300:76,1,99.9999985098839
256,112,58549,2,0,B|248:52|176:52,1,99.9999985098839
160,132,58899,1,0,0:0:0:0:
160,132,59075,1,0,0:0:0:0:
456,336,59426,5,0,0:0:0:0:
400,252,59601,5,0,0:0:0:0:
416,224,59689,1,0,0:0:0:0:
428,196,59777,2,0,B|436:128|428:72,2,99.9999985098839
430,96,60303,1,0,0:0:0:0:
352,48,60478,5,0,0:0:0:0:
144,44,60742,1,0,0:0:0:0:
128,208,61005,1,0,0:0:0:0:
220,220,61180,2,0,B|228:116|160:48|124:28,2,199.999997019768
320,292,62057,5,0,0:0:0:0:
320,292,62233,1,0,0:0:0:0:
220,308,62408,2,0,B|264:240|288:152|288:88,1,199.999997019768
188,140,62934,2,0,B|168:64|92:56,1,99.9999985098839
136,200,63315,5,0,0:0:0:0:
136,200,63490,1,0,0:0:0:0:
136,200,63636,1,0,0:0:0:0:
196,292,63812,2,0,B|224:184|352:124,1,199.999997019768
416,124,64338,1,0,0:0:0:0:
256,192,64689,12,0,67145,0:0:0:0:
256,116,67496,5,0,0:0:0:0:
256,288,67847,1,0,0:0:0:0:
256,112,68198,2,0,B|160:156,2,100
256,288,68724,2,0,B|320:208,1,99.9999985098839
256,112,69075,1,0,0:0:0:0:
120,140,69250,2,0,B|120:240|120:240|120:240,1,99.9999985098839
256,288,69601,1,0,0:0:0:0:
256,112,69952,1,0,0:0:0:0:
256,248,70303,6,0,B|368:248,2,108.000003540516,8|8|0,0:0|0:0|0:0,0:0:0:0:
256,112,70829,2,0,B|136:112,2,108.000003540516,8|8|0,0:0|0:0|0:0,0:0:0:0:
256,244,71356,2,0,B|328:204|344:140,1,108.000003540516,8|0,0:0|0:0,0:0:0:0:
360,72,71706,5,8,0:0:0:0:
360,72,71882,1,8,0:0:0:0:
360,72,72057,1,0,0:0:0:0:
256,112,72233,1,8,0:0:0:0:
160,180,72408,1,8,0:0:0:0:
160,180,72583,1,0,0:0:0:0:
256,240,72759,1,8,0:0:0:0:
380,232,72935,1,0,0:0:0:0:
360,136,73110,6,0,B|308:160|236:136,2,108.000003540516,8|8|0,0:0|0:0|0:0,0:0:0:0:
152,252,73636,2,0,B|204:228|276:252,2,108.000003540516,8|8|0,0:0|0:0|0:0,0:0:0:0:
256,248,74163,2,0,B|256:136,1,108.000003540516,8|0,0:0|0:0,0:0:0:0:
256,32,74513,5,8,0:0:0:0:
168,96,74689,2,0,B|128:156|152:212,1,108.000003540516,8|0,0:0|0:0,0:0:0:0:
184,296,75040,1,8,0:0:0:0:
288,324,75215,1,8,0:0:0:0:
320,320,75303,1,0,0:0:0:0:
348,304,75391,1,0,0:0:0:0:
372,280,75478,1,0,0:0:0:0:
388,252,75566,1,0,0:0:0:0:
404,224,75654,1,0,0:0:0:0:
408,192,75742,1,0,0:0:0:0:
408,160,75829,1,0,0:0:0:0:
400,128,75917,6,8,B|328:24,1,108.000003540516
112,256,76443,2,0,B|184:360,2,108.000003540516,8|8|0,0:0|0:0|0:0,0:0:0:0:
288,160,76970,1,8,0:0:0:0:
224,224,77145,1,0,0:0:0:0:
104,108,77320,6,8,B|20:24,1,108.000003540516
408,276,77847,2,0,B|492:360,2,108.000003540516,8|8|0,0:0|0:0|0:0,0:0:0:0:
316,220,78373,1,8,0:0:0:0:
208,220,78549,1,0,0:0:0:0:
120,284,78724,5,8,0:0:0:0:
120,284,78899,1,8,0:0:0:0:
392,100,79250,1,8,0:0:0:0:
392,100,79425,1,8,0:0:0:0:
432,200,79601,2,0,B|420:268|376:304,1,108.000003540516,0|8,0:0|0:0,0:0:0:0:
316,220,79952,1,0,0:0:0:0:
240,156,80127,6,0,B|208:112,3,54.000001770258
240,160,80478,2,0,B|176:168,3,54.000001770258
184,128,80829,5,0,0:0:0:0:
152,116,80917,1,0,0:0:0:0:
120,120,81005,1,0,0:0:0:0:
96,140,81092,1,0,0:0:0:0:
76,168,81180,1,0,0:0:0:0:
68,200,81268,1,0,0:0:0:0:
76,232,81356,1,0,0:0:0:0:
96,256,81443,1,0,0:0:0:0:
128,268,81531,1,4,0:0:0:0:
220,324,81706,6,0,B|308:344|352:312,1,108.000003540516
432,296,82057,2,0,B|400:232|308:224|308:228,1,108.000003540516
436,172,82408,1,0,0:0:0:0:
452,64,82584,1,0,0:0:0:0:
356,112,82759,1,0,0:0:0:0:
300,20,82935,2,0,B|192:120|196:220,1,216.000007081032
112,136,83461,2,0,B|228:108|336:184,1,216.000007081032
348,276,83987,1,0,0:0:0:0:
248,316,84163,1,0,0:0:0:0:
140,324,84338,6,0,B|88:276|76:216,1,108.000003540516
188,244,84689,2,0,B|180:176|96:132,1,108.000003540516
28,120,85040,1,0,0:0:0:0:
100,40,85215,1,0,0:0:0:0:
176,116,85391,2,0,B|252:104|268:52,1,108.000003540516
372,64,85742,2,0,B|312:132|336:240|400:288,1,216.000007081032
300,344,86268,2,0,B|248:252|152:244|104:256,1,216.000007081032
156,152,86794,1,0,0:0:0:0:
260,192,86970,1,0,0:0:0:0:
368,192,87145,6,8,B|220:192,1,108.000003540516
168,128,87671,2,8,B|272:208,1,108.000003540516
340,128,88022,2,0,B|254:193,1,108.000003540516,0|8,0:0|0:0,0:0:0:0:
164,256,88373,1,0,0:0:0:0:
252,304,88549,6,8,B|252:176,1,108.000003540516
340,260,89075,2,8,B|216:168,1,108.000003540516
164,256,89426,2,0,B|288:164,1,108.000003540516,0|8,0:0|0:0,0:0:0:0:
252,192,89777,1,0,0:0:0:0:
204,72,89952,6,4,B|256:48|320:76,1,108.000003540516
308,312,90478,2,4,B|256:336|192:308,1,108.000003540516
256,192,90829,5,0,0:0:0:0:
256,88,91005,6,0,B|256:204,1,108.000003540516,8|0,0:0|0:0,0:0:0:0:
400,224,91356,5,0,0:0:0:0:
400,224,91443,1,0,0:0:0:0:
400,224,91531,1,0,0:0:0:0:
388,132,91706,5,0,0:0:0:0:
388,132,91794,1,0,0:0:0:0:
388,132,91882,1,0,0:0:0:0:
268,112,92057,5,0,0:0:0:0:
268,112,92145,1,0,0:0:0:0:
268,112,92233,1,0,0:0:0:0:
152,88,92408,5,0,0:0:0:0:
152,88,92496,1,0,0:0:0:0:
152,88,92584,1,0,0:0:0:0:
228,212,92759,5,4,0:0:0:0:
328,308,93110,2,0,B|408:276|428:192,2,149.999997764826
228,316,93812,1,0,0:0:0:0:
132,288,93987,1,0,0:0:0:0:
80,200,94163,2,0,B|44:104,1,99.9999985098839
176,148,94513,2,0,B|168:48,1,99.9999985098839
292,116,94864,1,0,0:0:0:0:
292,116,95040,1,0,0:0:0:0:
400,160,95215,1,0,0:0:0:0:
400,160,95391,1,0,0:0:0:0:
432,272,95566,6,0,B|328:316,1,99.9999985098839
220,312,95917,2,0,B|264:252|228:140,2,149.999997764826
120,260,96619,1,0,0:0:0:0:
76,160,96794,1,0,0:0:0:0:
144,72,96970,2,0,B|200:20|236:20,2,99.9999985098839
288,64,97496,2,0,B|328:72|360:132,2,99.9999985098839
256,192,98022,1,0,0:0:0:0:
