osu file format v13

[General]
AudioFilename: 10 - Anklebiters.mp3
AudioLeadIn: 0
PreviewTime: 50267
Countdown: 0
SampleSet: Soft
StackLeniency: 0.4
Mode: 0
LetterboxInBreaks: 0
WidescreenStoryboard: 0

[Editor]
DistanceSpacing: 1.4
BeatDivisor: 4
GridSize: 4
TimelineZoom: 1.5

[Metadata]
Title:Anklebiters
TitleUnicode:Anklebiters
Artist:Paramore
ArtistUnicode:Paramore
Creator:Priti
Version:Zero's Insane
Source:
Tags:Power Pop Punk New Wave Hayley Williams EvilElvisV2 EvilElvis Zero__Wind grumd Tess Nwolf
BeatmapID:543433
BeatmapSetID:227990

[Difficulty]
HPDrainRate:6
CircleSize:4
OverallDifficulty:7
ApproachRate:8.3
SliderMultiplier:1.3
SliderTickRate:1

[Events]
//Background and Video events
0,0,"441710515_1280.jpg",0,0
//Break Periods
//Storyboard Layer 0 (Background)
//Storyboard Layer 1 (Fail)
//Storyboard Layer 2 (Pass)
//Storyboard Layer 3 (Foreground)
//Storyboard Sound Samples

[TimingPoints]
181,260.869565217391,4,2,0,90,1,0
4354,-100,4,3,0,80,0,0
12702,-100,4,3,0,90,0,0
29398,-100,4,3,0,80,0,0
34615,-100,4,3,0,80,0,1
35659,-100,4,3,0,80,0,0
36702,-100,4,3,0,80,0,1
37746,-100,4,3,0,80,0,0
42963,-100,4,3,0,80,0,1
44007,-100,4,3,0,80,0,0
45050,-100,4,3,0,80,0,1
46094,-100,4,3,0,70,0,0
50267,-100,4,3,0,90,0,1
66963,-100,4,3,0,90,0,0
75311,-100,4,3,0,80,0,0
80528,-100,4,3,0,80,0,1
81572,-100,4,3,0,80,0,0
82615,-100,4,3,0,80,0,1
83659,-100,4,3,0,80,0,0
88876,-100,4,3,0,80,0,1
89920,-100,4,3,0,80,0,0
90963,-100,4,3,0,80,0,1
92007,-100,4,3,0,70,0,0
100354,-100,4,3,0,90,0,1
117050,-100,4,3,0,80,0,0

[Colours]
Combo1 : 135,171,211
Combo2 : 208,79,64
Combo3 : 148,200,96
Combo4 : 216,189,109

[HitObjects]
256,12,2267,5,2,0:0:0:0:
256,372,2789,1,2,0:0:0:0:
256,156,3311,5,2,0:0:0:0:
256,300,3572,1,2,0:0:0:0:
256,84,3833,1,2,0:0:0:0:
256,228,4094,1,2,0:0:0:0:
44,192,4354,6,0,L|176:192,1,130,4|2,0:2|1:3,0:0:0:0:
256,156,4746,2,0,P|288:148|315:127,1,65,4|2,0:0|2:0,0:0:0:0:
112,52,5137,1,2,1:3:0:0:
64,308,5398,1,4,0:0:0:0:
256,84,5659,1,2,1:3:0:0:
208,340,5920,2,0,L|208:276,1,65,4|4,0:0|0:0,0:0:0:0:
188,168,6180,1,2,1:3:0:0:
384,34,6441,6,0,P|406:94|379:158,1,130,4|2,0:0|1:3,0:0:0:0:
320,92,6833,2,0,L|256:84,1,65,4|2,0:0|2:0,0:0:0:0:
512,52,7224,1,2,1:3:0:0:
412,292,7485,1,4,0:0:0:0:
384,34,7746,1,2,1:3:0:0:
512,216,8007,2,0,L|448:208,1,65,4|4,0:0|0:0,0:0:0:0:
340,200,8267,1,2,1:3:0:0:
148,60,8528,6,0,L|140:208,1,130,4|2,0:0|1:3,0:0:0:0:
80,252,8920,2,0,P|111:272|144:276,1,65,4|2,0:0|2:0,0:0:0:0:
320,92,9311,1,2,1:3:0:0:
60,132,9572,1,4,0:0:0:0:
296,248,9833,1,2,1:3:0:0:
80,252,10094,2,0,L|16:248,1,65,4|4,0:0|0:0,0:0:0:0:
160,196,10354,1,2,1:3:0:0:
352,348,10615,6,0,P|399:292|408:232,1,130,4|2,0:0|1:3,0:0:0:0:
368,160,11007,2,0,L|304:156,1,65,4|2,0:0|2:0,0:0:0:0:
480,348,11398,1,4,1:2:0:0:
452,24,11659,6,0,L|411:13,2,43.3333333333333,8|0|0,1:3|1:0|1:0,0:0:0:0:
468,104,11920,2,0,L|509:93,2,43.3333333333333,8|0|0,1:3|1:0|1:0,0:0:0:0:
388,92,12180,2,0,L|347:81,2,43.3333333333333,8|0|0,1:3|1:0|1:0,0:0:0:0:
416,168,12441,2,0,L|437:204,2,43.3333333333333,8|8|4,0:0|0:0|0:0,0:0:0:0:
335,163,12702,6,0,P|268:176|236:224,1,130,4|2,0:2|1:3,0:0:0:0:
256,76,13094,2,0,P|211:24|153:20,1,130,4|0,0:2|2:0,0:0:0:0:
56,68,13485,2,0,L|56:144,1,65,2|2,1:3|2:0,0:0:0:0:
88,236,13746,2,0,P|120:221|142:199,1,65,4|0,0:0|2:0,0:0:0:0:
0,288,14007,2,0,P|22:315|49:330,1,65,2|2,1:3|2:0,0:0:0:0:
156,348,14267,1,4,0:0:0:0:
228,300,14398,1,4,0:0:0:0:
168,240,14528,2,0,L|168:176,1,65,2|2,1:3|2:0,0:0:0:0:
256,76,14789,6,0,P|316:96|351:151,1,130,4|2,0:2|1:3,0:0:0:0:
408,14,15180,2,0,P|447:63|446:128,1,130,4|0,0:2|2:0,0:0:0:0:
420,234,15572,2,0,P|388:251|360:258,1,65,2|2,1:3|2:0,0:0:0:0:
252,236,15833,2,0,L|258:171,1,65,4|0,0:0|2:0,0:0:0:0:
284,328,16094,2,0,L|337:365,1,65,2|2,1:3|2:0,0:0:0:0:
188,312,16354,1,4,0:0:0:0:
108,347,16485,1,4,0:0:0:0:
24,332,16615,2,0,P|6:302|1:268,1,65,2|2,1:3|2:0,0:0:0:0:
28,144,16876,6,0,L|160:160,1,130,4|2,0:0|1:3,0:0:0:0:
96,36,17267,2,0,L|228:52,1,130,4|0,0:0|0:0,0:0:0:0:
304,128,17659,2,0,P|336:137|368:135,1,65,2|2,1:3|2:0,0:0:0:0:
474,153,17920,2,0,P|491:181|499:212,1,65,4|0,0:0|2:0,0:0:0:0:
438,51,18180,2,0,P|452:22|476:0,1,65,2|2,1:3|2:0,0:0:0:0:
367,135,18441,1,4,0:0:0:0:
284,108,18572,1,4,0:0:0:0:
344,172,18702,2,0,L|345:245,1,65,2|2,1:3|2:0,0:0:0:0:
408,352,18963,6,0,P|476:332|508:284,1,130,4|2,0:0|1:3,0:0:0:0:
308,380,19354,2,0,P|247:343|229:288,1,130,4|0,0:0|2:0,0:0:0:0:
240,180,19746,2,0,L|272:120,1,65,2|2,1:3|2:0,0:0:0:0:
72,128,20007,2,0,L|8:124,1,65,4|0,0:0|2:0,0:0:0:0:
96,224,20267,2,0,L|160:228,1,65,2|0,1:3|2:0,0:0:0:0:
76,320,20528,1,4,0:0:0:0:
4,368,20659,1,4,0:0:0:0:
76,320,20789,1,2,1:3:0:0:
156,376,20920,1,2,1:3:0:0:
236,320,21050,6,0,P|276:270|278:203,1,130,4|2,0:2|1:3,0:0:0:0:
176,128,21441,2,0,P|223:84|286:77,1,130,4|0,0:2|2:0,0:0:0:0:
368,152,21833,2,0,P|383:190|385:225,1,65,2|2,1:3|2:0,0:0:0:0:
436,312,22094,2,0,L|428:376,1,65,4|0,0:0|2:0,0:0:0:0:
504,208,22354,2,0,L|512:272,1,65,2|2,1:3|2:0,0:0:0:0:
424,144,22615,2,0,L|416:208,1,65,4|4,0:0|0:0,0:0:0:0:
492,40,22876,2,0,L|500:104,1,65,2|2,1:3|2:0,0:0:0:0:
380,48,23137,6,0,P|316:84|256:80,1,130,4|2,2:0|1:3,0:0:0:0:
155,157,23528,2,0,P|210:204|270:212,1,130,4|0,2:0|2:0,0:0:0:0:
368,176,23920,2,0,P|397:163|423:144,1,65,2|2,1:3|2:0,0:0:0:0:
390,282,24180,2,0,P|412:305|439:322,1,65,4|0,0:0|2:0,0:0:0:0:
288,320,24441,2,0,P|274:349|266:380,1,65,2|2,1:3|2:0,0:0:0:0:
265,212,24702,1,4,0:0:0:0:
192,260,24833,1,4,0:0:0:0:
124,208,24963,2,0,L|48:208,1,65,2|2,1:3|2:0,0:0:0:0:
40,344,25224,6,0,L|170:344,1,130,4|2,0:0|1:3,0:0:0:0:
124,208,25615,2,0,L|248:260,1,130,4|0,0:0|2:0,0:0:0:0:
292,148,26007,2,0,L|337:194,1,65,2|2,1:3|2:0,2:0:0:0:
112,112,26267,2,0,P|129:80|151:61,1,65,4|0,0:0|2:0,0:0:0:0:
287,10,26528,2,0,P|272:38|248:60,1,65,2|2,1:3|2:0,0:0:0:0:
192,188,26789,2,0,P|198:219|215:246,1,65,4|4,0:0|0:0,0:0:0:0:
112,340,27050,2,0,P|142:350|174:348,1,65,2|2,1:3|2:0,0:0:0:0:
304,320,27311,6,0,L|440:336,1,130,4|2,0:0|1:3,0:0:0:0:
512,232,27702,2,0,L|382:216,1,130,4|0,0:0|2:0,0:0:0:0:
215,246,28094,2,0,L|276:224,1,65,4|2,1:2|2:0,0:0:0:0:
324,128,28354,6,0,P|329:85|355:52,1,86.6666666666667,8|8,1:3|0:0,0:0:0:0:
404,116,28615,2,0,P|429:81|468:65,1,86.6666666666667,4|2,0:0|1:3,0:0:0:0:
479,145,28876,1,2,1:2:0:0:
284,16,29137,5,2,1:3:0:0:
284,16,29267,1,2,1:3:0:0:
284,16,29398,2,0,P|246:88|243:136,1,130,4|2,0:2|1:3,0:0:0:0:
260,220,29789,2,0,L|380:276,1,130,4|0,0:2|2:0,0:0:0:0:
420,200,30180,1,2,1:3:0:0:
252,336,30441,6,0,P|287:335|324:348,1,65,4|0,0:0|2:0,0:0:0:0:
323,227,30702,2,0,P|291:228|260:220,1,65,2|2,1:3|2:0,0:0:0:0:
192,274,30963,1,4,0:0:0:0:
124,220,31094,1,4,0:0:0:0:
160,140,31224,2,0,L|296:140,1,130,2|4,1:3|0:2,0:0:0:0:
40,196,31746,1,2,1:3:0:0:
124,220,31876,2,0,P|186:200|227:145,1,130,4|0,0:2|2:0,0:0:0:0:
132,124,32267,2,0,L|64:112,1,65,2|2,1:3|2:0,0:0:0:0:
124,220,32528,6,0,P|132:257|128:288,1,65,4|0,0:0|2:0,0:0:0:0:
220,136,32789,2,0,P|212:99|216:68,1,65,2|2,1:3|2:0,0:0:0:0:
376,0,33050,2,0,P|364:36|345:60,1,65,4|4,0:0|0:0,0:0:0:0:
300,212,33311,2,0,P|311:248|330:272,1,65,2|2,1:3|2:0,0:0:0:0:
380,152,33572,6,0,L|512:168,1,130,4|2,0:0|1:3,0:0:0:0:
388,304,33963,2,0,L|258:288,1,130,4|2,0:0|2:0,0:0:0:0:
160,245,34354,2,0,P|156:206|164:183,1,65,2|0,1:3|2:0,0:0:0:0:
312,8,34615,5,6,1:0:0:0:
20,36,34876,1,6,1:0:0:0:
312,8,35137,1,6,1:0:0:0:
20,36,35398,1,6,1:0:0:0:
175,113,35659,5,4,0:0:0:0:
432,84,35920,1,2,1:3:0:0:
409,168,36050,2,0,P|345:177|292:143,1,130,4|2,0:0|2:0,0:0:0:0:
175,112,36441,2,0,P|199:91|229:82,1,65,2|0,1:3|2:0,0:0:0:0:
168,224,36702,6,0,L|164:292,1,65,4|0,1:3|2:0,0:0:0:0:
40,260,36963,2,2,L|36:328,1,65,2|0,1:3|2:0,0:0:0:0:
88,132,37224,2,0,L|92:200,1,65,4|0,1:3|2:0,0:0:0:0:
164,289,37485,2,2,L|168:357,1,65,2|0,1:3|2:0,0:0:0:0:
332,196,37746,6,0,P|376:144|376:84,1,130,4|2,0:2|1:3,0:0:0:0:
264,104,38137,2,0,P|199:80|169:29,1,130,4|2,0:2|2:0,0:0:0:0:
176,160,38528,2,0,L|156:236,1,65,2|0,1:3|2:0,0:0:0:0:
186,318,38789,2,0,P|218:334|250:338,1,65,4|0,0:0|2:0,0:0:0:0:
312,264,39050,2,0,P|344:260|375:267,1,65,2|2,1:3|2:0,0:0:0:0:
457,297,39311,1,4,0:0:0:0:
416,372,39441,1,4,0:0:0:0:
340,332,39572,6,0,L|356:184,1,130,2|4,1:3|0:2,0:0:0:0:
432,24,40094,1,2,1:3:0:0:
496,80,40224,2,0,L|482:209,1,130,4|2,3:2|2:0,0:0:0:0:
396,112,40615,2,0,P|364:92|347:69,1,65,2|0,1:3|2:0,0:0:0:0:
280,144,40876,6,0,P|300:169|328:185,1,65,4|0,0:0|2:0,0:0:0:0:
200,84,41137,2,0,P|191:52|195:20,1,65,2|2,1:3|2:0,0:0:0:0:
44,80,41398,2,0,P|52:111|48:143,1,65,4|4,0:0|0:0,0:0:0:0:
88,268,41659,2,0,P|71:295|46:316,1,65,2|2,1:3|2:0,0:0:0:0:
116,188,41920,6,0,L|256:192,1,130,4|2,0:0|1:3,0:0:0:0:
172,300,42311,2,0,L|312:304,1,130,4|2,0:0|2:0,0:0:0:0:
408,283,42702,2,0,P|438:260|454:232,1,65,2|0,1:3|2:0,0:0:0:0:
488,12,42963,5,6,1:0:0:0:
196,40,43224,1,6,1:0:0:0:
488,12,43485,1,6,1:0:0:0:
196,40,43746,1,6,1:0:0:0:
216,212,44007,5,4,0:0:0:0:
20,119,44267,1,2,1:3:0:0:
71,48,44398,2,0,P|132:27|196:40,1,130,4|2,0:0|2:0,0:0:0:0:
224,148,44789,2,0,L|216:212,1,65,2|0,1:3|2:0,0:0:0:0:
116,232,45050,6,0,P|83:233|53:222,1,65,4|0,1:3|2:0,0:0:0:0:
196,320,45311,2,2,P|158:329|136:344,1,65,2|0,1:3|2:0,0:0:0:0:
278,221,45572,2,0,P|246:222|216:212,1,65,4|0,1:3|2:0,0:0:0:0:
358,309,45833,2,2,P|320:318|298:333,1,65,2|0,1:3|2:0,0:0:0:0:
384,204,46094,6,0,L|388:136,2,65,2|0|8,1:3|0:0|0:0,0:0:0:0:
452,288,46485,2,0,L|456:356,2,65,4|0|4,0:0|0:0|0:0,0:0:0:0:
491,187,46876,2,2,B|507:123|491:102|464:102|454:125|462:147|486:137,1,130,2|0,1:3|2:0,0:0:0:0:
491,187,48180,5,4,1:3:0:0:
368,36,48572,1,2,1:3:0:0:
298,218,48963,1,2,1:3:0:0:
176,176,49224,6,0,P|140:148|120:112,1,86.6666666666667,2|8,1:3|0:0,0:0:0:0:
188,304,49659,1,0,1:0:0:0:
188,304,49746,2,0,L|196:348,2,43.3333333333333,2|0|0,1:3|1:0|1:0,0:0:0:0:
106,299,50007,2,0,L|80:335,2,43.3333333333333,8|8|4,0:0|0:0|0:0,0:0:0:0:
92,220,50267,6,0,P|50:168|31:108,1,130,4|2,0:2|1:3,0:0:0:0:
132,68,50659,2,0,P|125:99|129:131,2,65,4|2|0,0:0|2:0|2:0,0:0:0:0:
204,20,51050,1,2,1:3:0:0:
288,40,51180,1,0,2:0:0:0:
352,100,51311,2,0,P|348:172|307:206,1,130,4|2,0:0|1:3,0:0:0:0:
237,273,51702,2,0,P|294:302|356:289,1,130,4|2,0:0|2:0,0:0:0:0:
433,248,52094,1,2,1:3:0:0:
280,132,52354,6,0,L|148:124,1,130,4|2,0:0|1:3,0:0:0:0:
292,292,52876,2,0,L|421:299,1,130,4|2,0:0|1:3,0:0:0:0:
484,240,53267,1,0,2:0:0:0:
504,156,53398,2,0,P|488:88|440:56,1,130,4|2,0:0|1:3,0:0:0:0:
408,148,53789,2,0,P|338:145|294:183,1,130,4|4,0:0|0:0,0:0:0:0:
268,78,54180,2,0,P|294:61|327:52,1,65,2|2,1:3|2:0,0:0:0:0:
212,160,54441,6,0,L|80:152,1,130,4|2,0:2|1:3,0:0:0:0:
36,252,54833,2,0,P|124:260|164:288,1,130,4|2,0:0|2:0,0:0:0:0:
240,256,55224,2,0,L|300:220,1,65,2|0,1:3|2:0,0:0:0:0:
292,124,55485,2,0,L|228:124,2,65,4|2|2,0:0|2:0|1:3,0:0:0:0:
384,160,55876,2,0,P|402:234|384:287,1,130,4|2,0:0|2:0,0:0:0:0:
324,344,56267,1,2,1:3:0:0:
164,232,56528,6,0,P|156:152|180:104,1,130,4|2,0:0|1:3,0:0:0:0:
16,248,57050,2,0,P|24:328|0:376,1,130,4|2,0:0|1:3,0:0:0:0:
90,364,57441,1,0,2:0:0:0:
164,317,57572,6,0,L|212:317,2,43.3333333333333,4|2|2,0:2|0:0|0:0,0:0:0:0:
100,268,57833,2,0,L|89:227,2,43.3333333333333,8|0|0,1:3|1:0|1:0,0:0:0:0:
174,238,58094,2,0,L|222:238,2,43.3333333333333,4|2|2,0:0|0:0|0:0,0:0:0:0:
144,164,58354,2,0,L|133:123,2,43.3333333333333,8|0|0,1:3|1:0|1:0,0:0:0:0:
224,158,58615,6,0,P|282:129|308:72,1,130,4|2,0:2|1:3,0:0:0:0:
344,176,59007,2,0,P|375:203|455:206,2,65,4|2|0,0:0|2:0|2:0,0:0:0:0:
416,128,59398,1,2,1:3:0:0:
500,152,59528,1,0,2:0:0:0:
480,236,59659,2,0,L|480:372,1,130,4|2,0:0|1:3,0:0:0:0:
397,341,60050,2,0,L|397:211,1,130,4|2,0:0|2:0,0:0:0:0:
416,128,60441,1,2,1:3:0:0:
260,16,60702,6,0,P|200:48|140:40,1,130,4|2,0:0|1:3,0:0:0:0:
192,232,61224,2,0,P|252:200|312:208,1,130,4|2,0:0|1:3,0:0:0:0:
354,284,61615,1,0,2:0:0:0:
272,312,61746,2,0,L|136:308,1,130,4|2,0:0|1:3,0:0:0:0:
56,359,62137,2,0,P|42:320|44:292,1,65,4|2,0:0|2:0,0:0:0:0:
80,219,62398,1,4,0:0:0:0:
166,220,62528,2,0,P|179:181|177:153,1,65,2|0,1:3|2:0,0:0:0:0:
292,128,62789,6,0,P|253:61|204:44,1,130,4|2,0:2|1:3,0:0:0:0:
110,44,63180,2,0,L|99:109,2,65,4|2|0,0:0|2:0|2:0,0:0:0:0:
16,124,63572,2,0,P|31:158|60:185,1,65,2|0,1:3|2:0,0:0:0:0:
0,276,63833,2,0,L|144:280,1,130,4|2,0:0|1:3,0:0:0:0:
140,180,64224,2,0,P|203:209|229:268,1,130,4|2,0:0|2:0,0:0:0:0:
194,355,64615,2,0,P|159:373|132:376,1,65,2|0,1:3|2:0,0:0:0:0:
129,279,64876,6,0,L|264:275,1,130,4|2,0:0|1:3,0:0:0:0:
354,250,65267,2,0,L|362:182,2,65,4|2|0,0:0|2:0|2:0,0:0:0:0:
325,333,65659,1,2,1:3:0:0:
224,132,65920,1,4,0:0:0:0:
260,52,66050,1,2,1:3:0:0:
344,36,66180,2,0,L|412:40,1,65,4|4,0:0|0:0,0:0:0:0:
388,136,66441,2,0,L|323:132,1,65,2|4,1:3|0:0,0:0:0:0:
476,106,66702,1,2,1:3:0:0:
504,188,66833,1,2,1:3:0:0:
501,274,66963,6,0,P|436:307|380:303,1,130,4|2,0:2|1:3,0:0:0:0:
331,180,67354,2,0,P|278:217|252:275,1,130,4|0,0:2|2:0,0:0:0:0:
153,270,67746,2,0,P|164:318|179:340,1,65,2|2,1:3|2:0,0:0:0:0:
57,272,68007,2,0,P|68:224|83:202,1,65,4|0,0:0|2:0,0:0:0:0:
176,172,68267,2,0,P|165:124|150:102,1,65,2|2,1:3|2:0,0:0:0:0:
48,120,68528,1,4,0:0:0:0:
8,44,68659,1,4,0:0:0:0:
88,16,68789,2,0,L|160:16,1,65,2|2,1:3|2:0,0:0:0:0:
276,56,69050,6,0,P|344:56|388:16,1,130,4|2,0:2|1:3,0:0:0:0:
376,144,69441,2,0,P|309:157|249:143,1,130,4|0,0:2|2:0,0:0:0:0:
164,96,69833,2,0,P|153:128|153:159,1,65,2|2,1:3|2:0,0:0:0:0:
160,256,70094,6,0,L|212:296,1,65,4|0,0:0|2:0,0:0:0:0:
296,232,70354,2,0,L|361:240,1,65,2|2,1:3|2:0,0:0:0:0:
436,316,70615,1,4,0:0:0:0:
480,242,70746,1,4,0:0:0:0:
480,156,70876,2,0,P|473:118|448:80,1,65,2|2,1:3|2:0,0:0:0:0:
372,156,71137,6,0,L|232:156,1,130,4|2,0:0|1:3,0:0:0:0:
164,232,71528,2,0,P|133:147|150:100,1,130,4|0,0:0|2:0,0:0:0:0:
220,36,71920,2,0,P|255:46|281:65,1,65,2|2,1:3|2:0,0:0:0:0:
280,168,72180,2,0,L|216:162,1,65,4|0,0:0|2:0,0:0:0:0:
132,60,72441,2,0,L|68:66,1,65,2|2,1:3|2:0,0:0:0:0:
104,168,72702,2,0,L|112:236,1,65,4|4,0:0|0:0,0:0:0:0:
24,296,72963,2,0,L|16:364,1,65,2|2,1:3|2:0,0:0:0:0:
132,350,73224,6,0,P|200:339|254:363,1,130,4|2,0:0|1:3,0:0:0:0:
200,240,73615,2,0,P|259:264|322:253,1,130,4|0,0:0|2:0,0:0:0:0:
380,332,74007,2,0,P|406:304|420:268,1,65,2|2,1:3|2:0,0:0:0:0:
427,193,74267,1,4,0:0:0:0:
349,156,74398,1,2,1:3:0:0:
268,184,74528,2,0,L|200:184,1,65,4|4,0:0|0:0,0:0:0:0:
348,64,74789,1,2,1:3:0:0:
267,92,74919,2,0,L|199:92,1,65,4|4,0:0|0:0,0:0:0:0:
4,184,75311,6,0,P|-16:116|8:64,1,130,4|2,0:2|1:3,0:0:0:0:
96,128,75702,2,0,P|116:196|92:248,1,130,4|0,0:0|2:0,0:0:0:0:
72,344,76094,2,0,P|40:330|18:311,1,65,2|2,1:3|2:0,0:0:0:0:
92,247,76354,2,0,L|224:248,2,130,4|2|4,0:0|1:3|0:0,0:0:0:0:
56,168,77007,1,4,0:0:0:0:
92,88,77137,2,0,P|111:59|140:40,1,65,2|0,1:3|2:0,0:0:0:0:
236,84,77398,6,0,P|208:144|139:180,1,130,4|2,0:0|1:3,0:0:0:0:
200,276,77789,2,0,P|254:238|331:240,1,130,4|2,0:0|2:0,0:0:0:0:
400,252,78180,1,2,1:3:0:0:
443,328,78311,1,0,2:0:0:0:
400,252,78441,6,0,L|412:184,1,65,4|0,0:0|2:0,0:0:0:0:
496,120,78702,2,0,L|507:184,1,65,2|2,1:3|2:0,0:0:0:0:
456,24,78963,2,0,P|416:22|388:12,1,65,4|4,0:0|0:0,0:0:0:0:
312,100,79224,2,0,P|352:102|380:112,1,65,2|2,1:3|2:0,0:0:0:0:
328,208,79485,6,0,L|184:208,1,130,4|2,0:0|1:3,0:0:0:0:
136,296,79876,2,0,P|97:243|93:180,1,130,4|2,0:0|2:0,0:0:0:0:
164,60,80267,2,0,P|170:94|164:123,1,65,2|0,1:3|2:0,0:0:0:0:
3,12,80528,5,6,1:0:0:0:
20,304,80789,1,6,1:0:0:0:
3,12,81050,1,6,1:0:0:0:
20,304,81311,1,6,1:0:0:0:
103,153,81572,5,4,0:0:0:0:
212,340,81833,1,2,1:3:0:0:
292,308,81963,2,0,P|320:248|304:188,1,130,4|2,0:0|2:0,0:0:0:0:
188,200,82354,2,0,P|208:225|236:242,1,65,2|0,1:3|2:0,0:0:0:0:
392,196,82615,6,0,L|456:204,1,65,4|0,1:3|2:0,0:0:0:0:
368,320,82876,2,2,L|304:328,1,65,2|0,1:3|2:0,0:0:0:0:
328,204,83137,2,0,L|392:196,1,65,4|0,1:3|2:0,0:0:0:0:
432,328,83398,2,2,L|368:320,1,65,2|0,1:3|2:0,0:0:0:0:
244,272,83659,6,0,P|172:268|124:304,1,130,4|2,0:2|1:3,0:0:0:0:
21,223,84050,2,0,P|9:151|37:103,1,130,4|2,0:2|2:0,0:0:0:0:
105,174,84441,2,0,L|173:174,1,65,2|0,1:3|2:0,0:0:0:0:
179,272,84702,2,0,L|244:272,1,65,4|0,0:0|2:0,0:0:0:0:
328,204,84963,5,2,1:3:0:0:
415,204,85094,2,0,P|445:186|463:159,1,65,2|4,2:0|0:0,0:0:0:0:
384,124,85354,1,4,0:0:0:0:
295,124,85485,2,0,P|265:142|247:169,1,65,2|2,1:3|2:0,0:0:0:0:
254,297,85746,6,0,P|308:264|328:204,1,130,4|2,0:2|1:3,0:0:0:0:
464,160,86137,2,0,P|466:93|425:46,1,130,4|2,0:2|2:0,0:0:0:0:
332,32,86528,2,0,L|268:36,1,65,2|0,1:3|2:0,0:0:0:0:
194,117,86789,2,0,P|209:150|233:172,1,65,4|0,0:0|2:0,0:0:0:0:
122,61,87050,2,0,P|85:57|53:67,1,65,2|2,1:3|2:0,0:0:0:0:
62,174,87311,2,0,P|98:177|130:167,1,65,4|4,0:0|0:0,0:0:0:0:
268,36,87572,2,0,P|238:14|205:7,1,65,2|2,1:3|2:0,0:0:0:0:
194,117,87833,6,0,L|198:248,1,130,4|2,0:0|1:3,0:0:0:0:
96,178,88224,2,0,L|99:307,1,130,4|2,0:0|2:0,0:0:0:0:
192,344,88615,2,0,P|236:336|268:316,1,65,2|0,1:3|2:0,0:0:0:0:
352,216,88876,6,0,L|284:212,1,65,4|0,1:3|2:0,0:0:0:0:
437,301,89137,2,2,L|501:304,1,65,2|0,1:3|2:0,0:0:0:0:
352,300,89398,2,0,L|348:368,1,65,4|0,1:3|2:0,0:0:0:0:
437,216,89659,2,2,L|440:151,1,65,2|0,1:3|2:0,0:0:0:0:
420,35,89920,6,0,P|361:62|329:117,1,130,4|2,0:0|1:3,0:0:0:0:
232,52,90311,2,0,P|209:111|225:173,1,130,4|2,0:0|2:0,0:0:0:0:
280,256,90702,2,0,L|336:288,1,65,2|0,1:3|2:0,0:0:0:0:
200,360,90963,6,0,P|174:337|160:308,1,65,4|0,1:3|2:0,0:0:0:0:
152,188,91224,2,2,P|137:216|112:237,1,65,2|0,1:3|2:0,0:0:0:0:
88,360,91485,2,0,P|62:337|48:308,1,65,4|0,1:3|2:0,0:0:0:0:
40,188,91746,2,2,P|25:216|0:237,1,65,2|0,1:3|2:0,0:0:0:0:
20,76,92007,6,0,L|84:76,1,65,2|0,1:3|0:0,0:0:0:0:
156,124,92267,1,8,0:0:0:0:
204,52,92398,2,0,L|263:75,1,65,4|0,0:0|0:0,0:0:0:0:
311,146,92658,1,4,0:0:0:0:
383,98,92789,2,2,B|447:81|468:97|468:124|445:134|423:127|433:103,1,130,2|0,1:3|2:0,0:0:0:0:
383,98,94094,5,4,1:3:0:0:
428,288,94485,1,2,1:3:0:0:
252,372,94876,2,2,B|188:388|167:372|167:345|190:335|212:343|202:367,1,130,2|0,1:3|2:0,0:0:0:0:
252,372,96180,6,0,L|248:308,1,65,2|0,1:3|0:0,0:0:0:0:
308,244,96441,1,8,0:0:0:0:
224,224,96572,2,0,L|160:228,1,65,4|0,0:0|0:0,0:0:0:0:
96,168,96833,1,4,0:0:0:0:
76,252,96963,2,2,B|60:316|76:337|103:337|113:314|105:292|81:302,1,130,2|0,1:3|2:0,0:0:0:0:
76,252,98267,5,4,1:3:0:0:
256,176,98659,1,2,1:3:0:0:
436,252,99050,1,2,1:3:0:0:
340,340,99311,6,0,P|298:320|276:284,1,86.6666666666667,2|8,1:3|0:0,0:0:0:0:
396,124,99746,1,0,1:0:0:0:
396,124,99833,2,0,L|440:124,2,43.3333333333333,2|0|0,1:3|1:0|1:0,0:0:0:0:
316,140,100094,2,0,L|306:185,2,43.3333333333333,8|8|4,0:0|0:0|0:0,0:0:0:0:
343,64,100354,6,0,P|295:20|232:12,1,130,4|2,0:2|1:3,0:0:0:0:
164,98,100746,2,0,L|160:162,2,65,4|2|0,0:0|2:0|2:0,0:0:0:0:
248,124,101137,1,2,1:3:0:0:
268,208,101267,1,0,2:0:0:0:
212,276,101398,2,0,P|141:287|84:264,1,130,4|2,0:0|1:3,0:0:0:0:
52,164,101789,2,0,L|60:34,1,130,4|2,0:0|2:0,0:0:0:0:
144,56,102180,1,2,1:3:0:0:
220,16,102311,1,0,2:0:0:0:
296,56,102441,6,0,P|360:49|412:8,1,130,4|2,0:0|1:3,0:0:0:0:
504,224,102963,2,0,P|453:184|389:177,1,130,4|2,0:0|1:3,0:0:0:0:
312,216,103354,1,0,2:0:0:0:
288,300,103485,2,0,L|408:364,1,130,4|2,0:0|1:3,0:0:0:0:
512,322,103876,2,0,L|397:260,1,130,4|4,0:0|0:0,0:0:0:0:
312,216,104267,2,0,P|273:214|245:223,1,65,2|2,1:3|2:0,0:0:0:0:
120,292,104528,6,0,P|156:232|140:172,1,130,4|2,0:2|1:3,0:0:0:0:
272,116,104920,2,0,P|208:111|166:63,1,130,4|2,0:0|2:0,0:0:0:0:
96,15,105311,1,2,1:3:0:0:
32,72,105441,1,0,2:0:0:0:
56,156,105572,2,0,L|60:220,1,65,4|2,0:0|2:0,0:0:0:0:
16,296,105833,1,2,1:3:0:0:
83,242,105963,2,0,P|147:247|189:295,1,130,4|2,0:0|2:0,0:0:0:0:
244,200,106354,1,2,1:3:0:0:
304,264,106485,1,0,2:0:0:0:
288,348,106615,6,0,L|148:344,1,130,4|2,0:0|1:3,0:0:0:0:
364,184,107137,2,0,L|504:188,1,130,4|2,0:0|1:3,0:0:0:0:
476,272,107528,1,0,2:0:0:0:
428,344,107659,6,0,L|396:372,2,43.3333333333333,4|2|2,0:2|0:0|0:0,0:0:0:0:
356,304,107920,2,0,L|304:304,2,43.3333333333333,8|0|0,1:3|1:0|1:0,0:0:0:0:
396,232,108180,2,0,L|428:260,2,43.3333333333333,4|2|2,0:0|0:0|0:0,0:0:0:0:
468,192,108441,2,0,L|520:192,2,43.3333333333333,8|8|8,0:0|0:0|1:3,0:0:0:0:
400,144,108702,6,0,P|380:72|408:28,1,130,4|2,0:2|1:3,0:0:0:0:
300,108,109094,2,0,L|216:96,2,65,4|2|0,0:0|2:0|2:0,0:0:0:0:
328,190,109485,1,2,1:3:0:0:
300,272,109615,1,0,2:0:0:0:
220,308,109746,2,0,P|156:284|96:300,1,130,4|2,0:0|1:3,0:0:0:0:
112,180,110137,2,0,P|176:204|236:188,1,130,4|2,0:0|2:0,0:0:0:0:
288,120,110528,1,2,1:3:0:0:
224,60,110659,1,0,2:0:0:0:
176,132,110789,6,0,L|176:276,1,130,4|2,0:0|1:3,0:0:0:0:
232,328,111180,1,2,2:0:0:0:
316,304,111311,2,0,L|316:174,1,130,4|2,0:0|1:3,0:0:0:0:
288,92,111702,1,0,2:0:0:0:
352,32,111833,2,0,P|416:16|472:40,1,130,4|2,0:0|1:3,0:0:0:0:
466,137,112224,2,0,P|435:129|408:112,1,65,4|2,0:0|2:0,0:0:0:0:
340,168,112485,1,4,0:0:0:0:
408,224,112615,2,0,P|439:232|466:249,1,65,2|0,1:3|2:0,0:0:0:0:
340,308,112876,6,0,L|208:300,1,130,4|2,0:2|1:3,0:0:0:0:
160,216,113267,2,0,P|166:180|184:152,2,65,4|2|0,0:0|2:0|2:0,0:0:0:0:
104,300,113659,2,0,P|108:332|123:360,1,65,2|0,1:3|2:0,0:0:0:0:
52,204,113920,2,0,P|68:132|104:80,1,130,4|2,0:0|1:3,0:0:0:0:
180,155,114311,2,0,P|184:224|216:280,1,130,4|2,0:0|2:0,0:0:0:0:
276,336,114702,1,2,1:3:0:0:
364,340,114833,1,0,2:0:0:0:
444,304,114963,6,0,L|456:168,1,130,4|2,0:0|1:3,0:0:0:0:
364,212,115354,2,0,L|300:204,2,65,4|2|0,0:0|2:0|2:0,0:0:0:0:
368,80,115746,1,4,1:2:0:0:
240,276,116007,1,4,0:0:0:0:
240,276,116137,1,2,1:3:0:0:
156,324,116267,1,4,0:0:0:0:
156,324,116397,1,2,1:3:0:0:
120,232,116528,1,4,0:0:0:0:
120,232,116658,1,2,1:3:0:0:
36,280,116788,1,8,0:0:0:0:
72,372,116920,1,4,0:0:0:0:
36,280,117050,6,0,P|24:215|54:160,1,130,4|8,0:2|0:2,0:0:0:0:
32,64,117441,2,0,P|62:63|96:73,1,65,4|0,0:0|2:0,0:0:0:0:
156,136,117702,1,0,2:0:0:0:
228,88,117833,2,0,P|258:89|292:79,1,65,8|0,0:2|2:0,0:0:0:0:
356,136,118094,5,4,0:0:0:0:
420,296,118354,1,8,0:2:0:0:
504,48,118615,1,2,2:0:0:0:
504,48,118876,1,2,1:2:0:0:
484,220,119137,6,0,L|352:216,1,130,4|8,0:0|0:2,0:0:0:0:
256,232,119528,2,0,P|241:268|240:296,1,65,4|0,0:0|2:0,0:0:0:0:
176,352,119789,1,0,2:0:0:0:
136,276,119920,2,0,P|138:243|152:214,1,65,8|0,0:2|2:0,0:0:0:0:
232,140,120180,5,4,0:2:0:0:
28,216,120441,1,8,0:2:0:0:
224,12,120702,1,4,0:2:0:0:
20,88,120963,1,8,0:2:0:0:
232,140,121224,6,0,L|364:148,1,130,4|8,0:0|0:2,0:0:0:0:
460,147,121615,2,0,P|481:124|490:93,1,65,4|0,0:0|2:0,0:0:0:0:
406,217,121876,1,0,2:0:0:0:
408,304,122007,2,0,P|417:334|438:358,1,65,8|0,0:2|2:0,0:0:0:0:
494,291,122267,5,4,0:0:0:0:
280,328,122528,1,8,0:2:0:0:
332,72,122789,2,0,L|336:36,1,32.5,2|0,2:0|2:0,0:0:0:0:
180,72,123050,2,0,L|176:36,1,32.5,2|0,1:2|2:0,0:0:0:0:
256,180,123311,6,0,L|256:244,1,65,4|0,0:0|2:0,0:0:0:0:
196,308,123572,1,8,0:2:0:0:
128,256,123702,2,0,P|57:240|12:268,1,130,4|0,0:0|2:0,0:0:0:0:
0,356,124094,1,8,0:2:0:0:
152,120,124354,5,4,0:2:0:0:
76,324,124615,1,8,0:2:0:0:
280,128,124876,1,4,0:2:0:0:
204,332,125137,1,8,0:2:0:0:
152,120,125398,6,0,L|20:104,1,130,4|2,0:2|1:3,0:0:0:0:
56,196,125789,2,0,P|84:217|112:224,1,65,4|0,0:0|2:0,0:0:0:0:
196,200,126050,1,0,2:0:0:0:
236,124,126180,2,0,L|236:52,1,65,2|0,1:3|2:0,0:0:0:0:
312,184,126441,6,0,L|312:320,1,130,4|2,0:0|1:3,0:0:0:0:
408,284,126833,2,0,L|408:154,1,130,4|0,0:0|2:0,0:0:0:0:
389,57,127224,2,0,P|335:85|324:102,1,65,2|0,1:3|2:0,0:0:0:0:
257,151,127485,2,0,P|281:172|312:184,2,65,4|0|8,0:0|2:0|0:2,0:0:0:0:
208,68,127876,2,0,P|214:36|209:3,2,65,4|0|0,0:0|2:0|2:0,0:0:0:0:
160,152,128267,2,0,P|129:162|103:183,1,65,8|0,0:2|2:0,0:0:0:0:
48,276,128528,5,4,0:2:0:0:
256,340,128789,1,8,0:2:0:0:
464,276,129050,1,4,0:2:0:0:
256,212,129311,1,8,0:2:0:0:
48,148,129572,6,0,P|54:75|90:35,1,130,4|8,0:0|0:2,0:0:0:0:
142,119,129963,2,0,P|214:112|254:76,1,130,4|0,0:0|2:0,0:0:0:0:
170,24,130354,1,8,0:2:0:0:
288,208,130615,2,0,P|346:234|408:220,1,130,4|8,0:0|0:2,0:0:0:0:
320,316,131007,2,0,P|261:342|199:328,1,130,4|0,0:0|2:0,0:0:0:0:
112,264,131398,1,12,0:2:0:0:
296,48,131659,6,0,L|320:12,2,43.3333333333333,2|0|0,1:3|1:0|1:0,0:0:0:0:
380,100,131920,2,0,L|423:102,2,43.3333333333333,8|0|0,0:2|1:0|1:0,0:0:0:0:
344,192,132180,2,0,L|363:230,2,43.3333333333333,8|8|8,0:0|0:0|0:0,0:0:0:0:
412,304,132441,2,0,L|392:342,2,43.3333333333333,8|8|8,0:2|0:0|0:0,0:0:0:0:
464,220,132702,6,0,L|445:182,2,43.3333333333333,4|2|2,0:2|0:0|0:0,0:0:0:0:
344,192,132963,2,0,L|324:230,2,43.3333333333333,8|0|0,0:2|1:0|1:0,0:0:0:0:
188,230,133224,2,0,L|168:192,2,43.3333333333333,4|8|8,0:2|0:0|0:0,0:0:0:0:
67,182,133485,2,0,L|48:220,2,43.3333333333333,8|4|4,0:2|0:0|0:0,0:0:0:0:
256,72,133746,5,4,1:2:0:0:
