osu file format v13

[General]
AudioFilename: 10 - Anklebiters.mp3
AudioLeadIn: 0
PreviewTime: 50267
Countdown: 0
SampleSet: Normal
StackLeniency: 0.4
Mode: 1
LetterboxInBreaks: 0
WidescreenStoryboard: 1

[Editor]
DistanceSpacing: 0.7
BeatDivisor: 4
GridSize: 32
TimelineZoom: 2.899999

[Metadata]
Title:Anklebiters
TitleUnicode:Anklebiters
Artist:Paramore
ArtistUnicode:Paramore
Creator:Priti
Version:Nwolf's Muzukashii
Source:
Tags:Power Pop Punk New Wave Hayley Williams EvilElvisV2 EvilElvis Zero__Wind grumd Tess Nwolf
BeatmapID:573663
BeatmapSetID:227990

[Difficulty]
HPDrainRate:5
CircleSize:4
OverallDifficulty:5
ApproachRate:8
SliderMultiplier:1.4
SliderTickRate:3

[Events]
//Background and Video events
0,0,"441710515_1280.jpg",0,0
//Break Periods
//Storyboard Layer 0 (Background)
//Storyboard Layer 1 (Fail)
//Storyboard Layer 2 (Pass)
//Storyboard Layer 3 (Foreground)
//Storyboard Sound Samples

[TimingPoints]
181,260.869565217391,4,1,0,40,1,0
4224,-100,4,1,0,60,0,0
11528,-100,4,1,0,80,0,0
34615,-100,4,1,0,80,0,1
35659,-100,4,1,0,80,0,0
36702,-100,4,1,0,80,0,1
37746,-100,4,1,0,80,0,0
42963,-100,4,1,0,80,0,1
44007,-100,4,1,0,80,0,0
45050,-100,4,1,0,80,0,1
46094,-100,4,1,0,80,0,0
50267,-100,4,1,0,80,0,1
66963,-100,4,1,0,80,0,0
80528,-100,4,1,0,80,0,1
81572,-100,4,1,0,80,0,0
82615,-100,4,1,0,80,0,1
83659,-100,4,1,0,80,0,0
88876,-100,4,1,0,80,0,1
89920,-100,4,1,0,80,0,0
90963,-100,4,1,0,80,0,1
92007,-100,4,1,0,80,0,0
100354,-100,4,1,0,80,0,1
117050,-100,4,1,0,80,0,0

[Colours]
Combo1 : 135,171,211
Combo2 : 208,79,64
Combo3 : 148,200,96
Combo4 : 216,189,109

[HitObjects]
288,160,2267,5,8,0:0:0:0:
288,160,2789,1,8,0:0:0:0:
288,160,3311,1,8,0:0:0:0:
288,160,3572,1,8,0:0:0:0:
288,160,3833,1,8,0:0:0:0:
288,160,4094,1,8,0:0:0:0:
224,224,4354,1,4,0:0:0:0:
288,160,4615,1,8,0:0:0:0:
224,160,4746,1,0,0:0:0:0:
288,160,5137,1,8,0:0:0:0:
224,160,5398,1,0,0:0:0:0:
288,160,5659,1,8,0:0:0:0:
224,160,5920,1,0,0:0:0:0:
224,160,6050,1,0,0:0:0:0:
288,160,6180,1,8,0:0:0:0:
224,160,6441,1,0,0:0:0:0:
288,160,6702,1,8,0:0:0:0:
224,160,6833,1,0,0:0:0:0:
288,160,7224,1,8,0:0:0:0:
224,160,7485,1,0,0:0:0:0:
288,160,7746,1,8,0:0:0:0:
224,160,8007,1,0,0:0:0:0:
224,160,8528,1,0,0:0:0:0:
288,160,8789,1,8,0:0:0:0:
224,160,8920,1,0,0:0:0:0:
288,160,9311,1,8,0:0:0:0:
224,160,9572,1,0,0:0:0:0:
288,160,9833,1,8,0:0:0:0:
224,160,10094,1,0,0:0:0:0:
224,160,10224,1,0,0:0:0:0:
288,160,10354,1,8,0:0:0:0:
224,160,10615,1,0,0:0:0:0:
288,160,10876,1,8,0:0:0:0:
224,160,11007,1,0,0:0:0:0:
288,160,11398,1,8,0:0:0:0:
32,64,11659,2,0,L|480:64,1,420
224,224,12702,5,4,0:0:0:0:
288,160,12963,1,8,0:0:0:0:
224,160,13094,1,0,0:0:0:0:
288,160,13485,1,8,0:0:0:0:
224,160,13746,1,0,0:0:0:0:
288,160,14007,1,8,0:0:0:0:
224,160,14267,1,0,0:0:0:0:
224,160,14398,1,0,0:0:0:0:
288,160,14528,1,8,0:0:0:0:
224,160,14789,1,0,0:0:0:0:
288,160,15050,1,8,0:0:0:0:
224,160,15180,1,0,0:0:0:0:
288,160,15572,1,8,0:0:0:0:
224,160,15833,1,0,0:0:0:0:
288,160,16094,1,8,0:0:0:0:
224,160,16354,1,0,0:0:0:0:
224,160,16485,1,0,0:0:0:0:
288,160,16615,1,8,0:0:0:0:
224,160,16876,1,0,0:0:0:0:
288,160,17137,1,8,0:0:0:0:
288,160,17267,1,8,0:0:0:0:
288,160,17659,1,8,0:0:0:0:
288,160,17920,1,8,0:0:0:0:
224,160,18050,1,0,0:0:0:0:
288,160,18180,1,8,0:0:0:0:
224,160,18441,1,0,0:0:0:0:
224,160,18572,1,0,0:0:0:0:
288,160,18702,1,8,0:0:0:0:
224,160,18963,1,0,0:0:0:0:
288,160,19224,1,8,0:0:0:0:
288,160,19354,1,8,0:0:0:0:
288,160,19746,1,8,0:0:0:0:
224,160,20007,1,0,0:0:0:0:
224,160,20137,1,0,0:0:0:0:
288,160,20267,1,8,0:0:0:0:
288,160,20528,1,8,0:0:0:0:
224,160,20659,1,0,0:0:0:0:
288,160,20789,1,8,0:0:0:0:
224,224,21050,1,4,0:0:0:0:
288,160,21311,1,8,0:0:0:0:
224,160,21441,1,0,0:0:0:0:
288,160,21833,1,8,0:0:0:0:
224,160,22094,1,0,0:0:0:0:
288,160,22354,1,8,0:0:0:0:
224,160,22615,1,0,0:0:0:0:
224,160,22746,1,0,0:0:0:0:
288,160,22876,1,8,0:0:0:0:
224,160,23137,1,0,0:0:0:0:
288,160,23398,1,8,0:0:0:0:
224,160,23528,1,0,0:0:0:0:
288,160,23920,1,8,0:0:0:0:
224,160,24180,1,0,0:0:0:0:
288,160,24441,1,8,0:0:0:0:
224,160,24702,1,0,0:0:0:0:
224,160,24833,1,0,0:0:0:0:
288,160,24963,1,8,0:0:0:0:
224,160,25224,1,0,0:0:0:0:
288,160,25485,1,8,0:0:0:0:
288,160,25615,1,8,0:0:0:0:
288,160,26007,1,8,0:0:0:0:
288,160,26267,1,8,0:0:0:0:
224,160,26398,1,0,0:0:0:0:
288,160,26528,1,8,0:0:0:0:
224,160,26789,1,0,0:0:0:0:
224,160,26920,1,0,0:0:0:0:
288,160,27050,1,8,0:0:0:0:
224,160,27311,1,0,0:0:0:0:
288,160,27572,1,8,0:0:0:0:
224,160,27702,1,0,0:0:0:0:
288,160,28094,1,8,0:0:0:0:
224,160,28354,1,0,0:0:0:0:
288,160,28876,1,8,0:0:0:0:
288,160,29137,1,8,0:0:0:0:
224,224,29398,5,4,0:0:0:0:
288,160,29659,1,8,0:0:0:0:
288,160,30180,1,8,0:0:0:0:
288,160,30311,1,8,0:0:0:0:
224,160,30441,1,0,0:0:0:0:
288,160,30702,1,8,0:0:0:0:
224,160,30833,1,0,0:0:0:0:
224,160,31094,1,0,0:0:0:0:
288,160,31224,1,8,0:0:0:0:
224,160,31485,1,0,0:0:0:0:
288,160,31746,1,8,0:0:0:0:
288,160,32267,1,8,0:0:0:0:
288,160,32398,1,8,0:0:0:0:
224,160,32528,1,0,0:0:0:0:
288,160,32789,1,8,0:0:0:0:
288,160,33050,1,8,0:0:0:0:
224,160,33180,1,0,0:0:0:0:
288,160,33311,1,8,0:0:0:0:
224,160,33572,1,0,0:0:0:0:
288,160,33833,1,8,0:0:0:0:
224,160,34224,1,0,0:0:0:0:
288,160,34354,1,8,0:0:0:0:
288,224,34615,1,12,0:0:0:0:
288,224,34876,1,12,0:0:0:0:
288,224,35137,1,12,0:0:0:0:
288,224,35398,1,12,0:0:0:0:
224,160,35659,1,0,0:0:0:0:
288,160,35920,1,8,0:0:0:0:
288,160,36050,1,8,0:0:0:0:
224,160,36180,1,0,0:0:0:0:
288,160,36441,1,8,0:0:0:0:
224,224,36702,1,4,0:0:0:0:
224,224,36963,1,4,0:0:0:0:
224,224,37224,1,4,0:0:0:0:
224,224,37485,1,4,0:0:0:0:
288,224,37746,1,12,0:0:0:0:
288,160,38007,1,8,0:0:0:0:
288,160,38528,1,8,0:0:0:0:
288,160,38659,1,8,0:0:0:0:
224,160,38789,1,0,0:0:0:0:
288,160,39050,1,8,0:0:0:0:
224,160,39311,1,0,0:0:0:0:
224,160,39441,1,0,0:0:0:0:
288,160,39572,1,8,0:0:0:0:
224,160,39833,1,0,0:0:0:0:
288,160,40094,1,8,0:0:0:0:
288,160,40615,1,8,0:0:0:0:
288,160,40746,1,8,0:0:0:0:
224,160,40876,1,0,0:0:0:0:
288,160,41137,1,8,0:0:0:0:
224,160,41398,1,0,0:0:0:0:
224,160,41528,1,0,0:0:0:0:
288,160,41659,1,8,0:0:0:0:
224,160,41920,1,0,0:0:0:0:
288,160,42180,1,8,0:0:0:0:
288,160,42702,1,8,0:0:0:0:
288,224,42963,1,12,0:0:0:0:
288,224,43224,1,12,0:0:0:0:
288,224,43485,1,12,0:0:0:0:
288,224,43746,1,12,0:0:0:0:
224,160,44007,1,0,0:0:0:0:
288,160,44267,1,8,0:0:0:0:
288,160,44398,1,8,0:0:0:0:
224,160,44528,1,0,0:0:0:0:
288,160,44789,1,8,0:0:0:0:
224,224,45050,1,4,0:0:0:0:
224,224,45311,1,4,0:0:0:0:
224,224,45572,1,4,0:0:0:0:
224,224,45833,1,4,0:0:0:0:
288,160,46094,1,8,0:0:0:0:
224,160,46485,1,0,0:0:0:0:
288,160,46876,1,8,0:0:0:0:
224,160,48180,1,0,0:0:0:0:
224,160,48572,1,0,0:0:0:0:
288,160,48963,1,8,0:0:0:0:
288,160,49224,1,8,0:0:0:0:
288,160,49746,1,8,0:0:0:0:
224,224,50267,5,4,0:0:0:0:
288,160,50528,1,8,0:0:0:0:
288,160,50789,1,8,0:0:0:0:
288,160,51050,1,8,0:0:0:0:
288,160,51180,1,8,0:0:0:0:
224,160,51311,1,0,0:0:0:0:
288,160,51572,1,8,0:0:0:0:
224,160,51702,1,0,0:0:0:0:
224,160,51963,1,0,0:0:0:0:
288,160,52094,1,8,0:0:0:0:
224,160,52354,1,0,0:0:0:0:
224,160,52876,1,0,0:0:0:0:
224,160,53398,1,0,0:0:0:0:
288,160,53659,1,8,0:0:0:0:
224,160,53789,1,0,0:0:0:0:
288,160,54180,1,8,0:0:0:0:
224,224,54441,1,4,0:0:0:0:
288,160,54702,1,8,0:0:0:0:
288,160,54963,1,8,0:0:0:0:
224,160,55094,1,0,0:0:0:0:
288,160,55224,1,8,0:0:0:0:
224,160,55354,1,0,0:0:0:0:
224,160,55615,1,0,0:0:0:0:
288,160,55746,1,8,0:0:0:0:
224,160,55876,1,0,0:0:0:0:
224,160,56137,1,0,0:0:0:0:
288,160,56267,1,8,0:0:0:0:
224,160,56528,1,0,0:0:0:0:
224,160,57050,1,0,0:0:0:0:
288,160,57311,1,8,0:0:0:0:
288,160,57572,1,8,0:0:0:0:
288,160,57659,1,8,0:0:0:0:
288,160,57746,1,8,0:0:0:0:
288,160,57833,1,8,0:0:0:0:
224,160,58094,1,0,0:0:0:0:
288,224,58615,5,12,0:0:0:0:
288,160,58876,1,8,0:0:0:0:
224,160,59007,1,0,0:0:0:0:
288,160,59137,1,8,0:0:0:0:
288,160,59398,1,8,0:0:0:0:
288,160,59528,1,8,0:0:0:0:
224,160,59659,1,0,0:0:0:0:
288,160,59920,1,8,0:0:0:0:
224,160,60050,1,0,0:0:0:0:
224,160,60311,1,0,0:0:0:0:
288,160,60441,1,8,0:0:0:0:
224,160,60702,1,0,0:0:0:0:
224,160,61224,1,0,0:0:0:0:
224,160,61354,1,0,0:0:0:0:
288,160,61485,1,8,0:0:0:0:
224,160,61746,1,0,0:0:0:0:
224,160,62267,1,0,0:0:0:0:
224,160,62398,1,0,0:0:0:0:
288,160,62528,1,8,0:0:0:0:
224,224,62789,1,4,0:0:0:0:
288,160,63050,1,8,0:0:0:0:
224,160,63311,1,0,0:0:0:0:
288,160,63572,1,8,0:0:0:0:
288,160,63833,1,8,0:0:0:0:
288,160,64094,1,8,0:0:0:0:
224,160,64224,1,0,0:0:0:0:
224,160,64485,1,0,0:0:0:0:
288,160,64615,1,8,0:0:0:0:
224,160,64746,1,0,0:0:0:0:
288,160,65137,1,8,0:0:0:0:
224,160,65267,1,0,0:0:0:0:
224,160,65398,1,0,0:0:0:0:
288,160,65659,1,8,0:0:0:0:
224,160,65920,1,0,0:0:0:0:
288,160,66050,1,8,0:0:0:0:
224,160,66311,1,0,0:0:0:0:
288,160,66441,1,8,0:0:0:0:
288,160,66702,1,8,0:0:0:0:
224,224,66963,5,4,0:0:0:0:
288,160,67224,1,8,0:0:0:0:
224,160,67354,1,0,0:0:0:0:
288,160,67746,1,8,0:0:0:0:
224,160,68007,1,0,0:0:0:0:
288,160,68267,1,8,0:0:0:0:
224,160,68528,1,0,0:0:0:0:
224,160,68659,1,0,0:0:0:0:
288,160,68789,1,8,0:0:0:0:
224,160,69050,1,0,0:0:0:0:
288,160,69311,1,8,0:0:0:0:
224,160,69441,1,0,0:0:0:0:
288,160,69833,1,8,0:0:0:0:
224,160,70094,1,0,0:0:0:0:
288,160,70354,1,8,0:0:0:0:
224,160,70615,1,0,0:0:0:0:
224,160,70746,1,0,0:0:0:0:
288,160,70876,1,8,0:0:0:0:
224,160,71137,1,0,0:0:0:0:
288,160,71398,1,8,0:0:0:0:
288,160,71528,1,8,0:0:0:0:
288,160,71920,1,8,0:0:0:0:
288,160,72180,1,8,0:0:0:0:
224,160,72311,1,0,0:0:0:0:
288,160,72441,1,8,0:0:0:0:
224,160,72702,1,0,0:0:0:0:
224,160,72833,1,0,0:0:0:0:
288,160,72963,1,8,0:0:0:0:
224,160,73224,1,0,0:0:0:0:
288,160,73485,1,8,0:0:0:0:
224,160,73615,1,0,0:0:0:0:
288,160,74007,1,8,0:0:0:0:
288,160,74267,1,8,0:0:0:0:
288,160,74398,1,8,0:0:0:0:
224,160,74528,1,0,0:0:0:0:
288,160,74789,1,8,0:0:0:0:
224,160,74920,1,0,0:0:0:0:
288,160,75050,1,8,0:0:0:0:
224,224,75311,5,4,0:0:0:0:
288,160,75572,1,8,0:0:0:0:
288,160,76094,1,8,0:0:0:0:
288,160,76224,1,8,0:0:0:0:
224,160,76354,1,0,0:0:0:0:
288,160,76615,1,8,0:0:0:0:
224,160,76746,1,0,0:0:0:0:
224,160,77007,1,0,0:0:0:0:
288,160,77137,1,8,0:0:0:0:
224,160,77398,1,0,0:0:0:0:
288,160,77659,1,8,0:0:0:0:
288,160,78180,1,8,0:0:0:0:
224,160,78311,1,0,0:0:0:0:
224,160,78441,1,0,0:0:0:0:
288,160,78702,1,8,0:0:0:0:
224,160,78963,1,0,0:0:0:0:
224,160,79094,1,0,0:0:0:0:
288,160,79224,1,8,0:0:0:0:
224,160,79485,1,0,0:0:0:0:
288,160,79746,1,8,0:0:0:0:
224,160,80137,1,0,0:0:0:0:
288,160,80267,1,8,0:0:0:0:
288,224,80528,1,12,0:0:0:0:
288,224,80789,1,12,0:0:0:0:
288,224,81050,1,12,0:0:0:0:
288,224,81311,1,12,0:0:0:0:
224,160,81572,1,0,0:0:0:0:
288,160,81833,1,8,0:0:0:0:
288,160,81963,1,8,0:0:0:0:
224,160,82094,1,0,0:0:0:0:
288,160,82354,1,8,0:0:0:0:
224,224,82615,1,4,0:0:0:0:
224,224,82876,1,4,0:0:0:0:
224,224,83137,1,4,0:0:0:0:
224,224,83398,1,4,0:0:0:0:
288,224,83659,1,12,0:0:0:0:
288,160,83920,1,8,0:0:0:0:
288,160,84441,1,8,0:0:0:0:
224,160,84702,1,0,0:0:0:0:
288,160,84963,1,8,0:0:0:0:
224,160,85354,1,0,0:0:0:0:
288,160,85485,1,8,0:0:0:0:
224,160,85746,1,0,0:0:0:0:
288,160,86007,1,8,0:0:0:0:
288,160,86267,1,8,0:0:0:0:
224,160,86398,1,0,0:0:0:0:
288,160,86528,1,8,0:0:0:0:
224,160,86789,1,0,0:0:0:0:
288,160,87050,1,8,0:0:0:0:
224,160,87311,1,0,0:0:0:0:
224,160,87441,1,0,0:0:0:0:
288,160,87572,1,8,0:0:0:0:
224,160,87833,1,0,0:0:0:0:
288,160,88094,1,8,0:0:0:0:
288,160,88615,1,8,0:0:0:0:
288,224,88876,1,12,0:0:0:0:
288,224,89137,1,12,0:0:0:0:
288,224,89398,1,12,0:0:0:0:
288,224,89659,1,12,0:0:0:0:
224,160,89920,1,0,0:0:0:0:
288,160,90180,1,8,0:0:0:0:
288,160,90311,1,8,0:0:0:0:
224,160,90441,1,0,0:0:0:0:
288,160,90702,1,8,0:0:0:0:
224,224,90963,1,4,0:0:0:0:
224,224,91224,1,4,0:0:0:0:
224,224,91485,1,4,0:0:0:0:
224,224,91746,1,4,0:0:0:0:
224,160,92007,1,0,0:0:0:0:
224,160,92398,1,0,0:0:0:0:
288,160,92789,1,8,0:0:0:0:
288,160,94094,1,8,0:0:0:0:
224,160,94485,1,0,0:0:0:0:
288,160,94876,1,8,0:0:0:0:
288,224,96180,1,12,0:0:0:0:
288,224,96572,1,12,0:0:0:0:
224,224,96963,1,4,0:0:0:0:
224,224,98267,1,4,0:0:0:0:
288,224,98659,1,12,0:0:0:0:
224,224,99050,1,4,0:0:0:0:
288,224,99311,1,12,0:0:0:0:
288,160,99833,1,8,0:0:0:0:
224,224,100354,5,4,0:0:0:0:
288,160,100615,1,8,0:0:0:0:
288,160,100876,1,8,0:0:0:0:
288,160,101137,1,8,0:0:0:0:
288,160,101267,1,8,0:0:0:0:
224,160,101398,1,0,0:0:0:0:
288,160,101659,1,8,0:0:0:0:
224,160,101789,1,0,0:0:0:0:
224,160,102050,1,0,0:0:0:0:
288,160,102180,1,8,0:0:0:0:
224,160,102441,1,0,0:0:0:0:
224,160,102963,1,0,0:0:0:0:
224,160,103485,1,0,0:0:0:0:
288,160,103746,1,8,0:0:0:0:
224,160,103876,1,0,0:0:0:0:
288,160,104267,1,8,0:0:0:0:
224,224,104528,1,4,0:0:0:0:
288,160,104789,1,8,0:0:0:0:
288,160,105050,1,8,0:0:0:0:
224,160,105180,1,0,0:0:0:0:
288,160,105311,1,8,0:0:0:0:
224,160,105441,1,0,0:0:0:0:
224,160,105702,1,0,0:0:0:0:
288,160,105833,1,8,0:0:0:0:
224,160,105963,1,0,0:0:0:0:
224,160,106224,1,0,0:0:0:0:
288,160,106354,1,8,0:0:0:0:
224,160,106615,1,0,0:0:0:0:
224,160,107137,1,0,0:0:0:0:
288,160,107398,1,8,0:0:0:0:
224,160,107659,1,0,0:0:0:0:
224,160,107746,1,0,0:0:0:0:
224,160,107833,1,0,0:0:0:0:
224,160,107920,1,0,0:0:0:0:
288,160,108180,1,8,0:0:0:0:
288,224,108702,5,12,0:0:0:0:
288,160,108963,1,8,0:0:0:0:
288,160,109224,1,8,0:0:0:0:
288,160,109485,1,8,0:0:0:0:
288,160,109615,1,8,0:0:0:0:
224,160,109746,1,0,0:0:0:0:
288,160,110007,1,8,0:0:0:0:
224,160,110137,1,0,0:0:0:0:
224,160,110398,1,0,0:0:0:0:
288,160,110528,1,8,0:0:0:0:
224,160,110789,1,0,0:0:0:0:
224,160,111311,1,0,0:0:0:0:
224,160,111441,1,0,0:0:0:0:
288,160,111572,1,8,0:0:0:0:
224,160,111833,1,0,0:0:0:0:
288,160,112094,1,8,0:0:0:0:
224,160,112354,1,0,0:0:0:0:
224,160,112485,1,0,0:0:0:0:
288,160,112615,1,8,0:0:0:0:
224,224,112876,1,4,0:0:0:0:
288,160,113137,1,8,0:0:0:0:
224,160,113398,1,0,0:0:0:0:
288,160,113659,1,8,0:0:0:0:
288,160,113920,1,8,0:0:0:0:
288,160,114180,1,8,0:0:0:0:
224,160,114311,1,0,0:0:0:0:
224,160,114572,1,0,0:0:0:0:
288,160,114702,1,8,0:0:0:0:
224,160,114833,1,0,0:0:0:0:
288,160,115224,1,8,0:0:0:0:
224,160,115354,1,0,0:0:0:0:
224,160,115485,1,0,0:0:0:0:
288,160,115746,1,8,0:0:0:0:
224,160,116007,1,0,0:0:0:0:
224,160,116267,1,0,0:0:0:0:
224,160,116528,1,0,0:0:0:0:
288,160,116789,1,8,0:0:0:0:
224,224,117050,5,4,0:0:0:0:
288,160,117311,1,8,0:0:0:0:
288,160,117833,1,8,0:0:0:0:
224,160,118094,1,0,0:0:0:0:
288,160,118354,1,8,0:0:0:0:
224,160,118485,1,0,0:0:0:0:
288,160,118876,1,8,0:0:0:0:
224,160,119137,1,0,0:0:0:0:
288,160,119398,1,8,0:0:0:0:
288,160,119920,1,8,0:0:0:0:
288,224,120180,1,12,0:0:0:0:
288,224,120441,1,12,0:0:0:0:
288,224,120702,1,12,0:0:0:0:
288,224,120963,1,12,0:0:0:0:
224,160,121224,1,0,0:0:0:0:
288,160,121485,1,8,0:0:0:0:
288,160,122007,1,8,0:0:0:0:
224,160,122267,1,0,0:0:0:0:
288,160,122528,1,8,0:0:0:0:
224,160,122659,1,0,0:0:0:0:
288,160,123050,1,8,0:0:0:0:
224,160,123311,1,0,0:0:0:0:
288,160,123572,1,8,0:0:0:0:
288,160,124094,1,8,0:0:0:0:
288,224,124354,1,12,0:0:0:0:
288,224,124615,1,12,0:0:0:0:
288,224,124876,1,12,0:0:0:0:
288,224,125137,1,12,0:0:0:0:
224,224,125398,1,4,0:0:0:0:
288,160,125659,1,8,0:0:0:0:
288,160,126180,1,8,0:0:0:0:
224,160,126441,1,0,0:0:0:0:
288,160,126702,1,8,0:0:0:0:
224,160,126833,1,0,0:0:0:0:
288,160,127224,1,8,0:0:0:0:
224,160,127485,1,0,0:0:0:0:
288,160,127746,1,8,0:0:0:0:
224,160,127876,1,0,0:0:0:0:
288,160,128267,1,8,0:0:0:0:
288,224,128528,1,12,0:0:0:0:
288,224,128789,1,12,0:0:0:0:
288,224,129050,1,12,0:0:0:0:
288,224,129311,1,12,0:0:0:0:
224,160,129572,1,0,0:0:0:0:
288,160,129833,1,8,0:0:0:0:
224,160,129963,1,0,0:0:0:0:
288,160,130354,1,8,0:0:0:0:
224,160,130615,1,0,0:0:0:0:
288,160,130876,1,8,0:0:0:0:
224,160,131007,1,0,0:0:0:0:
288,224,131398,1,12,0:0:0:0:
288,160,131659,1,8,0:0:0:0:
288,160,131746,1,8,0:0:0:0:
288,160,131833,1,8,0:0:0:0:
288,160,131920,1,8,0:0:0:0:
224,160,132180,1,0,0:0:0:0:
224,160,132267,1,0,0:0:0:0:
224,160,132354,1,0,0:0:0:0:
224,160,132441,1,0,0:0:0:0:
288,224,132702,1,12,0:0:0:0:
288,224,132963,1,12,0:0:0:0:
288,224,133224,1,12,0:0:0:0:
288,224,133485,1,12,0:0:0:0:
224,224,133746,1,4,0:0:0:0:
