osu file format v13

[General]
AudioFilename: 10 - Anklebiters.mp3
AudioLeadIn: 0
PreviewTime: 50267
Countdown: 0
SampleSet: None
StackLeniency: 0.5
Mode: 0
LetterboxInBreaks: 0
WidescreenStoryboard: 0

[Editor]
Bookmarks: 4354,12702,21050,29398,37746,46094,50267,58615,66963,75311,83659,92007,100354,108702,117050,125398,133746
DistanceSpacing: 1
BeatDivisor: 2
GridSize: 4
TimelineZoom: 1.5

[Metadata]
Title:Anklebiters
TitleUnicode:Anklebiters
Artist:Paramore
ArtistUnicode:Paramore
Creator:Priti
Version:Normal
Source:
Tags:Power Pop Punk New Wave Hayley Williams EvilElvisV2 EvilElvis Zero__Wind grumd Tess Nwolf
BeatmapID:531688
BeatmapSetID:227990

[Difficulty]
HPDrainRate:2
CircleSize:3
OverallDifficulty:3
ApproachRate:5
SliderMultiplier:0.899999999999999
SliderTickRate:1

[Events]
//Background and Video events
0,0,"441710515_1280.jpg",0,0
//Break Periods
2,12902,19850
2,67163,74111
2,117250,124198
//Storyboard Layer 0 (Background)
//Storyboard Layer 1 (Fail)
//Storyboard Layer 2 (Pass)
//Storyboard Layer 3 (Foreground)
//Storyboard Sound Samples

[TimingPoints]
181,260.869565217391,4,3,0,90,1,0
8659,-100,4,3,0,25,0,0
11659,-100,4,3,0,90,0,0
21050,-100,4,3,0,90,0,1
21115,-100,4,3,0,90,0,0
34615,-100,4,3,0,90,0,1
35659,-100,4,3,0,90,0,0
36702,-100,4,3,0,90,0,1
37746,-100,4,3,0,90,0,0
42963,-100,4,3,0,90,0,1
44007,-100,4,3,0,90,0,0
45050,-100,4,3,0,90,0,1
46094,-100,4,3,0,90,0,0
46354,-100,4,3,0,100,0,0
46485,-100,4,3,0,90,0,0
46615,-100,4,3,0,50,0,0
46746,-100,4,3,0,90,0,0
48441,-100,4,3,0,50,0,0
48572,-100,4,3,0,90,0,0
48702,-100,4,3,0,50,0,0
48963,-100,4,3,0,90,0,0
50267,-100,4,3,0,90,0,1
57572,-100,4,3,0,90,0,0
58615,-100,4,3,0,90,0,1
66963,-100,4,3,0,90,0,0
80528,-100,4,3,0,90,0,1
81572,-100,4,3,0,90,0,0
82615,-100,4,3,0,90,0,1
83659,-100,4,3,0,90,0,0
86007,-100,4,1,0,90,0,0
86072,-100,4,3,0,90,0,0
88876,-100,4,3,0,90,0,1
89920,-100,4,3,0,90,0,0
90963,-100,4,3,0,90,0,1
92007,-100,4,3,0,90,0,0
92267,-100,4,3,0,100,0,0
92398,-100,4,3,0,90,0,0
92528,-100,4,3,0,50,0,0
92789,-100,4,3,0,90,0,0
94354,-100,4,3,0,50,0,0
94485,-100,4,3,0,90,0,0
94615,-100,4,3,0,50,0,0
94876,-100,4,3,0,90,0,0
96441,-100,4,3,0,100,0,0
96572,-100,4,3,0,90,0,0
96702,-100,4,3,0,50,0,0
96963,-100,4,3,0,90,0,0
98528,-100,4,3,0,50,0,0
98659,-100,4,3,0,90,0,0
98789,-100,4,3,0,50,0,0
99050,-100,4,3,0,90,0,0
100354,-100,4,3,0,90,0,1
107659,-100,4,3,0,90,0,0
108702,-100,4,3,0,90,0,1
117050,-100,4,3,0,90,0,0
128528,-100,4,3,0,90,0,1
129572,-100,4,3,0,90,0,0
132702,-100,4,3,0,90,0,1
133746,-100,4,3,0,90,0,0

[Colours]
Combo1 : 135,171,211
Combo2 : 208,79,64
Combo3 : 148,200,96
Combo4 : 216,189,109

[HitObjects]
14,133,4354,6,0,P|62:134|104:148,1,89.9999999999999,4|2,1:2|0:0,0:0:0:0:
237,266,5137,1,2,0:0:0:0:
321,238,5398,1,0,1:0:0:0:
401,282,5659,2,0,L|410:98,1,180,2|2,0:0|0:0,0:0:0:0:
346,38,6441,2,0,P|286:55|248:47,1,89.9999999999999,0|2,1:0|0:0,0:0:0:0:
81,24,7224,1,2,0:0:0:0:
17,87,7485,2,0,L|22:190,1,89.9999999999999,0|2,1:0|0:0,0:0:0:0:
56,255,8007,1,0,0:0:0:0:
140,279,8268,1,2,0:0:0:0:
214,228,8528,1,2,1:0:0:0:
256,192,8789,12,4,11659,0:0:0:0:
256,192,12702,5,4,1:2:0:0:
176,80,21050,6,0,P|228:68|328:64,2,135,4|2|0,0:2|0:0|0:0,0:0:0:0:
112,144,22094,2,0,L|120:245,1,89.9999999999999,4|0,0:0|0:0,0:0:0:0:
172,308,22615,2,0,P|228:316|280:312,1,89.9999999999999,4|4,0:0|0:0,0:0:0:0:
346,283,23137,2,0,P|394:283|474:345,2,135,8|2|8,0:0|0:0|0:0,0:0:0:0:
276,225,24180,2,0,P|272:172|277:128,1,89.9999999999999,4|4,0:0|0:0,0:0:0:0:
326,60,24702,1,2,0:0:0:0:
152,104,25224,6,0,L|8:96,2,135,4|2|4,0:0|0:0|0:0,0:0:0:0:
215,167,26267,2,0,P|208:220|196:260,1,89.9999999999999,4|8,0:0|0:0,0:0:0:0:
134,319,26789,2,0,P|175:341|238:335,1,89.9999999999999,2|4,0:0|0:0,0:0:0:0:
284,280,27311,2,0,B|372:269|372:269|429:295,2,135,4|2|4,0:0|0:0|0:2,0:0:0:0:
197,254,28354,1,4,0:0:0:0:
18,278,28876,1,2,0:0:0:0:
57,196,29137,1,4,0:0:0:0:
144,172,29398,6,0,P|145:85|128:24,2,135,4|2|4,1:2|0:2|0:0,0:0:0:0:
123,259,30441,2,0,L|257:266,1,135,2|4,0:0|0:0,0:0:0:0:
321,329,31094,2,0,L|376:326,1,45,4|2,0:3|0:0,0:0:0:0:
429,262,31485,2,0,P|424:193|437:116,1,135,2|2,0:1|0:2,0:0:0:0:
504,12,32267,1,2,0:0:0:0:
418,39,32529,2,0,L|234:29,1,180,4|2,0:0|0:2,0:0:0:0:
154,59,33311,1,4,0:0:0:0:
73,100,33572,2,0,P|187:142|239:31,1,270,2|2,0:1|0:0,0:0:0:0:
154,59,34615,6,0,P|176:143|187:162,1,89.9999999999999,6|6,1:0|1:0,0:0:0:0:
227,220,35137,2,0,L|222:320,1,89.9999999999999,6|6,1:0|1:0,0:0:0:0:
157,373,35659,2,0,P|281:323|413:346,1,270,2|2,1:0|0:0,0:0:0:0:
495,382,36702,2,0,P|501:341|485:295,1,89.9999999999999,6|6,1:0|1:0,0:0:0:0:
420,233,37224,2,0,P|414:155|417:128,1,89.9999999999999,6|6,1:0|1:0,0:0:0:0:
435,55,37746,6,0,B|343:64|343:64|297:45,2,135,4|2|4,1:2|0:2|0:0,0:0:0:0:
500,116,38789,2,0,P|510:185|506:260,1,135,2|4,0:0|0:0,0:0:0:0:
488,338,39441,2,0,L|443:335,1,45,4|2,0:0|0:0,0:0:0:0:
359,302,39833,2,0,P|290:292|230:316,1,135,2|2,0:1|0:2,0:0:0:0:
109,375,40615,1,2,0:0:0:0:
104,284,40877,2,0,L|113:104,1,180,4|2,0:0|0:2,0:0:0:0:
146,20,41659,1,2,0:0:0:0:
202,90,41919,2,0,P|279:92|336:51,2,135,2|4|2,0:1|0:0|0:0,0:0:0:0:
146,20,42963,6,0,L|42:25,1,89.9999999999999,6|6,1:0|1:0,0:0:0:0:
4,96,43485,2,0,P|3:147|22:190,1,89.9999999999999,6|6,1:0|1:0,0:0:0:0:
68,257,44007,1,4,0:0:0:0:
155,237,44267,2,0,L|250:242,1,89.9999999999999,2|2,0:0|0:2,0:0:0:0:
409,316,45050,2,0,P|414:240|420:223,1,89.9999999999999,6|6,1:0|1:0,0:0:0:0:
464,148,45572,2,0,P|456:84|436:52,1,89.9999999999999,6|6,1:0|1:0,0:0:0:0:
356,84,46094,6,0,L|208:76,2,135,2|4|2,0:0|0:0|0:1,0:0:0:0:
364,92,48181,6,0,L|511:84,2,135,2|4|2,0:1|0:0|0:1,0:0:0:0:
278,64,49224,2,0,P|212:51|84:56,1,180,4|0,0:0|0:0,0:0:0:0:
8,208,50267,6,0,B|86:249|86:249|187:237,1,180,4|2,1:2|0:0,0:0:0:0:
267,229,51050,1,4,0:0:0:0:
349,268,51311,2,0,P|361:200|357:120,2,135,2|4|2,0:0|0:0|0:2,0:0:0:0:
274,318,52355,2,0,P|210:295|187:269,1,89.9999999999999,2|0,0:0|0:0,0:0:0:0:
140,208,52876,2,0,L|145:112,1,89.9999999999999,4|0,0:0|0:0,0:0:0:0:
221,71,53398,2,0,P|163:77|89:32,2,135,2|4|2,0:2|0:0|0:0,0:0:0:0:
306,42,54441,5,4,1:2:0:0:
389,75,54702,2,0,L|379:254,1,180,2|2,0:0|0:0,0:0:0:0:
320,324,55485,2,0,P|391:345|441:319,2,135,4|2|2,0:0|0:0|0:2,0:0:0:0:
241,279,56529,2,0,B|152:258|152:299|63:279,1,180,4|2,0:0|0:0,0:0:0:0:
36,192,57311,1,4,0:0:0:0:
62,106,57572,2,0,P|110:95|169:100,1,89.9999999999999,4|2,0:0|0:0,0:0:0:0:
236,132,58094,2,0,L|331:126,1,89.9999999999999,4|2,0:0|0:0,0:0:0:0:
407,87,58615,6,0,P|415:176|391:263,1,180,4|2,1:2|0:0,0:0:0:0:
342,337,59398,1,4,0:0:0:0:
251,331,59659,2,0,L|115:338,2,135,2|4|2,0:0|0:0|0:2,0:0:0:0:
302,256,60702,2,0,L|394:264,1,89.9999999999999,2|0,0:0|0:0,0:0:0:0:
476,231,61224,2,0,P|483:173|476:130,1,89.9999999999999,4|0,0:0|0:0,0:0:0:0:
444,58,61746,2,0,L|260:67,1,180,2|2,0:0|0:2,0:0:0:0:
173,72,62528,1,4,0:0:0:0:
111,137,62789,6,0,P|111:193|103:226,2,89.9999999999999,4|4|2,1:2|0:0|0:0,0:0:0:0:
24,116,63572,1,8,0:0:0:0:
85,50,63833,2,0,L|264:40,1,180,2|0,0:0|0:0,0:0:0:0:
351,65,64615,1,4,0:0:0:0:
400,140,64876,2,0,P|407:185|401:245,1,89.9999999999999,2|0,0:0|0:0,0:0:0:0:
368,312,65398,2,0,L|272:306,1,89.9999999999999,4|4,0:2|0:2,0:0:0:0:
196,268,65920,2,0,P|120:264|64:308,2,135,4|6|2,0:0|0:0|0:2,0:0:0:0:
278,307,66963,5,4,1:2:0:0:
278,307,75311,6,0,P|340:301|417:334,2,135,4|4|2,1:2|0:0|0:0,0:0:0:0:
192,328,76354,2,0,L|90:322,1,89.9999999999999,4|2,0:0|0:0,0:0:0:0:
38,259,76876,1,4,0:0:0:0:
70,70,77398,2,0,L|249:79,1,180,4|0,0:0|0:0,0:0:0:0:
328,32,78180,1,2,0:0:0:0:
409,69,78441,2,0,P|412:177|393:249,1,180,4|2,0:0|0:0,0:0:0:0:
346,322,79224,1,0,0:0:0:0:
260,294,79485,2,0,P|181:295|121:337,2,135,4|2|4,0:0|0:0|0:0,0:0:0:0:
346,322,80528,6,0,P|404:323|435:307,1,89.9999999999999,6|6,1:0|1:0,0:0:0:0:
482,234,81050,2,0,L|476:126,1,89.9999999999999,6|6,1:0|1:0,0:0:0:0:
413,80,81572,2,0,B|280:46|280:113|147:80,1,270,4|2,0:0|0:0,0:0:0:0:
66,37,82615,2,0,P|60:104|76:141,1,89.9999999999999,6|6,1:0|1:0,0:0:0:0:
131,187,83137,2,0,P|140:230|131:274,1,89.9999999999999,6|6,1:0|1:0,0:0:0:0:
74,342,83659,6,0,L|253:332,1,180,4|2,1:2|0:2,0:0:0:0:
343,326,84441,1,4,0:0:0:0:
410,267,84702,1,0,0:0:0:0:
354,197,84963,2,0,P|342:117|434:54,1,180,2|2,0:1|0:1,0:0:0:0:
426,144,85746,2,0,P|441:208|401:275,2,135,4|2|2,0:0|0:1|0:0,0:0:0:0:
410,55,86790,2,0,L|319:51,1,89.9999999999999,4|2,0:0|0:2,0:0:0:0:
231,67,87311,2,0,P|185:67|142:54,1,89.9999999999999,4|2,0:0|0:0,0:0:0:0:
59,19,87833,2,0,P|47:98|79:193,1,180,4|2,0:0|0:0,0:0:0:0:
132,263,88615,1,0,0:0:0:0:
212,223,88876,6,0,L|307:228,1,89.9999999999999,6|6,1:0|1:0,0:0:0:0:
356,299,89398,2,0,L|451:293,1,89.9999999999999,6|6,1:0|1:0,0:0:0:0:
490,215,89920,2,0,P|489:159|480:108,1,89.9999999999999,4|2,0:0|0:0,0:0:0:0:
442,45,90441,1,2,0:2:0:0:
351,33,90702,1,4,0:0:0:0:
268,70,90963,2,0,P|194:62|160:49,1,89.9999999999999,6|6,1:0|1:0,0:0:0:0:
92,33,91485,2,0,P|33:48|7:80,1,89.9999999999999,6|6,1:0|1:0,0:0:0:0:
48,152,92007,6,0,L|40:287,2,135,2|4|2,0:0|0:0|0:1,0:0:0:0:
133,124,94094,2,0,P|137:68|98:-5,2,135,2|4|2,0:1|0:0|0:1,0:0:0:0:
103,207,96180,2,0,L|95:342,2,135,2|4|2,0:0|0:0|0:1,0:0:0:0:
166,143,98267,2,0,P|170:87|131:14,2,135,2|4|2,0:1|0:0|0:1,0:0:0:0:
178,232,99311,2,0,P|247:268|355:262,1,180,4|0,0:0|0:0,0:0:0:0:
504,176,100354,6,0,B|426:135|426:135|325:147,1,180,4|2,1:2|0:0,0:0:0:0:
245,155,101137,1,4,0:0:0:0:
163,116,101398,2,0,P|151:184|155:264,2,135,2|4|2,0:0|0:0|0:2,0:0:0:0:
238,66,102442,2,0,P|302:89|325:115,1,89.9999999999999,2|0,0:0|0:0,0:0:0:0:
372,176,102963,2,0,L|367:272,1,89.9999999999999,4|0,0:0|0:0,0:0:0:0:
291,313,103485,2,0,P|349:307|423:352,2,135,2|4|2,0:2|0:0|0:0,0:0:0:0:
206,342,104528,5,4,1:2:0:0:
123,309,104789,2,0,L|133:130,1,180,2|2,0:0|0:0,0:0:0:0:
192,60,105572,2,0,P|121:39|71:65,2,135,4|2|2,0:0|0:0|0:2,0:0:0:0:
271,105,106616,2,0,B|360:126|360:85|449:105,1,180,4|2,0:0|0:0,0:0:0:0:
476,192,107398,1,4,0:0:0:0:
450,278,107659,2,0,P|402:289|343:284,1,89.9999999999999,4|2,0:0|0:0,0:0:0:0:
276,252,108181,2,0,L|181:258,1,89.9999999999999,4|2,0:0|0:0,0:0:0:0:
105,297,108702,6,0,P|97:208|121:121,1,180,4|2,1:2|0:0,0:0:0:0:
170,47,109485,1,4,0:0:0:0:
261,53,109746,2,0,L|397:46,2,135,2|4|2,0:0|0:0|0:2,0:0:0:0:
210,128,110789,2,0,L|118:120,1,89.9999999999999,2|0,0:0|0:0,0:0:0:0:
36,153,111311,2,0,P|29:211|36:254,1,89.9999999999999,4|0,0:0|0:0,0:0:0:0:
68,326,111833,2,0,L|252:317,1,180,2|2,0:0|0:2,0:0:0:0:
339,312,112615,1,4,0:0:0:0:
401,247,112876,6,0,P|401:191|409:158,2,89.9999999999999,4|4|2,1:2|0:0|0:0,0:0:0:0:
488,268,113659,1,8,0:0:0:0:
427,334,113920,2,0,L|248:344,1,180,2|0,0:0|0:0,0:0:0:0:
161,319,114702,1,4,0:0:0:0:
112,244,114963,2,0,P|105:199|111:139,1,89.9999999999999,2|0,0:0|0:0,0:0:0:0:
144,72,115485,2,0,L|240:78,1,89.9999999999999,4|4,0:2|0:2,0:0:0:0:
316,116,116007,2,0,P|392:120|448:76,2,135,4|6|2,0:0|0:0|0:2,0:0:0:0:
234,77,117050,5,4,1:2:0:0:
234,77,125398,6,0,P|151:71|73:73,2,135,4|4|2,1:2|0:0|0:0,0:0:0:0:
312,120,126441,2,0,P|367:119|413:105,1,89.9999999999999,8|2,0:0|0:2,0:0:0:0:
480,67,126963,1,2,0:0:0:0:
424,236,127485,2,0,L|144:221,1,270,4|2,0:0|0:0,0:0:0:0:
68,240,128528,2,0,P|59:168|65:125,1,89.9999999999999,6|6,1:0|1:0,0:0:0:0:
80,64,129050,2,0,L|183:58,1,89.9999999999999,6|6,1:0|1:0,0:0:0:0:
216,136,129572,6,0,P|278:142|349:47,1,180,4|2,0:0|0:2,0:0:0:0:
259,53,130354,1,2,0:0:0:0:
169,59,130615,2,0,P|131:109|178:218,1,180,4|4,0:0|0:2,0:0:0:0:
246,256,131398,1,0,0:0:0:0:
335,250,131659,1,14,1:3:0:0:
256,192,131920,12,4,133746,0:2:0:0:
