osu file format v13

[General]
AudioFilename: 10 - Anklebiters.mp3
AudioLeadIn: 0
PreviewTime: 50267
Countdown: 0
SampleSet: None
StackLeniency: 0.4
Mode: 0
LetterboxInBreaks: 0
WidescreenStoryboard: 0

[Editor]
Bookmarks: 4354,12702,21050,29398,37746,46094,50267,58615,66963,75311,83659,92007,100354,108702,117050,125398,133746
DistanceSpacing: 1.4
BeatDivisor: 4
GridSize: 4
TimelineZoom: 1.6

[Metadata]
Title:Anklebiters
TitleUnicode:Anklebiters
Artist:Paramore
ArtistUnicode:Paramore
Creator:Priti
Version:Hard
Source:
Tags:Power Pop Punk New Wave Hayley Williams EvilElvisV2 EvilElvis Zero__Wind grumd Tess Nwolf
BeatmapID:534233
BeatmapSetID:227990

[Difficulty]
HPDrainRate:5
CircleSize:3.8
OverallDifficulty:5
ApproachRate:7
SliderMultiplier:1.16
SliderTickRate:1

[Events]
//Background and Video events
0,0,"441710515_1280.jpg",0,0
//Break Periods
2,12902,20007
2,67163,74267
2,117250,124498
//Storyboard Layer 0 (Background)
//Storyboard Layer 1 (Fail)
//Storyboard Layer 2 (Pass)
//Storyboard Layer 3 (Foreground)
//Storyboard Sound Samples

[TimingPoints]
181,260.869565217391,4,3,0,90,1,0
9311,-100,4,3,0,60,0,0
9441,-100,4,3,0,90,0,0
11137,-100,4,3,0,60,0,0
12702,-100,4,3,0,90,0,0
21050,-100,4,3,0,90,0,1
21115,-100,4,3,0,90,0,0
34615,-100,4,3,0,90,0,1
35659,-100,4,3,0,90,0,0
36702,-100,4,3,0,90,0,1
37746,-100,4,3,0,90,0,0
42963,-100,4,3,0,90,0,1
44007,-100,4,3,0,90,0,0
45050,-100,4,3,0,90,0,1
46094,-100,4,3,0,90,0,0
49746,-100,4,3,0,60,0,0
50267,-100,4,3,0,90,0,1
51572,-100,4,1,0,90,0,1
51702,-100,4,3,0,90,0,1
55746,-100,4,1,0,90,0,1
55876,-100,4,3,0,90,0,1
57572,-100,4,3,0,75,0,0
58615,-100,4,3,0,90,0,1
59920,-100,4,1,0,90,0,1
60050,-100,4,3,0,90,0,1
66963,-100,4,3,0,90,0,0
80528,-100,4,3,0,90,0,1
81572,-100,4,3,0,90,0,0
82615,-100,4,3,0,90,0,1
83659,-100,4,3,0,90,0,0
88876,-100,4,3,0,90,0,1
89920,-100,4,3,0,90,0,0
90963,-100,4,3,0,90,0,1
92007,-100,4,3,0,90,0,0
99833,-100,4,3,0,60,0,0
100354,-100,4,3,0,90,0,1
101659,-100,4,1,0,90,0,1
101789,-100,4,3,0,90,0,1
105833,-100,4,1,0,90,0,1
105963,-100,4,3,0,90,0,1
107659,-100,4,3,0,75,0,0
108702,-100,4,3,0,75,0,1
110007,-100,4,1,0,90,0,1
110137,-100,4,3,0,90,0,1
117050,-100,4,3,0,90,0,0
128528,-100,4,3,0,90,0,1
129572,-100,4,3,0,90,0,0
131659,-100,4,3,0,60,0,0
132702,-100,4,3,0,90,0,1
133746,-100,4,3,0,90,0,0

[Colours]
Combo1 : 135,171,211
Combo2 : 208,79,64
Combo3 : 148,200,96
Combo4 : 216,189,109

[HitObjects]
252,372,4354,6,0,P|256:296|236:252,1,116,4|2,1:2|0:0,0:0:0:0:
188,200,4746,2,0,L|194:80,1,116,0|0,0:0|0:0,0:0:0:0:
251,26,5137,1,2,0:0:0:0:
88,14,5398,2,0,P|97:87|68:123,1,116,0|2,1:0|0:0,0:0:0:0:
37,277,5920,2,0,L|33:219,1,58
110,192,6180,1,2,0:0:0:0:
223,75,6441,6,0,P|278:61|327:88,1,116,0|2,1:0|0:0,0:0:0:0:
364,164,6833,2,0,L|483:157,1,116,0|0,0:0|0:0,0:0:0:0:
508,236,7224,1,2,0:0:0:0:
393,350,7485,2,0,L|277:343,1,116,0|2,1:0|0:0,0:0:0:0:
122,293,8007,2,0,P|168:278|181:266,1,58
230,213,8267,1,2,0:0:0:0:
124,89,8528,6,2,L|247:82,1,116,0|2,1:0|0:0,0:0:0:0:
318,106,8920,2,0,P|378:104|441:91,1,116
509,64,9311,1,4,0:2:0:0:
492,224,9572,2,0,B|481:264|481:264|492:344,1,116,0|2,1:0|0:0,0:0:0:0:
332,368,10094,2,0,L|335:308,1,58,0|0,0:0|0:0,0:0:0:0:
277,252,10354,1,2,0:0:0:0:
197,110,10615,6,0,P|189:176|152:207,1,116,0|2,1:0|0:0,0:0:0:0:
83,249,11007,1,0,0:0:0:0:
103,327,11137,2,0,L|166:330,1,58,4|0,0:2|2:0,0:0:0:0:
240,312,11398,2,0,L|303:315,1,58,4|0,0:2|2:0,0:0:0:0:
376,297,11659,6,2,L|440:298,12,38.6666666666667,4|4|4|4|4|4|4|4|4|4|4|4|4,0:0|0:0|0:0|0:0|0:0|0:0|0:0|0:0|0:0|0:0|0:0|0:0|0:2,0:0:0:0:
9,119,21050,6,0,P|62:100|128:112,1,116,4|2,1:2|0:0,0:0:0:0:
186,156,21441,2,2,L|174:295,1,116,4|8,0:0|0:0,0:0:0:0:
234,329,21833,1,2,0:0:0:0:
358,224,22094,2,0,L|367:108,1,116,4|2,0:0|0:0,0:0:0:0:
230,21,22615,2,0,P|234:77|241:103,1,58,4|8,0:0|0:0,0:0:0:0:
261,155,22876,2,0,P|256:183|249:211,1,58,2|4,0:0|0:0,0:0:0:0:
186,263,23137,6,0,P|237:291|305:272,1,116,4|2,1:3|0:0,0:0:0:0:
361,322,23528,2,2,L|486:312,1,116,8|4,0:0|0:0,0:0:0:0:
496,232,23920,2,0,P|506:177|508:152,1,58,2|8,0:0|0:0,0:0:0:0:
491,95,24180,1,4,0:0:0:0:
336,44,24441,1,2,0:0:0:0:
369,203,24702,2,0,P|376:237|373:281,1,58,4|4,0:0|0:0,0:0:0:0:
343,335,24963,1,2,0:0:0:0:
209,242,25224,6,0,L|85:234,1,116,4|2,1:3|0:0,0:0:0:0:
19,268,25615,2,2,P|12:201|12:145,1,116,8|4,0:0|0:0,0:0:0:0:
49,79,26007,1,2,0:0:0:0:
203,126,26267,2,0,L|272:122,1,58,4|8,0:0|0:0,0:0:0:0:
333,86,26528,2,0,P|391:87|446:106,2,116,2|4|2,0:0|0:0|0:0,0:0:0:0:
223,206,27311,6,0,L|100:190,1,116,4|2,1:3|0:0,0:0:0:0:
34,226,27702,2,2,P|36:275|49:358,1,116,8|4,0:0|0:0,0:0:0:0:
124,362,28094,1,4,0:2:0:0:
263,278,28354,1,4,0:0:0:0:
472,30,28876,1,2,0:0:0:0:
499,190,29137,1,8,0:0:0:0:
377,297,29398,6,0,P|314:292|261:278,1,116,4|2,1:2|0:0,0:0:0:0:
192,237,29789,2,0,P|132:226|82:266,1,116,8|4,0:0|0:0,0:0:0:0:
46,325,30180,1,2,0:0:0:0:
12,168,30441,2,0,L|18:36,1,116,4|2,1:3|0:0,0:0:0:0:
173,2,30963,2,0,P|181:45|177:80,1,58,4|8,0:0|0:0,0:0:0:0:
165,139,31224,1,2,0:0:0:0:
136,298,31485,6,0,P|103:252|106:196,1,116,2|2,1:0|0:0,0:0:0:0:
165,139,31876,2,0,L|288:132,1,116,8|4,0:0|0:0,0:0:0:0:
338,190,32267,1,2,0:0:0:0:
452,304,32528,1,4,0:0:0:0:
493,148,32789,1,2,0:0:0:0:
338,190,33050,2,0,P|293:211|271:210,2,58,4|8|2,0:0|0:0|0:0,0:0:0:0:
380,35,33572,6,0,L|252:28,1,116,2|2,1:0|0:0,0:0:0:0:
200,79,33963,2,0,P|142:74|85:50,1,116,8|4,0:0|0:0,0:0:0:0:
25,3,34354,1,2,0:0:0:0:
3,164,34615,6,0,P|8:236|22:287,1,116,6|6,1:0|1:0,0:0:0:0:
180,244,35137,2,0,L|303:250,1,116,6|6,1:0|1:0,0:0:0:0:
447,311,35659,6,0,P|404:341|333:318,1,116,4|2,1:3|0:0,0:0:0:0:
304,258,36050,2,0,P|309:209|297:131,1,116,8|4,0:0|0:0,0:0:0:0:
277,64,36441,1,2,0:0:0:0:
116,88,36702,6,0,P|162:121|220:122,1,116,6|6,1:0|1:0,0:0:0:0:
334,5,37224,2,0,L|453:11,1,116,6|6,1:0|1:0,0:0:0:0:
508,162,37746,6,0,P|447:157|395:187,1,116,4|2,1:2|0:0,0:0:0:0:
342,239,38137,2,0,L|218:232,1,116,8|4,0:0|0:0,0:0:0:0:
168,175,38528,1,2,0:0:0:0:
92,32,38789,2,0,P|80:92|96:156,1,116,4|2,0:0|0:0,0:0:0:0:
121,304,39311,2,0,P|136:280|145:253,1,58,8|4,0:0|0:0,0:0:0:0:
168,175,39572,1,2,0:0:0:0:
276,54,39833,6,0,P|331:57|401:78,1,116,2|2,1:1|0:0,0:0:0:0:
456,119,40224,2,0,B|465:190|465:190|444:239,1,116,8|4,0:0|0:0,0:0:0:0:
412,304,40615,1,2,0:0:0:0:
258,249,40876,2,0,P|195:252|132:268,1,116,4|2,0:0|0:0,0:0:0:0:
11,359,41398,2,0,P|53:367|82:368,1,58,4|8,0:0|0:0,0:0:0:0:
146,345,41659,1,2,0:0:0:0:
92,191,41920,6,0,L|98:75,1,116,2|2,1:0|0:0,0:0:0:0:
155,17,42311,2,0,P|218:14|270:35,1,116,8|4,0:0|0:0,0:0:0:0:
331,82,42702,2,0,P|379:78|405:71,1,58,2|0,0:0|0:0,0:0:0:0:
449,21,42963,6,0,L|442:136,1,116,6|6,1:0|1:0,0:0:0:0:
360,278,43485,2,0,P|303:276|253:248,1,116,6|6,1:0|1:0,0:0:0:0:
168,112,44007,6,0,P|104:116|46:149,1,116,4|2,1:3|0:0,0:0:0:0:
0,196,44398,2,0,L|6:315,1,116,8|4,0:0|0:0,0:0:0:0:
63,369,44789,1,2,0:0:0:0:
217,318,45050,6,0,B|271:302|271:302|331:312,1,116,6|6,1:0|1:0,0:0:0:0:
486,355,45572,2,0,P|492:280|485:225,1,116,6|6,1:0|1:0,0:0:0:0:
416,96,46094,6,0,L|296:102,1,116,4|8,0:0|0:0,0:0:0:0:
238,155,46485,2,0,P|162:129|140:82,1,116,4|4,0:0|0:0,0:0:0:0:
223,75,46876,1,2,1:1:0:0:
223,75,48180,6,0,P|224:144|237:203,1,116,2|0,1:0|2:0,0:0:0:0:
283,254,48572,2,0,P|280:314|247:369,1,116,4|0,0:0|2:0,0:0:0:0:
172,349,48963,2,0,L|93:355,1,58,4|0,0:0|2:0,0:0:0:0:
42,314,49224,1,4,0:0:0:0:
30,233,49354,2,0,L|36:117,1,116,8|0,0:0|2:0,0:0:0:0:
100,65,49746,2,0,L|96:26,5,38.6666666666667,4|4|4|4|4|0,0:0|0:0|0:0|0:0|0:0|0:0,0:0:0:0:
119,84,50267,6,0,P|173:85|243:65,1,116,4|2,1:2|0:0,0:0:0:0:
394,51,50789,2,0,P|437:63|461:82,1,58,4|8,0:0|0:0,0:0:0:0:
474,147,51050,1,2,0:0:0:0:
413,296,51311,2,0,P|383:216|393:131,2,174,4|8|2,0:0|0:0|0:0,0:0:0:0:
474,147,52354,6,0,P|457:77|402:48,1,116,2|2,1:2|0:0,0:0:0:0:
264,88,52876,2,0,L|140:81,1,116,4|2,0:0|0:0,0:0:0:0:
76,44,53267,1,4,0:0:0:0:
20,104,53398,2,0,P|30:168|29:225,1,116,8|2,0:0|0:0,0:0:0:0:
5,298,53789,2,0,L|124:291,1,116,4|0,0:0|0:0,0:0:0:0:
178,234,54180,1,2,0:0:0:0:
292,348,54441,6,0,P|349:348|407:323,1,116,4|2,1:2|0:0,0:0:0:0:
484,184,54963,2,0,L|344:176,1,116,4|2,0:0|0:0,0:0:0:0:
288,196,55354,1,0,0:0:0:0:
236,132,55485,2,0,P|160:92|76:124,2,174,8|4|2,0:0|0:0|0:0,0:0:0:0:
340,260,56528,6,0,L|333:379,1,116,4|2,1:3|0:0,0:0:0:0:
182,314,57050,2,0,L|188:198,1,116,8|2,0:0|0:0,0:0:0:0:
236,132,57441,1,0,0:0:0:0:
315,155,57572,2,0,L|355:151,5,38.6666666666667,4|0|0|0|0|0,0:2|0:0|0:0|0:0|0:0|0:0,0:0:0:0:
408,206,58094,2,0,L|448:202,5,38.6666666666667,4|0|0|0|0|0,0:2|0:0|0:0|0:0|0:0|0:0,0:0:0:0:
501,257,58615,5,4,1:2:0:0:
508,104,58876,1,2,0:0:0:0:
428,108,59007,2,0,P|352:100|300:88,1,116,8|4,0:0|0:0,0:0:0:0:
236,65,59398,2,0,P|194:68|170:74,1,58,2|0,0:0|0:0,0:0:0:0:
112,118,59659,2,0,P|58:118|4:15,2,174,4|8|2,0:0|0:0|0:0,0:0:0:0:
256,44,60702,6,0,L|375:50,1,116,4|2,1:3|0:0,0:0:0:0:
487,165,61224,2,0,P|479:244|461:290,1,116,8|2,0:0|0:0,0:0:0:0:
403,329,61615,1,0,0:0:0:0:
324,308,61746,2,0,L|208:314,1,116,4|2,0:0|0:0,0:0:0:0:
56,260,62267,2,0,P|50:212|51:189,1,58,4|2,0:0|0:2,0:0:0:0:
62,121,62528,1,10,0:0:0:0:
213,180,62789,6,0,P|267:178|334:162,1,116,4|2,1:2|0:0,0:0:0:0:
399,127,63180,1,0,0:0:0:0:
475,155,63311,2,0,L|471:223,1,58,4|8,0:0|0:0,0:0:0:0:
512,290,63572,1,2,0:0:0:0:
352,320,63833,2,0,L|232:313,1,116,4|2,0:0|0:0,0:0:0:0:
180,255,64224,2,0,B|94:234|92:275|7:255,1,174,8|2,0:0|0:0,0:0:0:0:
4,174,64746,1,4,0:0:0:0:
51,108,64876,6,0,P|124:96|179:101,1,116,4|2,1:3|0:0,0:0:0:0:
244,120,65267,1,0,0:0:0:0:
315,159,65398,2,4,L|438:152,1,116,4|4,0:2|0:2,0:2:0:0:
473,309,65920,2,0,P|415:310|359:282,1,116,4|2,0:0|0:0,0:0:0:0:
294,243,66311,2,0,P|219:250|168:265,1,116,8|4,0:0|0:0,0:0:0:0:
109,302,66702,1,2,0:0:0:0:
88,140,66963,1,4,1:2:0:0:
135,87,75311,6,0,P|198:92|251:106,1,116,4|2,1:2|0:0,0:0:0:0:
320,147,75702,2,0,P|380:158|430:118,1,116,8|4,0:0|0:0,0:0:0:0:
466,59,76093,1,2,0:0:0:0:
500,216,76354,2,0,L|494:348,1,116,4|2,1:3|0:0,0:0:0:0:
339,382,76876,2,0,P|331:339|335:304,1,58,4|8,0:0|0:0,0:0:0:0:
347,245,77137,1,2,0:0:0:0:
376,86,77398,6,0,P|409:132|406:188,1,116,2|2,1:0|0:0,0:0:0:0:
347,245,77789,2,0,L|224:252,1,116,8|4,0:0|0:0,0:0:0:0:
174,194,78180,1,2,0:0:0:0:
60,80,78441,1,4,0:0:0:0:
19,236,78702,1,2,0:0:0:0:
174,194,78963,2,0,P|219:173|241:174,2,58,4|8|2,0:0|0:0|0:0,0:0:0:0:
132,349,79485,6,0,L|260:356,1,116,2|2,1:0|0:0,0:0:0:0:
312,304,79876,2,0,P|370:309|427:333,1,116,8|4,0:0|0:0,0:0:0:0:
487,381,80267,1,2,0:0:0:0:
509,220,80528,6,0,P|504:148|490:97,1,116,6|6,1:0|1:0,0:0:0:0:
332,140,81050,2,0,L|209:134,1,116,6|6,1:0|1:0,0:0:0:0:
65,73,81572,6,0,P|108:43|179:66,1,116,4|2,1:3|0:0,0:0:0:0:
208,126,81963,2,0,P|203:175|215:253,1,116,8|4,0:0|0:0,0:0:0:0:
235,320,82354,1,2,0:0:0:0:
396,296,82615,6,0,P|350:263|292:262,1,116,6|6,1:0|1:0,0:0:0:0:
178,379,83137,2,0,L|59:373,1,116,6|6,1:0|1:0,0:0:0:0:
4,222,83659,6,0,P|65:227|117:197,1,116,4|2,1:2|0:0,0:0:0:0:
170,145,84050,2,0,L|294:152,1,116,8|4,0:0|0:0,0:0:0:0:
344,209,84441,1,2,0:0:0:0:
420,352,84702,2,0,P|432:292|416:228,1,116,4|2,0:0|0:1,0:0:0:0:
391,80,85224,2,0,P|376:104|367:131,1,58,8|4,0:0|0:0,0:0:0:0:
344,209,85485,1,2,0:1:0:0:
236,330,85746,6,0,P|181:327|111:306,1,116,2|2,1:1|0:0,0:0:0:0:
56,265,86137,2,0,B|47:194|47:194|68:145,1,116,8|4,0:0|0:0,0:0:0:0:
100,80,86528,1,2,0:0:0:0:
254,135,86789,2,0,P|317:132|380:116,1,116,4|2,0:0|0:0,0:0:0:0:
501,25,87311,2,0,P|459:17|430:16,1,58,4|8,0:0|0:0,0:0:0:0:
366,39,87572,1,2,0:0:0:0:
420,193,87833,6,0,L|414:309,1,116,2|2,1:0|0:0,0:0:0:0:
357,367,88224,2,0,P|294:370|242:349,1,116,8|4,0:0|0:0,0:0:0:0:
181,302,88615,2,0,P|133:306|107:313,1,58,2|0,0:0|0:0,0:0:0:0:
63,363,88876,6,0,L|70:248,1,116,6|6,1:0|1:0,0:0:0:0:
152,106,89398,2,0,P|209:108|259:136,1,116,6|6,1:0|1:0,0:0:0:0:
344,272,89920,6,0,P|408:268|466:235,1,116,4|2,1:3|0:0,0:0:0:0:
512,188,90311,2,0,L|506:69,1,116,8|4,0:0|0:0,0:0:0:0:
449,15,90702,1,2,0:0:0:0:
295,66,90963,6,0,B|241:82|241:82|181:72,1,116,6|6,1:0|1:0,0:0:0:0:
26,29,91485,2,0,P|20:104|27:159,1,116,6|6,1:0|1:0,0:0:0:0:
96,288,92007,6,0,L|216:282,1,116,4|8,0:0|0:0,0:0:0:0:
274,229,92398,2,0,P|350:255|372:302,1,116,4|4,0:0|0:0,0:0:0:0:
289,309,92789,1,2,1:1:0:0:
289,309,94093,6,0,P|288:240|275:181,1,116,2|0,1:0|2:0,0:0:0:0:
229,130,94485,2,0,P|232:70|265:15,1,116,4|0,0:0|2:0,0:0:0:0:
334,54,94876,1,8,0:0:0:0:
334,54,96180,6,0,P|331:114|298:169,1,116,4|8,1:3|0:0,0:0:0:0:
238,211,96572,1,4,0:0:0:0:
208,286,96702,2,0,P|210:316|217:349,2,58,0|0|2,0:0|0:0|1:0,0:0:0:0:
208,286,98267,6,0,P|144:293|96:251,1,116,2|0,1:0|2:0,0:0:0:0:
63,192,98659,2,0,P|127:185|175:227,1,116,4|0,0:0|2:0,0:0:0:0:
248,216,99050,2,0,P|307:208|361:190,1,116,4|0,0:0|2:0,0:0:0:0:
433,154,99441,2,0,P|461:197|469:262,1,116,2|4,0:0|0:0,0:0:0:0:
412,319,99833,2,0,L|415:357,5,38.6666666666667,4|4|4|4|4|0,0:0|0:0|0:0|0:0|0:0|0:0,0:0:0:0:
393,300,100354,6,0,P|339:299|269:319,1,116,4|2,1:2|0:0,0:0:0:0:
118,333,100876,2,0,P|75:321|51:302,1,58,4|8,0:0|0:0,0:0:0:0:
38,237,101137,1,2,0:0:0:0:
99,88,101398,2,0,P|129:168|119:253,2,174,4|8|2,0:0|0:0|0:0,0:0:0:0:
38,237,102441,6,0,P|55:307|110:336,1,116,2|2,1:2|0:0,0:0:0:0:
248,296,102963,2,0,L|372:303,1,116,4|2,0:0|0:0,0:0:0:0:
436,340,103354,1,4,0:0:0:0:
492,280,103485,2,0,P|482:216|483:159,1,116,8|2,0:0|0:0,0:0:0:0:
507,86,103876,2,0,L|388:93,1,116,4|0,0:0|0:0,0:0:0:0:
334,150,104267,1,2,0:0:0:0:
220,36,104528,6,0,P|163:36|105:61,1,116,4|2,1:2|0:0,0:0:0:0:
28,200,105050,2,0,L|168:208,1,116,4|2,0:0|0:0,0:0:0:0:
224,188,105441,1,0,0:0:0:0:
276,252,105572,2,0,P|352:292|436:260,2,174,8|4|2,0:0|0:0|0:0,0:0:0:0:
172,124,106615,6,0,L|179:5,1,116,4|2,1:3|0:0,0:0:0:0:
330,70,107137,2,0,L|324:186,1,116,8|2,0:0|0:0,0:0:0:0:
276,252,107528,1,0,0:0:0:0:
197,229,107659,2,0,L|156:232,5,38.6666666666667,4|0|0|0|0|0,0:2|0:0|0:0|0:0|0:0|0:0,0:0:0:0:
104,178,108181,2,0,L|63:181,5,38.6666666666667,4|0|0|0|0|0,0:2|0:0|0:0|0:0|0:0|0:0,0:0:0:0:
11,127,108702,5,4,1:2:0:0:
4,280,108963,1,2,0:0:0:0:
84,276,109094,2,0,P|160:284|212:296,1,116,8|4,0:0|0:0,0:0:0:0:
276,319,109485,2,0,P|318:316|342:310,1,58,2|0,0:0|0:0,0:0:0:0:
400,266,109746,2,0,P|454:266|508:369,2,174,4|8|2,0:0|0:0|0:0,0:0:0:0:
256,340,110789,6,0,L|137:334,1,116,4|2,1:3|0:0,0:0:0:0:
25,219,111311,2,0,P|33:140|51:94,1,116,8|2,0:0|0:0,0:0:0:0:
109,55,111702,1,0,0:0:0:0:
188,76,111833,2,0,L|304:70,1,116,4|2,0:0|0:0,0:0:0:0:
456,124,112354,2,0,P|462:172|461:195,1,58,4|2,0:0|0:2,0:0:0:0:
450,263,112615,1,10,0:0:0:0:
299,204,112876,6,0,P|245:206|178:222,1,116,4|2,1:2|0:0,0:0:0:0:
113,257,113267,1,0,0:0:0:0:
37,229,113398,2,0,L|41:161,1,58,4|8,0:0|0:0,0:0:0:0:
0,94,113659,1,2,0:0:0:0:
160,64,113920,2,0,L|280:71,1,116,4|2,0:0|0:0,0:0:0:0:
332,129,114311,2,0,B|418:150|420:109|505:129,1,174,8|2,0:0|0:0,0:0:0:0:
508,210,114833,1,4,0:0:0:0:
461,276,114963,6,0,P|388:288|333:283,1,116,4|2,1:3|0:0,0:0:0:0:
268,264,115354,1,0,0:0:0:0:
197,225,115485,2,4,L|74:232,1,116,4|4,0:2|0:2,0:2:0:0:
39,75,116007,2,0,P|97:74|153:102,1,116,4|2,0:0|0:0,0:0:0:0:
218,141,116398,2,0,P|293:134|344:119,1,116,8|4,0:0|0:0,0:0:0:0:
403,82,116789,1,2,0:0:0:0:
424,244,117050,1,4,1:2:0:0:
104,284,125398,6,0,P|108:223|99:158,1,116,4|2,1:2|0:0,0:0:0:0:
71,92,125789,2,0,L|194:85,1,116,4|0,0:0|0:0,0:0:0:0:
260,120,126180,1,2,0:0:0:0:
356,248,126441,2,0,P|352:305|329:358,1,116,2|2,1:0|0:0,0:0:0:0:
253,325,126833,2,0,P|191:328|134:346,1,116,2|0,0:1|0:0,0:0:0:0:
67,381,127224,1,2,0:0:0:0:
20,224,127485,6,0,L|26:104,1,116,4|2,1:3|0:0,0:0:0:0:
68,38,127876,2,0,P|148:38|204:46,1,116,8|4,0:0|0:0,0:0:0:0:
261,65,128267,1,2,0:0:0:0:
332,104,128398,1,4,0:0:0:0:
383,166,128528,6,0,L|376:293,1,116,6|6,1:0|1:0,0:0:0:0:
248,381,129050,2,0,L|241:253,1,116,6|6,1:0|1:0,0:0:0:0:
148,132,129572,6,0,P|82:129|41:164,1,116,4|2,1:3|0:0,0:0:0:0:
111,204,129963,2,0,P|177:207|218:172,1,116,8|0,0:0|0:0,0:0:0:0:
221,98,130354,1,2,0:0:0:0:
364,24,130615,2,0,L|483:30,1,116,4|2,0:0|0:0,0:0:0:0:
484,192,131137,2,0,P|486:223|476:268,1,58,4|0,0:2|0:0,0:0:0:0:
444,320,131398,2,0,L|368:316,1,58,4|0,0:2|0:0,0:0:0:0:
328,259,131659,6,0,L|325:219,11,38.6666666666667,4|4|4|4|4|4|4|4|4|4|0|0,0:0|0:0|0:0|0:0|0:0|0:0|0:0|0:0|0:0|0:0|0:0|0:0,0:0:0:0:
304,199,132702,6,0,P|303:146|320:68,1,116,6|6,1:0|1:0,1:0:0:0:
476,102,133224,2,0,P|477:155|460:233,1,116,6|6,1:0|1:0,1:0:0:0:
368,348,133746,5,4,0:2:0:0:
