osu file format v13

[General]
AudioFilename: 10 - Anklebiters.mp3
AudioLeadIn: 0
PreviewTime: 50267
Countdown: 0
SampleSet: None
StackLeniency: 0.4
Mode: 0
LetterboxInBreaks: 0
WidescreenStoryboard: 1

[Editor]
Bookmarks: 50267,92007
DistanceSpacing: 2
BeatDivisor: 4
GridSize: 4
TimelineZoom: 1.5

[Metadata]
Title:Anklebiters
TitleUnicode:Anklebiters
Artist:Paramore
ArtistUnicode:Paramore
Creator:Priti
Version:Expert Collab
Source:
Tags:Power Pop Punk New Wave Hayley Williams EvilElvisV2 EvilElvis Zero__Wind grumd Tess Nwolf
BeatmapID:545965
BeatmapSetID:227990

[Difficulty]
HPDrainRate:6.5
CircleSize:4.5
OverallDifficulty:8
ApproachRate:9
SliderMultiplier:1.6
SliderTickRate:1

[Events]
//Background and Video events
0,0,"441710515_1280.jpg",0,0
//Break Periods
//Storyboard Layer 0 (Background)
//Storyboard Layer 1 (Fail)
//Storyboard Layer 2 (Pass)
//Storyboard Layer 3 (Foreground)
Sprite,Foreground,Centre,"SB shiz\grumd_1.png",320,240 L,12963,16 R,0,0,,0.3141821 R,0,522,1044,-0.09309082 L,29659,17 R,0,0,,0.3141821 R,0,522,1044,-0.09309082 M,0,4354,,553,384 F,0,4354,,0.9592727 R,0,4354,,-0.01163635 C,0,4354,,255,0,0 S,2,4354,4485,2.233454,0.6826912 R,0,12702,,-0.01163635 C,0,34615,,0,255,0 C,0,34876,,0,64,64 C,0,35137,,0,255,255 C,0,35398,,255,0,0 C,0,42963,,0,64,128 C,0,43224,,0,255,64 C,0,43485,,0,128,255 C,0,43746,,255,0,0 M,0,50137,,553,384
Sprite,Foreground,Centre,"SB shiz\Ring.png",320,240 M,0,48572,,179,309 F,0,48572,48964,1,0 S,1,48572,48964,0.1447273,0.4
Sprite,Foreground,Centre,"SB shiz\Ring.png",320,240 M,0,48180,,190,334 F,0,48180,48572,1,0 S,1,48180,48572,0.144727,0.4
Sprite,Foreground,Centre,"SB shiz\Ring.png",320,240 M,0,48963,,218,179 F,0,48963,49355,1,0 S,1,48963,49355,0.1447273,0.4
Sprite,Foreground,Centre,"SB shiz\Priti_1.png",320,240 L,50528,16 R,0,0,,0.3141821 R,0,522,1044,-0.09309082 L,67224,16 R,0,0,,0.3141821 R,0,522,1044,-0.09309082 L,83920,8 R,0,0,,0.3141821 R,0,522,1044,-0.09309082 R,0,50137,,-0.09 S,2,50137,50267,1.651636,0.6159998 M,0,50137,91876,562,374 C,0,70387,,0,255,255 C,0,80528,,255,0,0 C,0,80789,,255,255,0 C,0,81050,,0,255,128 C,0,81311,,0,255,255 F,0,91876,91892,1,0
Sprite,Foreground,Centre,"SB shiz\Tess_1.png",320,240 L,100615,16 R,0,0,,0.3141821 R,0,522,1044,-0.09309082 L,117311,16 R,0,0,,0.3141821 R,0,522,1044,-0.09309082 R,0,91876,,-0.09 S,0,91876,92007,1.424727,0.7149091 M,0,91876,133746,562,376 C,0,100615,,0,255,0 C,0,120180,,255,0,0 C,0,120441,,0,0,255 C,0,120702,,255,128,255 C,0,120963,,0,255,0 C,0,124354,,255,0,0 C,0,124615,,0,0,255 C,0,124876,,255,255,255 C,0,125137,,0,255,0 C,0,128528,,255,255,0 C,0,128789,,255,128,0 C,0,129050,,0,255,255 C,0,129311,,0,255,0 C,0,132702,,255,128,0 C,0,132963,,128,128,255 C,0,133224,,255,0,0 C,0,133485,,128,255,0 F,0,133746,,1 F,0,133746,133762,1,0 F,0,133762,133766,0 F,0,133766,133769,0 F,0,133769,133771,0 F,0,133771,133773,0
Sprite,Foreground,Centre,"SB shiz\Ring.png",320,240 M,0,92007,,180,157 F,0,92007,92398,1,0 S,1,92007,92398,0.1447273,0.4
Sprite,Foreground,Centre,"SB shiz\Ring.png",320,240 M,0,92398,,133,240 F,0,92398,92789,1,0 S,1,92398,92789,0.144727,0.4
Sprite,Foreground,Centre,"SB shiz\Ring.png",320,240 M,0,92789,,228,241 F,0,92789,93180,1,0 S,1,92789,93180,0.1447273,0.4
Sprite,Foreground,Centre,"SB shiz\Ring.png",320,240 M,0,94094,,228,224 F,0,94094,94485,1,0 S,1,94094,94485,0.1447273,0.4
Sprite,Foreground,Centre,"SB shiz\Ring.png",320,240 M,0,94485,,181,390 F,0,94485,94876,1,0 S,1,94485,94876,0.144727,0.4
Sprite,Foreground,Centre,"SB shiz\Ring.png",320,240 M,0,94876,,228,224 F,0,94876,95267,1,0 S,1,94876,95267,0.1447273,0.4
Sprite,Foreground,Centre,"SB shiz\Ring.png",320,240 M,0,96180,,392,300 F,0,96180,96572,1,0 S,1,96180,96572,0.1447273,0.4
Sprite,Foreground,Centre,"SB shiz\Ring.png",320,240 M,0,96572,,564,129 F,0,96572,96963,1,0 S,1,96572,96963,0.144727,0.4
Sprite,Foreground,Centre,"SB shiz\Ring.png",320,240 M,0,96963,,502,85 F,0,96963,97354,1,0 S,1,96963,97354,0.1447273,0.4
Sprite,Foreground,Centre,"SB shiz\Ring.png",320,240 M,0,98267,,546,289 F,0,98267,98659,1,0 S,1,98267,98659,0.1447273,0.4
Sprite,Foreground,Centre,"SB shiz\Ring.png",320,240 M,0,98659,,350,295 F,0,98659,99050,1,0 S,1,98659,99050,0.144727,0.4
Sprite,Foreground,Centre,"SB shiz\Ring.png",320,240 M,0,99050,,152,295 F,0,99050,99441,1,0 S,1,99050,99441,0.1447273,0.4
Sprite,Foreground,Centre,"SB shiz\Ring.png",320,240 M,0,46094,,116,269 F,0,46094,46485,1,0 S,1,46094,46485,0.1447273,0.4
Sprite,Foreground,Centre,"SB shiz\Ring.png",320,240 M,0,46485,,285,183 F,0,46485,46876,1,0 S,1,46485,46876,0.144727,0.4
Sprite,Foreground,Centre,"SB shiz\Ring.png",320,240 M,0,46876,,320,103 F,0,46876,47267,1,0 S,1,46876,47267,0.1447273,0.4
//Storyboard Sound Samples

[TimingPoints]
181,260.869565217391,4,3,0,90,1,0
4354,-100,4,3,0,90,0,0
11137,-100,4,3,0,40,0,0
11267,-100,4,3,0,90,0,0
11398,-100,4,3,0,40,0,0
11528,-100,4,3,0,90,0,0
11659,-100,4,3,0,60,0,0
12702,-100,4,3,0,90,0,0
34615,-100,4,3,0,90,0,1
35659,-100,4,3,0,90,0,0
36702,-100,4,3,0,90,0,1
37746,-100,4,3,0,90,0,0
42963,-100,4,3,0,90,0,1
44007,-100,4,3,0,90,0,0
45050,-100,4,3,0,90,0,1
46094,-100,4,3,0,90,0,0
48180,-133.333333333333,4,3,0,90,0,0
50267,-100,4,3,0,95,0,1
57572,-100,4,3,0,85,0,0
58615,-100,4,3,0,95,0,1
66963,-100,4,3,0,90,0,0
80528,-100,4,3,0,90,0,1
81572,-100,4,3,0,90,0,0
82615,-100,4,3,0,90,0,1
83659,-100,4,3,0,90,0,0
88876,-100,4,3,0,90,0,1
89920,-100,4,3,0,90,0,0
90963,-100,4,3,0,90,0,1
92007,-133.333333333333,4,3,0,90,0,0
98202,-133.333333333333,4,3,0,40,0,0
98267,-133.333333333333,4,3,0,90,0,0
98528,-133.333333333333,4,3,0,40,0,0
98659,-133.333333333333,4,3,0,90,0,0
98920,-133.333333333333,4,3,0,40,0,0
99050,-133.333333333333,4,3,0,90,0,0
100354,-100,4,3,0,95,0,1
107659,-100,4,3,0,85,0,0
108702,-100,4,3,0,95,0,1
117050,-100,4,3,0,90,0,0
120180,-100,4,3,0,90,0,1
121224,-100,4,3,0,90,0,0
124354,-100,4,3,0,90,0,1
125398,-100,4,3,0,90,0,0
128528,-100,4,3,0,90,0,1
129572,-100,4,3,0,90,0,0
132702,-100,4,3,0,90,0,1
133746,-100,4,3,0,90,0,0

[Colours]
Combo1 : 207,247,153
Combo2 : 240,63,32
Combo3 : 236,181,145
Combo4 : 98,147,238
Combo5 : 174,240,219
Combo6 : 126,206,55

[HitObjects]
145,73,2267,5,2,0:2:0:0:
148,93,2789,1,2,0:2:0:0:
137,111,3311,1,2,0:2:0:0:
157,191,3572,1,2,0:2:0:0:
99,257,3833,1,2,0:2:0:0:
118,337,4094,1,2,0:2:0:0:
227,296,4354,6,0,P|263:298|305:316,1,80,4|0,0:2|0:0,0:0:0:0:
365,377,4615,1,2,1:3:0:0:
427,314,4746,2,0,L|407:146,1,160,0|0,0:0|2:0,0:0:0:0:
334,58,5137,2,0,L|324:144,1,80,2|0,1:3|2:0,0:0:0:0:
179,224,5398,70,0,P|105:185|116:108,1,160,0|2,0:0|1:3,0:0:0:0:
188,80,5789,1,0,0:0:0:0:
335,143,5920,2,0,P|292:151|254:173,1,80,0|0,0:0|0:0,0:0:0:0:
384,259,6180,2,0,P|424:271|469:270,1,80,2|0,1:3|2:0,0:0:0:0:
321,333,6441,6,0,L|159:352,1,160,0|2,0:0|1:3,0:0:0:0:
24,268,6833,2,0,P|98:251|115:167,1,160,0|0,0:0|2:0,0:0:0:0:
32,44,7224,2,0,P|32:90|45:129,1,80,2|0,1:3|2:0,0:0:0:0:
207,183,7485,70,0,P|228:144|234:106,1,80,0|0,0:0|2:0,0:0:0:0:
311,45,7746,1,2,1:3:0:0:
395,65,7876,1,0,0:0:0:0:
451,164,8007,1,0,0:0:0:0:
364,181,8137,1,0,0:0:0:0:
306,267,8267,2,0,P|360:318|427:324,1,120,2|0,1:3|2:0,0:0:0:0:
427,316,8528,6,0,P|431:276|452:233,1,80,0|0,0:0|0:0,0:0:0:0:
485,383,8789,1,2,1:3:0:0:
362,207,8920,2,0,P|295:184|227:240,1,160,0|0,0:0|2:0,0:0:0:0:
131,350,9311,2,0,L|145:260,1,80,2|0,1:3|0:0,0:0:0:0:
26,126,9572,70,0,L|39:214,1,80,0|0,0:0|2:0,0:0:0:0:
95,64,9833,1,2,1:3:0:0:
177,90,9963,1,0,2:0:0:0:
254,37,10094,2,0,P|287:53|334:56,1,80,0|0,0:0|0:0,0:0:0:0:
469,16,10354,2,0,L|452:143,1,120,2|0,1:3|0:0,0:0:0:0:
436,158,10615,6,0,P|445:200|445:247,1,80,0|0,0:0|0:0,0:0:0:0:
371,305,10876,1,2,1:3:0:0:
231,224,11007,2,0,P|256:155|355:158,1,160,0|0,0:0|2:0,0:0:0:0:
175,333,11398,2,0,P|133:334|90:311,1,80,4|0,1:2|2:0,0:0:0:0:
64,142,11659,70,0,L|77:79,2,53.3333333333333,4|4|4,1:3|0:3|0:3,0:0:0:0:
144,202,11920,2,0,L|152:264,2,53.3333333333333,4|4|4,1:3|0:3|0:3,0:0:0:0:
217,142,12180,1,4,1:3:0:0:
265,118,12267,1,4,0:3:0:0:
317,132,12354,1,4,0:3:0:0:
343,177,12441,1,4,1:3:0:0:
316,225,12528,1,4,0:3:0:0:
323,278,12615,1,4,0:3:0:0:
357,316,12702,6,0,P|447:305|476:240,1,160,4|0,1:0|1:0,0:0:0:0:
393,121,13094,2,0,P|316:122|274:187,1,160,4|0,0:2|0:0,0:0:0:0:
315,273,13485,2,0,L|303:355,1,80,0|2,1:0|0:2,0:0:0:0:
168,266,13746,70,0,L|161:173,1,80,4|0,1:2|0:0,0:0:0:0:
92,138,14007,1,0,1:0:0:0:
235,49,14137,1,2,1:3:0:0:
32,77,14267,2,0,P|13:113|8:161,1,80,4|0,0:0|1:0,0:0:0:0:
244,206,14528,2,0,P|241:166|223:122,1,80,2|2,1:3|0:0,0:0:0:0:
37,295,14789,6,0,P|93:348|186:341,1,160,4|0,0:0|1:0,0:0:0:0:
299,124,15180,2,0,L|324:283,1,160,4|0,0:2|0:0,0:0:0:0:
409,56,15572,2,0,L|426:163,1,80,0|2,1:0|0:2,0:0:0:0:
471,305,15833,70,0,L|481:219,1,80,4|2,1:2|1:3,0:0:0:0:
343,278,16094,2,0,P|301:294|262:296,1,80,4|2,0:0|0:1,0:0:0:0:
85,248,16354,1,2,1:3:0:0:
221,201,16485,1,0,0:1:0:0:
72,126,16615,2,0,P|32:124|-9:106,1,80,2|0,1:0|1:0,0:0:0:0:
222,117,16876,6,0,P|293:155|299:231,1,160,4|0,1:0|1:0,0:0:0:0:
87,332,17267,2,0,P|16:294|10:218,1,160,4|0,1:2|0:0,0:0:0:0:
143,186,17659,1,0,1:0:0:0:
163,269,17789,1,0,0:0:0:0:
313,238,17920,70,0,P|352:246|388:269,1,80,4|0,1:0|0:0,0:0:0:0:
483,152,18180,2,0,L|471:69,1,80,0|4,1:0|1:2,0:0:0:0:
334,24,18441,2,0,L|324:118,1,80,0|2,0:0|0:2,0:0:0:0:
180,143,18702,1,0,1:0:0:0:
369,180,18833,1,0,0:0:0:0:
223,262,18963,6,0,P|257:329|356:330,1,160,4|0,1:0|1:0,0:0:0:0:
483,152,19354,2,0,L|468:313,1,160,4|0,1:2|0:0,0:0:0:0:
384,151,19746,2,0,P|391:111|409:73,1,80,0|2,1:0|1:3,0:0:0:0:
246,190,20007,70,0,P|259:236|258:278,1,80,4|0,1:3|1:0,0:0:0:0:
166,138,20267,1,2,1:3:0:0:
333,79,20398,1,4,1:3:0:0:
206,65,20528,1,2,1:0:0:0:
360,163,20659,1,0,0:0:0:0:
165,246,20789,2,0,L|82:235,1,80,12|12,1:2|1:2,0:0:0:0:
316,318,21050,6,0,L|486:301,1,160,6|2,1:0|0:0,0:0:0:0:
502,45,21441,2,0,P|425:50|380:115,1,160,2|4,1:0|0:0,0:0:0:0:
485,214,21833,2,0,L|472:124,1,80,4|6,0:0|0:0,0:0:0:0:
296,66,22094,70,0,L|280:150,1,80,2|0,1:0|2:0,0:0:0:0:
161,268,22354,2,0,P|100:261|50:219,1,120,2|0,1:0|2:0,0:0:0:0:
46,199,22615,2,0,P|39:158|18:117,1,80,2|4,1:0|0:0,0:0:0:0:
1,279,22876,1,2,1:0:0:0:
146,148,23007,1,4,1:3:0:0:
236,228,23137,6,0,P|319:218|387:159,1,160,2|2,1:0|0:0,0:0:0:0:
489,22,23528,2,0,L|468:183,1,160,2|4,1:0|0:0,0:0:0:0:
419,350,23920,2,0,P|412:311|394:271,1,80,4|6,0:0|0:0,0:0:0:0:
313,242,24180,69,2,1:0:0:0:
494,274,24311,1,0,2:0:0:0:
268,328,24441,2,0,P|227:325|190:308,1,80,2|0,1:0|0:0,0:0:0:0:
56,151,24702,2,0,P|89:202|85:266,1,120,2|0,1:0|2:0,0:0:0:0:
77,284,24963,2,0,L|164:274,1,80,2|4,1:0|1:3,0:0:0:0:
384,175,25224,6,0,P|343:173|307:159,1,80,2|0,1:0|0:0,0:0:0:0:
258,85,25485,1,2,0:0:0:0:
191,318,25615,2,0,P|272:303|316:229,1,160,2|4,1:0|0:0,0:0:0:0:
138,133,26007,2,0,L|125:214,1,80,4|6,0:0|0:3,0:0:0:0:
61,276,26267,69,2,1:0:0:0:
216,206,26398,1,0,2:0:0:0:
275,274,26528,2,0,P|286:313|285:357,1,80,2|0,1:0|0:0,0:0:0:0:
426,172,26789,2,0,P|427:130|439:93,1,80,2|4,1:0|0:0,0:0:0:0:
227,40,27050,2,0,P|267:94|270:156,1,120,2|0,1:0|2:0,0:0:0:0:
261,168,27311,6,0,P|223:178|184:202,1,80,2|0,1:0|0:0,0:0:0:0:
134,271,27572,1,2,0:0:0:0:
333,353,27702,2,0,P|413:311|410:233,1,160,2|4,1:0|0:0,0:0:0:0:
341,199,28094,1,4,1:2:0:0:
380,50,28224,1,6,0:0:0:0:
452,104,28354,70,0,P|459:144|479:186,1,80,4|12,1:3|1:3,0:0:0:0:
276,128,28615,2,0,P|289:86|289:46,1,80,0|4,0:0|1:2,0:0:0:0:
209,14,28876,1,12,1:3:0:0:
59,75,29007,1,0,0:0:0:0:
194,148,29137,1,12,1:3:0:0:
99,198,29267,1,4,1:2:0:0:
287,251,29398,6,0,P|285:293|271:334,1,80,4|0,1:0|0:0,0:0:0:0:
191,365,29659,1,2,1:3:0:0:
364,141,29789,2,0,P|434:133|484:213,1,160,2|0,0:0|0:0,0:0:0:0:
370,285,30180,2,0,L|383:369,1,80,2|0,1:3|2:3,0:0:0:0:
406,207,30441,69,4,1:3:0:0:
274,128,30572,2,0,P|196:131|143:107,1,120,4|0,0:0|2:0,0:0:0:0:
141,95,30833,2,0,L|128:11,1,80,2|0,0:0|1:0,0:0:0:0:
80,170,31094,1,4,3:0:0:0:
276,34,31224,2,0,P|324:39|367:58,1,80,2|8,1:3|0:0,0:0:0:0:
290,307,31485,6,0,P|229:295|201:203,1,160,4|2,1:3|1:3,0:0:0:0:
361,134,31876,2,0,L|524:157,1,160,2|0,0:0|0:0,0:0:0:0:
451,246,32267,2,0,P|438:283|434:325,1,80,2|0,1:3|0:2,0:0:0:0:
361,134,32528,70,0,P|349:75|312:26,1,120,4|0,1:0|0:0,0:0:0:0:
240,60,32789,2,0,P|199:67|147:63,1,80,2|2,1:3|2:0,0:0:0:0:
31,232,33050,2,0,P|69:235|115:253,1,80,4|0,1:0|0:0,0:0:0:0:
232,255,33311,2,0,L|216:173,1,80,2|8,0:0|0:0,0:0:0:0:
399,59,33572,6,0,P|359:128|365:180,1,120,4|0,1:3|2:0,0:0:0:0:
370,188,33833,1,2,0:0:0:0:
442,291,33963,2,0,P|391:343|306:339,1,160,4|2,3:0|0:0,0:0:0:0:
243,179,34354,2,0,P|235:220|216:254,1,80,2|0,0:0|0:0,0:0:0:0:
29,180,34615,37,4,1:2:0:0:
18,91,34746,1,2,1:0:0:0:
193,30,34876,53,2,1:0:0:0:
179,120,35007,1,2,1:0:0:0:
39,289,35137,22,0,L|131:275,1,80,4|2,1:2|1:0,0:0:0:0:
403,104,35398,54,0,L|316:95,1,80,2|0,1:0|0:0,0:0:0:0:
437,203,35659,54,0,P|442:273|356:309,1,160,4|2,1:0|0:0,0:0:0:0:
292,269,36050,1,0,0:0:0:0:
177,342,36180,2,0,P|136:340|96:321,1,80,4|0,1:2|0:0,0:0:0:0:
65,209,36441,2,0,P|96:163|99:94,1,120,2|0,0:0|2:0,0:0:0:0:
51,37,36702,6,0,L|138:55,1,80,4|4,1:2|0:0,0:0:0:0:
190,120,36963,1,4,1:2:0:0:
348,34,37094,2,0,L|452:19,1,80,8|8,0:0|0:0,0:0:0:0:
508,65,37354,1,4,1:2:0:0:
438,219,37485,2,0,P|369:216|323:189,1,120,4|0,1:2|2:0,0:0:0:0:
302,113,37746,70,0,P|253:153|264:245,1,160,4|2,1:2|0:0,0:0:0:0:
205,313,38137,2,0,L|112:296,2,80,2|4|2,0:1|0:0|0:0,0:0:0:0:
133,163,38528,2,0,P|95:163|45:178,1,80,6|8,0:3|0:0,0:0:0:0:
192,225,38789,5,4,1:3:0:0:
273,107,38920,2,0,L|288:29,1,80,2|4,0:2|0:0,0:0:0:0:
352,195,39180,2,0,P|414:206|467:128,1,160,2|2,0:1|0:1,0:0:0:0:
415,65,39572,1,10,0:0:0:0:
352,195,39702,1,4,0:0:0:0:
405,296,39833,70,0,B|327:320|327:320|242:315,1,160,2|2,1:1|0:0,0:0:0:0:
186,252,40224,1,2,0:1:0:0:
236,174,40354,2,0,P|227:134|197:95,1,80,4|0,0:0|0:0,0:0:0:0:
16,241,40615,2,0,P|75:235|126:199,1,120,8|0,0:0|2:0,0:0:0:0:
133,179,40876,5,2,1:0:0:0:
114,98,41007,1,6,0:0:0:0:
304,21,41137,2,0,L|293:103,1,80,2|0,0:1|0:0,0:0:0:0:
441,231,41398,2,0,L|428:150,1,80,2|2,0:1|0:0,0:0:0:0:
367,318,41659,2,0,P|284:312|237:250,1,160,4|2,0:0|1:0,0:0:0:0:
264,171,42050,69,2,0:2:0:0:
124,263,42180,1,4,0:0:0:0:
75,190,42311,2,0,L|65:108,1,80,2|0,0:1|0:0,0:0:0:0:
123,44,42572,1,4,0:0:0:0:
201,83,42702,2,0,P|241:84|286:70,1,80,2|2,0:0|0:0,0:0:0:0:
496,109,42963,54,0,B|416:97,1,80,6|4,1:0|1:3,0:0:0:0:
184,310,43224,54,0,B|264:298,1,80,6|12,1:0|1:3,0:0:0:0:
316,226,43485,21,6,1:0:0:0:
284,378,43615,1,4,1:3:0:0:
407,183,43746,53,6,1:0:0:0:
439,335,43876,1,12,1:3:0:0:
316,226,44007,70,0,P|250:228|198:301,1,160,2|2,1:0|0:0,0:0:0:0:
110,347,44398,1,2,0:1:0:0:
23,202,44528,2,0,P|60:152|147:148,1,120,6|0,0:0|2:0,0:0:0:0:
135,149,44789,2,0,L|224:134,1,80,4|0,0:0|0:0,0:0:0:0:
279,74,45050,69,4,1:3:0:0:
328,196,45180,1,4,0:0:0:0:
387,38,45311,2,0,P|424:56|471:60,1,80,4|4,1:3|0:0,0:0:0:0:
328,196,45572,2,0,P|284:202|218:253,1,120,4|0,1:3|2:0,0:0:0:0:
180,309,45833,2,0,L|76:279,1,80,4|0,1:3|0:0,0:0:0:0:
52,212,46094,5,4,0:2:0:0:
74,129,46224,1,4,0:0:0:0:
148,80,46354,1,0,0:0:0:0:
221,126,46485,2,0,P|313:114|342:51,1,160,4|0,0:2|0:0,0:0:0:0:
256,46,46876,1,4,1:2:0:0:
126,277,48180,69,4,1:0:0:0:
116,253,48572,1,4,0:0:0:0:
154,122,48963,1,4,0:0:0:0:
247,153,49224,5,4,1:2:0:0:
320,111,49354,1,12,1:3:0:0:
311,30,49485,2,0,L|402:38,1,80.0000030517579
484,91,49747,1,4,0:0:0:0:
502,124,49833,1,4,0:0:0:0:
504,164,49920,1,4,0:0:0:0:
488,201,50007,1,4,0:0:0:0:
460,229,50093,1,4,0:0:0:0:
450,268,50180,1,4,0:0:0:0:
477,293,50268,6,0,P|432:305|388:298,1,80,6|0,1:0|0:0,0:0:0:0:
296,239,50528,2,0,P|222:230|156:296,1,160,6|2,0:0|1:0,0:0:0:0:
248,324,50920,1,6,0:0:0:0:
120,194,51050,1,8,0:2:0:0:
95,101,51180,1,2,0:0:0:0:
176,49,51311,6,0,P|262:42|357:22,1,160,2|2,1:0|0:0,0:0:0:0:
452,5,51702,2,0,P|502:32|492:133,1,160,2|2,1:1|1:1,0:0:0:0:
384,274,52094,2,0,P|367:232|363:189,1,80,4|2,0:3|0:0,0:0:0:0:
492,352,52354,70,0,L|308:342,1,160,2|4,1:0|0:3,0:0:0:0:
108,283,52746,1,8,0:0:0:0:
192,367,52876,2,0,L|183:199,1,160,2|4,1:0|0:0,0:0:0:0:
94,20,53267,1,8,0:0:0:0:
46,105,53398,6,0,P|115:115|181:57,1,160,2|4,1:0|0:0,0:0:0:0:
346,10,53789,2,0,P|350:83|367:180,1,160,2|4,0:1|0:0,0:0:0:0:
491,297,54180,2,0,L|499:209,1,80,8|2,0:2|0:0,0:0:0:0:
348,284,54441,70,0,L|184:292,1,160,6|6,1:0|0:0,0:0:0:0:
76,135,54833,1,0,0:2:0:0:
54,361,54963,2,0,P|42:322|37:283,1,80,2|8,1:0|0:0,0:0:0:0:
212,186,55224,1,8,0:2:0:0:
76,135,55354,1,2,0:0:0:0:
189,292,55485,6,0,L|289:300,1,80,2|0,1:0|0:0,0:0:0:0:
481,355,55746,1,4,0:0:0:0:
429,196,55876,2,0,P|432:115|445:26,1,160,2|2,0:1|0:1,0:0:0:0:
324,191,56267,2,0,P|345:254|369:283,1,80,4|4,0:0|0:0,0:0:0:0:
481,355,56528,70,0,B|425:352|425:352|388:370|388:370|324:366,1,160,2|8,1:0|0:0,0:0:0:0:
76,289,56920,1,10,0:0:0:0:
140,218,57050,2,0,P|134:178|124:139,1,80,2|4,1:0|0:0,0:0:0:0:
250,283,57311,2,0,P|260:223|271:198,1,80,8|8,0:2|0:0,0:0:0:0:
352,72,57572,6,0,P|360:97|363:123,2,53.3333333333333,4|0|0,0:2|0:0|0:0,0:0:0:0:
429,208,57833,2,0,P|418:232|412:258,2,53.3333333333333,0|0|0,0:0|0:0|0:0,0:0:0:0:
346,342,58094,70,0,P|320:334|294:331,2,53.3333333333333,4|0|0,0:2|0:0|0:0,0:0:0:0:
188,335,58355,2,0,P|163:345|137:351,2,53.3333333333333,0|0|0,0:0|0:0|0:0,0:0:0:0:
64,276,58615,6,0,P|156:283|172:218,1,160,4|12,1:0|1:2,0:0:0:0:
44,54,59007,1,0,0:0:0:0:
132,96,59137,2,0,L|219:86,1,80,2|0,0:1|0:0,0:0:0:0:
512,68,59398,2,0,L|424:58,1,80,12|2,1:2|0:1,0:0:0:0:
328,160,59659,70,0,L|318:0,1,160,6|12,1:0|1:2,0:0:0:0:
413,205,60050,2,0,P|353:253|263:231,1,160,2|2,0:1|0:1,0:0:0:0:
68,148,60441,1,12,1:2:0:0:
112,300,60572,1,8,0:0:0:0:
216,116,60702,6,0,P|228:56|228:28,1,80,6|0,1:0|0:0,0:0:0:0:
408,8,60963,2,0,L|416:164,1,120,12|0,1:2|2:0,0:0:0:0:
431,145,61224,2,0,P|476:142|511:118,1,80,4|0,1:2|0:0,0:0:0:0:
384,264,61485,2,0,L|244:256,1,120,2|0,1:0|0:0,0:0:0:0:
246,274,61746,69,8,3:0:0:0:
216,116,61876,1,12,1:2:0:0:
82,176,62007,2,0,P|59:137|54:90,1,80,8|4,1:2|1:2,0:0:0:0:
148,276,62267,2,0,P|147:340|63:362,1,160,6|2,1:0|1:2,0:0:0:0:
8,223,62659,1,2,1:2:0:0:
136,107,62789,6,0,L|216:116,1,80,6|0,1:0|0:0,0:0:0:0:
341,182,63050,2,0,P|406:174|512:168,1,160,12|2,1:2|0:1,0:0:0:0:
460,268,63441,1,0,0:0:0:0:
307,95,63572,2,0,P|299:40|303:8,1,80,12|2,1:2|0:1,0:0:0:0:
276,264,63833,70,0,L|104:254,1,160,6|12,1:0|1:2,0:0:0:0:
19,346,64224,2,0,P|3:267|0:188,1,160,6|2,1:0|0:0,0:0:0:0:
148,36,64615,2,0,P|136:88|109:111,1,80,12|0,1:2|0:1,0:0:0:0:
264,80,64876,6,0,B|341:99|343:60|421:80,1,160,4|2,1:0|1:3,0:0:0:0:
500,160,65267,1,4,1:2:0:0:
464,268,65398,2,0,L|468:351,1,80,0|0,0:0|0:0,0:0:0:0:
288,292,65659,2,0,L|292:208,1,80,4|0,1:0|0:0,0:0:0:0:
108,192,65920,70,0,P|112:280|132:364,1,160,4|4,1:2|1:2,0:0:0:0:
189,119,66311,2,0,P|149:91|108:82,1,80,4|0,1:3|1:0,0:0:0:0:
7,98,66572,1,8,1:3:0:0:
280,32,66702,2,0,L|376:28,1,80,4|8,1:2|1:3,0:0:0:0:
492,152,66963,6,0,L|332:143,1,160,6|2,1:0|0:0,0:0:0:0:
263,211,67354,2,0,P|184:215|108:192,1,160,2|10,0:1|0:0,0:0:0:0:
18,340,67746,2,0,P|70:321|118:312,1,80,4|0,0:0|0:0,0:0:0:0:
376,352,68007,70,0,B|308:348|308:348|283:359|283:359|218:355,1,160,2|2,1:0|0:1,0:0:0:0:
454,190,68398,1,10,0:0:0:0:
489,280,68529,2,0,P|488:320|471:356,1,80,2|0,1:0|0:0,0:0:0:0:
287,141,68789,2,0,P|295:180|310:218,1,80,2|0,1:0|0:0,0:0:0:0:
380,79,69050,6,0,P|336:41|225:48,1,160,2|10,1:0|0:0,0:0:0:0:
160,96,69441,2,0,L|0:87,1,160,2|2,0:1|0:0,0:0:0:0:
33,251,69833,2,0,L|132:245,1,80,4|8,0:0|0:0,0:0:0:0:
287,141,70094,70,0,P|285:221|269:300,1,160,2|2,1:0|0:1,0:0:0:0:
113,246,70485,1,4,0:0:0:0:
0,87,70615,2,0,L|107:92,1,80,2|4,0:1|0:0,0:0:0:0:
396,52,70876,2,0,L|316:56,1,80,2|6,0:1|0:0,0:0:0:0:
196,176,71137,6,0,L|205:-3,1,160,2|4,1:0|0:0,0:0:0:0:
316,56,71528,2,0,P|394:62|497:29,1,160,2|4,0:1|0:0,0:0:0:0:
512,191,71920,2,0,P|453:178|418:177,1,80,8|0,0:0|0:0,0:0:0:0:
284,320,72180,70,0,B|362:304|363:335|441:320,1,160,2|2,1:0|0:1,0:0:0:0:
301,208,72572,1,0,0:0:0:0:
301,208,72702,2,0,P|239:214|210:231,1,80,2|4,0:1|0:0,0:0:0:0:
122,347,72963,2,0,P|159:360|199:360,1,80,6|10,0:0|0:0,0:0:0:0:
451,328,73224,6,0,L|442:156,1,160,2|8,1:0|0:0,0:0:0:0:
237,60,73615,1,2,0:1:0:0:
305,128,73746,2,0,L|299:227,1,80,0|2,0:0|0:0,0:0:0:0:
192,276,74007,2,0,L|186:176,1,80,8|2,0:0|0:0,0:0:0:0:
72,144,74267,70,0,L|67:223,1,80,2|6,1:0|0:0,0:0:0:0:
128,336,74528,2,0,P|200:361|268:317,1,160,8|2,0:0|1:3,0:0:0:0:
305,128,74920,1,4,0:0:0:0:
405,353,75050,1,4,0:0:0:0:
180,204,75311,6,0,L|15:195,1,160,4|0,1:0|1:0,0:0:0:0:
128,336,75702,2,0,P|196:351|284:302,1,160,8|0,0:0|0:0,0:0:0:0:
377,248,76094,2,0,P|416:249|456:256,1,80,0|2,1:0|0:0,0:0:0:0:
283,321,76355,70,0,L|274:153,1,160,4|0,3:0|1:0,0:0:0:0:
357,19,76746,2,0,P|367:72|392:109,1,80,0|0,1:0|0:0,0:0:0:0:
476,186,77007,1,4,1:3:0:0:
500,278,77137,2,0,P|496:323|481:366,1,80,8|2,1:3|1:3,0:0:0:0:
363,317,77398,6,0,L|199:325,1,160,4|0,1:0|1:0,0:0:0:0:
58,370,77789,2,0,P|42:277|46:201,1,160,8|4,0:0|0:0,0:0:0:0:
122,38,78180,2,0,P|142:78|149:134,1,80,0|2,1:0|0:0,0:0:0:0:
280,259,78441,70,0,B|299:182|260:180|280:102,1,160,4|0,1:3|1:0,0:0:0:0:
342,26,78833,1,8,1:3:0:0:
465,149,78963,1,0,0:0:0:0:
374,116,79094,1,2,1:3:0:0:
510,64,79224,1,8,1:3:0:0:
356,298,79485,6,0,L|196:289,1,160,4|0,1:0|1:0,0:0:0:0:
8,240,79876,2,0,P|72:252|112:176,1,160,8|0,1:3|0:0,0:0:0:0:
48,40,80267,2,0,P|108:36|184:36,1,120,0|0,1:0|0:0,0:0:0:0:
190,45,80528,38,0,P|204:103|204:139,1,80,4|2,1:2|1:0,0:0:0:0:
288,264,80789,54,0,P|310:198|325:176,1,80,2|2,1:0|1:0,0:0:0:0:
448,48,81050,21,4,1:2:0:0:
465,142,81180,1,2,1:0:0:0:
332,0,81311,53,2,1:0:0:0:
315,94,81441,1,2,1:0:0:0:
190,45,81572,54,0,P|140:48|111:63,1,80,4|0,1:0|0:0,0:0:0:0:
20,192,81833,2,0,L|179:183,1,160,0|0,1:0|0:0,0:0:0:0:
260,236,82224,1,8,0:0:0:0:
354,220,82354,2,0,P|404:223|433:238,1,80,0|0,1:0|1:0,0:0:0:0:
369,341,82615,6,0,L|185:331,1,160,4|4,1:2|1:2,0:0:0:0:
49,355,83007,1,4,1:3:0:0:
121,291,83137,2,0,P|123:238|116:208,1,80,8|4,1:3|1:2,0:0:0:0:
20,97,83398,2,0,P|7:142|5:187,1,80,4|4,1:2|3:0,0:0:0:0:
157,50,83659,70,0,P|220:52|330:32,1,160,4|2,1:0|0:0,0:0:0:0:
435,20,84050,2,0,P|495:26|520:38,1,80,12|0,0:0|0:0,0:0:0:0:
453,138,84311,1,2,0:2:0:0:
315,36,84441,2,0,L|223:40,1,80,0|0,0:0|0:0,0:0:0:0:
88,148,84702,6,0,L|167:152,1,80,4|0,1:3|0:0,0:0:0:0:
393,300,84963,1,2,3:1:0:0:
342,218,85094,2,0,P|346:166|362:124,1,80,2|4,3:1|0:0,0:0:0:0:
204,376,85354,1,2,3:1:0:0:
255,294,85485,2,0,P|251:242|235:200,1,80,2|4,3:1|0:0,0:0:0:0:
8,160,85746,70,0,L|168:152,1,160,4|2,1:3|0:0,0:0:0:0:
289,73,86137,1,8,0:0:0:0:
379,51,86267,1,0,0:0:0:0:
454,106,86397,1,2,0:2:0:0:
460,199,86528,2,0,P|475:251|499:287,1,80,6|12,0:0|0:0,0:0:0:0:
315,185,86789,6,0,P|370:129|379:51,1,160,10|2,1:3|0:2,0:0:0:0:
157,48,87180,1,4,0:0:0:0:
88,116,87311,2,0,L|92:195,1,80,4|8,0:0|0:0,0:0:0:0:
200,364,87572,2,0,L|206:240,1,120,6|0,0:0|2:0,0:0:0:0:
223,226,87833,70,0,P|301:209|369:262,1,160,2|4,1:3|0:0,0:0:0:0:
452,355,88224,2,0,P|468:276|475:197,1,160,2|8,0:2|0:0,0:0:0:0:
375,27,88615,2,0,P|380:88|400:126,1,80,4|6,0:0|0:0,0:0:0:0:
363,252,88876,6,0,L|263:257,1,80,6|4,1:0|0:0,0:0:0:0:
38,303,89137,1,6,1:0:0:0:
67,187,89267,2,0,P|56:125|37:84,1,80,12|6,0:0|1:0,0:0:0:0:
204,383,89528,1,4,0:0:0:0:
175,267,89658,2,0,P|186:205|205:164,1,80,6|12,1:0|0:0,0:0:0:0:
388,112,89920,70,0,L|379:271,1,160,4|2,1:3|0:0,0:0:0:0:
417,360,90311,2,0,P|338:361|258:336,1,160,8|2,0:0|0:2,0:0:0:0:
72,223,90702,2,0,P|126:207|149:187,1,80,4|12,0:0|0:0,0:0:0:0:
368,128,90963,6,2,L|472:132,1,80,4|4,1:3|0:0,0:0:0:0:
484,280,91224,2,2,L|380:284,1,80,4|4,1:3|0:0,0:0:0:0:
164,184,91485,2,2,L|268:188,1,80,4|4,1:3|0:0,0:0:0:0:
280,336,91746,2,2,L|176:340,1,80,4|0,1:3|0:0,0:0:0:0:
116,100,92007,6,0,L|237:102,1,120.000004577637,4|8,1:3|0:0,0:0:0:0:
69,183,92398,2,0,P|26:141|22:78,1,120.000004577637,4|4,0:0|0:0,0:0:0:0:
164,184,92789,1,2,1:0:0:0:
164,167,94094,6,0,P|164:256|122:334,2,180.000006866455,2|4|2,1:0|0:0|0:1,0:0:0:0:
252,274,95137,1,0,0:0:0:0:
328,243,95528,1,0,0:0:0:0:
347,162,95920,1,0,0:0:0:0:
328,243,96180,69,4,1:3:0:0:
347,162,96311,1,0,0:0:0:0:
312,85,96441,1,8,0:0:0:0:
500,72,96572,2,0,P|451:103|393:91,1,120.000004577637,4|0,0:0|0:0,0:0:0:0:
438,28,96963,1,2,1:0:0:0:
500,71,98007,6,0,P|486:114|499:157,1,90.0000034332277,0|0,0:0|2:0,0:0:0:0:
482,232,98267,2,0,L|364:206,1,120.000004577637,2|0,1:0|0:0,0:0:0:0:
286,238,98659,2,0,L|168:212,1,120.000004577637,4|0,0:0|0:0,0:0:0:0:
88,238,99050,1,2,0:1:0:0:
286,238,99311,69,4,1:3:0:0:
256,348,99441,1,8,0:0:0:0:
366,318,99572,1,0,0:0:0:0:
366,318,99833,1,4,0:0:0:0:
405,316,99919,1,4,0:0:0:0:
441,299,100006,1,4,0:0:0:0:
468,270,100093,1,4,0:0:0:0:
482,233,100180,1,4,0:0:0:0:
481,193,100267,1,4,0:0:0:0:
465,157,100355,6,0,P|399:115|323:132,1,160,6|2,1:0|0:0,0:0:0:0:
237,199,100746,1,4,0:0:0:0:
380,223,100876,2,0,P|369:287|359:327,1,80,4|8,0:0|0:0,0:0:0:0:
243,341,101137,1,8,0:2:0:0:
117,320,101267,1,8,0:2:0:0:
37,218,101398,70,0,P|13:164|31:108,1,120,2|0,1:0|0:0,0:0:0:0:
50,95,101659,1,4,0:0:0:0:
157,178,101789,2,0,P|210:201|266:183,1,120,2|0,0:1|0:0,0:0:0:0:
281,172,102050,1,6,0:0:0:0:
207,38,102180,2,0,L|217:127,1,80,8|8,0:0|0:2,0:0:0:0:
298,332,102441,6,0,L|280:167,1,160,2|8,1:0|0:2,0:0:0:0:
477,38,102833,1,6,0:0:0:0:
479,158,102963,2,0,L|485:348,1,160,2|8,1:0|0:2,0:0:0:0:
152,262,103354,1,6,0:0:0:0:
298,331,103485,70,0,P|373:324|408:253,1,160,2|6,1:0|0:0,0:0:0:0:
208,329,103876,1,2,0:1:0:0:
331,259,104007,1,4,0:0:0:0:
235,237,104137,1,4,0:0:0:0:
311,118,104267,2,0,L|350:187,1,80,10|8,0:2|0:2,0:0:0:0:
374,67,104528,6,0,P|304:34|239:73,1,160,4|2,1:0|0:0,0:0:0:0:
99,243,104920,2,0,P|169:276|235:237,1,160,4|2,0:0|0:1,0:0:0:0:
311,118,105311,1,4,0:0:0:0:
166,199,105441,1,2,0:1:0:0:
319,278,105572,70,0,L|311:118,1,160,4|2,1:3|0:0,0:0:0:0:
166,199,105963,2,0,L|173:39,1,160,8|2,0:0|0:1,0:0:0:0:
29,20,106354,1,8,0:2:0:0:
0,144,106485,1,8,0:2:0:0:
173,39,106615,6,0,P|255:55|322:23,1,160,2|2,1:0|1:3,0:0:0:0:
432,48,107007,1,4,0:0:0:0:
449,158,107137,2,0,P|413:232|426:305,1,160,2|8,0:1|1:2,0:0:0:0:
328,367,107528,1,6,0:0:0:0:
345,180,107659,69,4,1:2:0:0:
189,250,107833,1,2,0:0:0:0:
189,250,107920,2,0,P|116:256|90:230,1,106.666666666667,4|2,0:0|0:0,0:0:0:0:
47,171,108180,2,0,L|64:63,1,106.666666666667,4|2,0:2|0:0,0:0:0:0:
132,24,108441,1,4,1:3:0:0:
256,148,108615,1,2,0:0:0:0:
241,167,108702,5,4,1:0:0:0:
398,324,108963,2,0,P|372:295|334:285,1,80,2|2,0:1|0:0,0:0:0:0:
241,167,109224,1,2,0:1:0:0:
449,185,109354,1,4,0:0:0:0:
345,77,109485,2,0,L|373:159,1,80,2|10,0:1|0:2,0:0:0:0:
267,92,109746,70,0,P|275:35|322:1,1,120,2|0,1:0|0:0,0:0:0:0:
351,1,110007,1,2,0:0:0:0:
304,210,110137,2,0,P|257:245|200:236,1,120,2|0,0:1|0:0,0:0:0:0:
180,216,110398,1,2,0:1:0:0:
348,291,110528,1,8,0:2:0:0:
241,167,110659,1,6,0:0:0:0:
96,242,110789,6,0,L|59:80,1,160,2|2,1:0|0:0,0:0:0:0:
241,167,111180,1,8,0:0:0:0:
275,309,111311,2,0,P|201:289|179:215,1,160,2|8,0:1|0:2,0:0:0:0:
276,100,111702,1,6,0:0:0:0:
403,162,111833,70,0,B|245:239,1,160,2|4,1:0|0:0,0:0:0:0:
423,238,112224,1,4,0:0:0:0:
462,79,112354,1,2,0:1:0:0:
276,100,112485,1,8,0:2:0:0:
247,127,112550,1,0,0:0:0:0:
241,167,112615,2,0,L|280:236,1,80,8|0,0:2|0:0,0:0:0:0:
263,351,112876,6,0,P|195:313|174:238,1,160,4|4,1:0|0:0,0:0:0:0:
7,350,113267,2,0,P|75:312|96:237,1,160,8|2,0:0|0:0,0:0:0:0:
241,167,113659,1,2,0:1:0:0:
143,27,113789,1,0,0:0:0:0:
303,122,113920,70,0,P|380:135|445:91,1,160,2|8,1:0|0:0,0:0:0:0:
216,65,114311,2,0,P|280:22|358:35,1,160,2|10,0:1|0:0,0:0:0:0:
280,237,114702,2,0,L|241:168,1,80,2|4,0:1|0:0,0:0:0:0:
350,354,114963,5,2,1:0:0:0:
475,112,115224,2,0,P|456:78|422:57,1,80,4|8,0:0|0:0,0:0:0:0:
303,122,115485,1,4,0:2:0:0:
101,372,115746,2,0,P|68:350|48:316,1,80,4|0,0:2|0:0,0:0:0:0:
46,155,116007,69,2,1:0:0:0:
224,202,116137,1,4,0:0:0:0:
233,34,116267,2,0,L|157:56,1,80,4|2,1:3|0:1,0:0:0:0:
145,214,116528,1,4,0:0:0:0:
303,122,116659,1,0,0:0:0:0:
320,269,116789,2,0,P|339:304|374:336,1,80,2|4,0:1|0:0,0:0:0:0:
511,365,117050,5,4,1:0:0:0:
382,110,117311,2,0,L|302:122,1,80,2|4,0:0|0:0,0:0:0:0:
145,214,117572,2,0,L|224:201,1,80,8|8,0:0|0:0,0:0:0:0:
379,205,117833,1,2,0:2:0:0:
166,117,117963,1,6,0:0:0:0:
16,309,118094,70,0,P|42:338|53:376,1,80,4|8,1:3|0:0,0:0:0:0:
100,282,118354,2,0,P|65:213|103:146,1,160,6|0,0:0|0:1,0:0:0:0:
260,299,118746,1,6,0:0:0:0:
379,205,118876,2,0,L|397:128,1,80,2|0,0:1|0:1,0:0:0:0:
236,189,119137,5,4,1:3:0:0:
337,296,119267,1,2,0:0:0:0:
457,223,119398,2,0,L|380:205,1,80,8|10,0:2|0:0,0:0:0:0:
289,123,119659,1,4,0:0:0:0:
140,195,119789,1,4,0:0:0:0:
172,359,119920,1,12,0:0:0:0:
260,299,120050,1,6,0:0:0:0:
113,267,120180,38,0,P|80:246|62:211,1,80,2|4,1:0|1:3,0:0:0:0:
94,54,120441,53,2,1:0:0:0:
201,65,120572,1,2,1:3:0:0:
343,178,120702,21,2,1:0:0:0:
236,189,120833,1,4,1:3:0:0:
260,299,120963,54,0,P|298:307|336:296,1,80,2|2,1:0|1:2,0:0:0:0:
485,105,121224,54,0,L|343:178,1,160,8|2,1:3|0:0,0:0:0:0:
176,314,121615,2,0,P|176:236|236:189,1,160,2|2,0:2|0:0,0:0:0:0:
421,238,122007,1,4,0:0:0:0:
253,274,122137,1,8,0:0:0:0:
140,146,122267,6,0,P|140:68|79:20,1,160,4|2,1:3|0:2,0:0:0:0:
80,220,122659,1,4,0:0:0:0:
225,94,122789,2,0,P|243:59|278:39,1,80,10|6,0:0|0:0,0:0:0:0:
485,105,123050,1,4,0:0:0:0:
421,238,123180,1,14,0:0:0:0:
258,274,123311,70,0,B|250:198|250:198|303:114,1,160,2|6,1:2|0:0,0:0:0:0:
229,12,123702,2,0,L|138:150,1,160,4|10,0:0|0:0,0:0:0:0:
56,320,124094,1,8,0:0:0:0:
259,273,124224,1,4,0:0:0:0:
141,146,124354,54,0,P|127:182|131:222,1,80,2|4,1:0|1:3,0:0:0:0:
269,356,124615,53,2,1:0:0:0:
364,345,124746,1,2,0:3:0:0:
464,241,124876,22,0,L|430:168,1,80,2|4,1:0|0:3,0:0:0:0:
349,71,125137,53,0,1:0:0:0:
315,143,125267,1,2,0:2:0:0:
429,71,125398,70,0,P|391:4|314:0,1,160,4|2,1:0|0:0,0:0:0:0:
191,131,125789,2,0,B|218:148|223:177|223:177|265:137|316:143,1,160,0|4,0:0|0:0,0:0:0:0:
183,249,126180,1,8,0:0:0:0:
196,25,126311,1,4,0:0:0:0:
92,57,126441,70,0,P|82:138|142:188,1,160,2|4,1:3|0:0,0:0:0:0:
221,344,126833,1,0,0:0:0:0:
361,276,126963,2,0,P|338:244|303:227,1,80,8|4,0:0|0:0,0:0:0:0:
392,136,127224,2,0,P|353:129|315:142,1,80,4|4,0:0|0:0,0:0:0:0:
423,9,127485,6,0,L|487:158,1,160,4|4,1:3|0:0,0:0:0:0:
295,276,127876,2,0,P|270:203|316:141,1,160,8|4,0:0|0:0,0:0:0:0:
324,33,128267,1,10,0:0:0:0:
353,216,128398,1,10,0:0:0:0:
230,325,128528,38,0,P|200:350|161:354,1,80,2|4,1:0|1:3,0:0:0:0:
20,207,128789,53,2,1:0:0:0:
58,291,128919,1,2,1:3:0:0:
226,192,129050,22,0,L|235:101,1,80,2|4,1:0|1:3,0:0:0:0:
46,40,129311,53,2,1:0:0:0:
32,44,129572,54,0,L|202:39,1,160,8|2,1:3|0:0,0:0:0:0:
393,107,129963,2,0,L|234:112,1,160,4|8,0:0|0:0,0:0:0:0:
141,225,130354,1,4,0:0:0:0:
207,328,130485,1,0,0:0:0:0:
340,333,130615,6,0,P|398:281|409:203,1,160,4|2,0:0|0:0,0:0:0:0:
165,150,131007,2,0,P|146:185|141:225,1,80,4|4,0:0|0:2,0:0:0:0:
207,328,131267,1,6,0:0:0:0:
52,78,131398,2,0,L|137:63,1,80,4|0,0:2|0:0,0:0:0:0:
250,31,131659,69,4,0:0:0:0:
301,20,131745,1,4,0:0:0:0:
353,33,131832,1,4,0:0:0:0:
394,66,131919,1,4,0:0:0:0:
418,113,132006,1,4,0:0:0:0:
419,166,132093,1,4,0:0:0:0:
398,214,132181,5,4,0:0:0:0:
349,231,132267,1,4,0:0:0:0:
322,276,132354,1,4,0:0:0:0:
331,328,132441,1,4,0:0:0:0:
372,361,132528,1,4,0:0:0:0:
424,360,132615,1,4,0:0:0:0:
463,325,132703,38,0,L|410:314,2,53.3333333333333,2|4|4,1:0|0:0|0:0,0:0:0:0:
388,237,132964,54,0,L|440:226,2,53.3333333333333,2|4|4,1:0|0:0|0:0,0:0:0:0:
413,150,133225,22,0,L|360:139,2,53.3333333333333,2|4|4,1:0|0:0|0:0,0:0:0:0:
327,37,133486,54,0,P|363:50|405:46,1,80,2|4,1:0|0:0,0:0:0:0:
495,9,133747,1,4,0:2:0:0:
