osu file format v5

[General]
AudioFilename: Super_Mario_64_The_Alternate_Route_OC_ReMix.mp3
AudioLeadIn: 0
PreviewTime: -1
Countdown: 1
SampleSet: Soft
StackLeniency: 0.7
Mode: 0
LetterboxInBreaks: 1

[Metadata]
Title:Super Mario 64 The Alternate Route OC ReMix
Artist:ParagonX9
Creator:humbugle
Version:Insane
Source:
Tags:mario super 64 mushroom remix alternate route paragonx9

[Difficulty]
HPDrainRate:6
CircleSize:5
OverallDifficulty:7
SliderMultiplier:1.6
SliderTickRate:1

[Events]
//Background and Video events
0,0,"mario64dc-wp-1280 x 960.jpg"
//Break Periods
2,106897,108760
//Storyboard Layer 0 (Background)
//Storyboard Layer 1 (Failing)
//Storyboard Layer 2 (Passing)
//Storyboard Layer 3 (Foreground)
//Storyboard Sound Samples
//Background Colour Transformations
3,100,163,162,255

[TimingPoints]
62242,370.37037037037,4,2,1,100,1,0

[Colours]
Combo1 : 5,5,240
Combo2 : 234,0,6

[HitObjects]
132,63,47427,6,0,B|73:117|57:182|115:315|416:339,1,480
428,286,48723,1,0
391,233,48908,2,0,B|287:229,1,80
240,224,49279,1,0
64,114,50390,5,0
178,55,50760,1,0
363,103,51316,6,0,B|446:125|441:172,1,80
408,199,51686,2,0,B|338:209|301:159,1,80
89,280,53353,5,0
89,280,53723,2,0,B|256:313|433:267|443:89|372:38,1,480
332,87,55019,1,0
277,52,55204,1,0
20,50,55945,6,0,B|21:134,1,80
19,193,56316,1,0
152,331,56871,1,0
400,336,57612,1,0
400,272,57797,1,0
287,319,58167,1,0
307,192,58538,1,0
190,244,58908,1,0
252,132,59279,1,4
126,154,59649,6,0,B|227:238|328:202|420:121,1,320,8|8
380,71,60575,1,0
323,101,60760,2,0,B|298:43|231:34,2,80
319,229,61501,5,0
198,185,61871,1,8
187,57,62241,6,0,B|252:59|308:119|318:175,1,160,0|8
437,145,62982,1,0
396,194,63167,1,0
354,242,63353,2,0,B|263:242,2,80
256,192,63908,12,0,64834
89,80,65204,5,0
216,78,65575,2,0,B|284:83|321:149|213:201|270:247|333:282|342:284,1,240,8|0
368,304,66316,1,8
407,253,66501,1,0
407,189,66686,2,0,B|305:188,1,80
256,192,67056,2,8,B|91:193,2,160
256,128,67982,5,0
256,64,68167,2,0,B|341:64|431:114|468:201,2,240
196,62,69464,1,0
256,192,69649,12,0,70760
84,62,71130,6,0,B|48:91|34:144|63:197|159:209|216:175|244:147|276:116|339:55,1,400
384,64,72241,1,8
448,64,72427,2,0,B|449:155,1,80
448,208,72797,1,0
448,272,72982,2,8,B|278:272,2,160
320,272,74093,5,0
192,272,74464,1,8
192,80,75019,2,8,B|192:161,1,80,0|8
256,160,75390,1,0
320,160,75575,1,0
404,254,75945,5,8
288,320,76316,1,8
224,320,76501,1,2
160,320,76686,2,8,B|76:320,1,80,8|0
80,320,77056,1,4
86,200,77427,6,0,B|87:138|160:82|234:101|299:146|300:231,1,320,8|8
300,289,78353,2,0,B|390:289,1,80
378,352,78723,2,0,B|284:352,1,80,0|8
169,353,79279,5,8
77,263,79649,2,0,B|68:215|115:171,1,80,8|0
143,142,80019,2,8,B|242:99|333:118|385:162,1,240
257,305,81316,6,8,B|257:191,1,80
256,96,81871,5,8
128,96,82242,1,8
64,96,82427,1,4
64,160,82612,1,8
128,160,82797,1,2
192,160,82982,5,4
320,160,83353,5,8
390,325,83908,1,0
453,322,84093,2,8,B|453:235,1,80,8|0
389,239,84464,2,0,B|389:146,1,80
389,94,84834,5,8
261,94,85204,1,8
128,96,85575,1,8
64,96,85760,1,2
0,96,85945,6,8,B|-2:176|10:246|108:271|194:264|220:229,1,320
420,77,87242,2,0,B|453:181|366:244,1,160
336,261,87797,1,8
287,302,87982,1,0
234,265,88167,1,8
187,309,88353,1,0
143,261,88538,1,8
100,308,88723,1,2
36,310,88908,6,0,B|36:145,2,160,4|0|4
36,310,90019,2,2,B|212:310,3,160
260,309,91316,1,0
323,309,91501,1,0
386,307,91686,1,0
450,304,91871,2,0,B|472:86|389:4|277:-23|111:-22|6:27|-8:174|22:251|83:349|183:366|321:340|324:224|209:111,1,1120
96,64,94834,5,0
160,64,95019,1,0
224,64,95204,2,0,B|311:64,2,80,0|0|0
224,128,95760,1,0
224,192,95945,2,2,B|224:235,3,40
320,224,96501,1,0
320,160,96686,1,0
320,96,96871,1,0
384,96,97056,2,2,B|384:192,1,80
448,176,97427,2,2,B|448:81,1,80
448,32,97797,5,0
384,32,97982,1,0
320,32,98167,2,0,B|227:33,1,80
240,96,98538,2,0,B|139:96,1,80
144,160,98908,2,2,B|48:160,1,80
64,224,99279,2,0,B|228:223,1,160,10|6
288,224,99834,2,0,B|452:224,1,160,8|4
464,160,100390,1,8
464,160,100575,1,8
480,96,100760,5,0
480,96,100945,1,0
416,112,101130,1,0
416,112,101316,1,0
352,112,101501,2,0,B|353:25,1,80,0|0
288,32,101871,2,0,B|287:129,1,80
224,112,102242,1,8
160,112,102427,1,0
96,112,102612,2,0,B|96:219,1,80,0|0
32,192,102982,2,0,B|32:96,1,80
32,48,103353,1,8
96,48,103538,1,8
160,48,103723,6,0,B|161:162,1,80,4|0
224,128,104093,2,0,B|315:128,1,80
368,128,104464,2,0,B|368:33,1,80
432,48,104834,2,0,B|432:146,1,80
416,192,105204,5,0
416,256,105390,1,0
352,256,105575,1,0
352,192,105760,1,0
288,192,105945,1,0
288,256,106130,1,0
224,256,106316,1,0
224,192,106501,1,0
224,128,106686,5,14
254,20,109649,6,0,B|338:22|335:114|245:116,1,160,8|0
201,125,110204,5,0
137,135,110390,2,0,B|52:151|40:227|131:258,1,160
149,285,110945,5,0
212,292,111130,2,0,B|314:272|269:178|226:167,1,160,4|0
202,127,111686,5,0
142,102,111871,2,0,B|79:49|150:0|227:0,1,160
265,10,112427,5,0
321,40,112612,2,0,B|381:111|279:159|230:141,1,160,8|0
194,131,113167,5,0
130,128,113353,2,0,B|33:156|89:223|137:261,1,160
175,273,113908,5,0
239,278,114093,2,0,B|408:278,1,160,4|0
399,214,114649,2,0,B|214:214,1,160,4|0
182,244,115204,1,2
182,244,115390,1,2
118,247,115575,5,4
35,149,115945,1,0
162,133,116316,1,2
99,21,116686,1,0
226,30,117056,1,8
293,138,117427,1,0
409,84,117797,1,2
400,211,118167,1,0
293,281,118538,6,0,B|247:326|190:322|206:315,1,80,8|0
205,256,118908,2,0,B|170:213|101:221,1,80
85,260,119279,2,0,B|19:214|50:162,1,80
100,175,119649,2,0,B|131:134|102:67,1,80
59,62,120019,2,0,B|132:9|157:63,1,80,8|0
149,99,120390,2,0,B|209:117|247:54,1,80,8|0
264,34,120760,2,0,B|316:63|343:118,1,80,8|0
287,139,121130,2,8,B|343:176|389:134,1,80
256,192,121501,12,0,124464
120,131,124834,5,0
234,73,125204,1,0
353,117,125575,1,0
362,244,125945,2,0,B|284:318|194:300,1,160,0|8
156,286,126501,2,0,B|97:234|98:135,1,160,0|8
98,142,127056,1,8
98,142,127242,1,8
256,192,127427,12,8,133353
