osu file format v9

[General]
AudioFilename: 37040_newgrounds_parago.mp3
AudioLeadIn: 0
PreviewTime: 39272
Countdown: 1
SampleSet: Normal
StackLeniency: 0.7
Mode: 0
LetterboxInBreaks: 1

[Editor]
DistanceSpacing: 0.9
BeatDivisor: 2
GridSize: 4

[Metadata]
Title:Chaoz Japan
Artist:ParagonX9
Creator:Mustaash
Version:Normal
Source:
Tags:Firce777 _Gezo_ Newgrounds

[Difficulty]
HPDrainRate:3
CircleSize:3
OverallDifficulty:2
ApproachRate:4
SliderMultiplier:1
SliderTickRate:1

[Events]
//Background and Video events
0,0,"japan_wallpaper_by_horizonpl-3d28c8.jpg"
//Break Periods
2,35109,37952
//Storyboard Layer 0 (Background)
//Storyboard Layer 1 (Fail)
//Storyboard Layer 2 (Pass)
//Storyboard Layer 3 (Foreground)
//Storyboard Sound Samples
//Background Colour Transformations
3,100,163,162,255

[TimingPoints]
0,363.636363636364,4,1,1,35,1,0
11636,-100,4,1,1,55,0,1
11681,-100,4,1,1,55,0,0
23272,-100,4,1,0,55,0,1
34909,-100,4,1,0,55,0,0
49818,-100,4,1,0,55,0,0
50181,-100,4,2,0,55,0,0
50424,-100,4,1,0,55,0,0
50545,-100,4,2,0,55,0,0
50787,-100,4,1,0,55,0,0
51818,-100,4,1,1,55,0,1
75636,-100,4,1,0,55,0,1
87272,-100,4,1,1,55,0,0

[Colours]
Combo1 : 255,0,0
Combo2 : 255,255,255

[HitObjects]
112,72,11636,2,0,B|140:132|188:160,2,100,0|0|8
400,72,13090,2,0,B|372:132|324:160,2,100,0|0|8
400,312,14545,2,0,B|372:252|324:224,2,100,0|0|8
112,312,16000,2,0,B|140:252|188:224,2,100,0|0|8
28,284,17090,2,0,B|28:180,1,100,0|4
72,104,17818,6,0,B|128:96|128:96|168:64,1,100,0|8
340,56,18909,2,0,B|348:112|348:112|380:152,2,100,0|0|8
472,180,20363,2,0,B|464:124|464:124|432:84,2,100,0|0|8
296,216,21818,2,0,B|304:272|304:272|336:312,2,100,0|0|8
248,140,22909,5,0
248,140,23272,2,0,B|132:88|48:168|28:192|28:192|48:208|132:272|16:336,1,400
220,312,25454,2,0,B|284:276|280:352|368:308,1,150
364,260,26181,6,0,B|392:156|280:76|200:136|200:136|128:136,1,300
112,204,27636,1,0
112,204,27999,2,0,B|132:252|132:252|124:308,2,100
32,160,29090,6,0,B|32:56,1,100
120,48,29818,1,0
268,60,30545,2,0,B|372:120|328:248|396:324|396:324|516:324,2,400
208,128,33818,5,0
152,200,34181,1,0
208,272,34545,1,0
120,284,34909,1,4
100,24,39272,5,0
64,108,39636,1,0
152,96,40000,1,0
240,84,40363,1,0
240,84,40727,1,0
304,144,41090,2,0,B|408:168,1,100
444,248,41818,2,0,B|384:348,1,100
304,328,42545,2,0,B|216:280,1,100
128,272,43272,5,0
116,184,43636,2,0,B|324:184,2,200
52,120,45454,1,0
120,60,45818,1,0
208,60,46181,1,0
276,120,46545,1,0
208,60,46909,1,0
292,32,47272,2,0,B|396:16|396:16|464:100,1,200
256,192,48181,12,0,50787
104,88,51818,6,0,B|160:88,1,50
152,180,52363,2,0,B|120:304|236:344|236:344|320:344|320:260,1,300
328,212,53818,2,0,B|392:224|432:180,2,100
360,128,54909,2,0,B|304:104|256:144,2,100
420,60,56000,1,0
332,36,56363,6,0,B|256:16|184:36|184:36|148:88,2,200
304,124,58181,1,0
392,132,58545,6,0,B|464:248|348:352|232:332|220:288|152:300|224:228,1,400
160,168,60363,2,0,B|112:148|112:148|80:92,2,100
180,80,61454,2,0,B|268:20,2,100
236,148,62545,1,0
236,148,62727,2,0,B|324:124,5,50
364,96,64000,6,0,B|440:152|404:244|356:256|356:256|240:264,1,300
204,188,65454,1,0
148,120,65818,1,0
100,44,66181,1,0
60,124,66545,2,0,B|28:224,1,100
104,268,67272,6,0,B|188:368,1,100
252,312,68000,1,0
340,300,68363,1,0
428,284,68727,1,0
408,196,69090,2,0,B|436:176|436:176|440:140,3,50
416,120,69818,6,0,B|384:72|304:76,1,100
256,24,70545,2,0,B|152:24,1,100
120,108,71272,2,0,B|232:108,1,100
244,196,72000,1,0
408,268,72727,5,0
244,344,73454,1,0
76,276,74181,1,0
0,152,74909,2,0,B|0:52,2,100
84,116,76000,6,0,B|248:76|340:136|284:240,1,300
244,312,78545,2,0,B|80:352|-12:292|44:188,1,300
68,120,80000,6,0,B|56:64|116:24,1,100
204,32,80727,2,0,B|280:112,1,100
352,148,81454,2,0,B|424:220,1,100
344,260,82181,2,0,B|220:280,1,100
256,192,82909,12,0,87272
