osu file format v9

[General]
AudioFilename: 37040_newgrounds_parago.mp3
AudioLeadIn: 0
PreviewTime: 39272
Countdown: 1
SampleSet: Normal
StackLeniency: 0.7
Mode: 0
LetterboxInBreaks: 1

[Editor]
DistanceSpacing: 0.9
BeatDivisor: 4
GridSize: 4

[Metadata]
Title:Chaoz Japan
Artist:ParagonX9
Creator:Mustaash
Version:Easy
Source:
Tags:Firce777 _Gezo_ Newgrounds

[Difficulty]
HPDrainRate:2
CircleSize:3
OverallDifficulty:1
ApproachRate:2
SliderMultiplier:0.899999999999999
SliderTickRate:1

[Events]
//Background and Video events
0,0,"japan_wallpaper_by_horizonpl-3d28c8.jpg"
//Break Periods
2,35109,37712
//Storyboard Layer 0 (Background)
//Storyboard Layer 1 (Fail)
//Storyboard Layer 2 (Pass)
//Storyboard Layer 3 (Foreground)
//Storyboard Sound Samples
//Background Colour Transformations
3,100,163,162,255

[TimingPoints]
0,363.636363636364,4,1,1,35,1,0
11636,-100,4,1,1,55,0,1
11681,-100,4,1,1,55,0,0
23272,-100,4,1,0,55,0,1
34909,-100,4,1,0,55,0,0
39272,-100,4,2,0,55,0,0
51818,-100,4,1,1,55,0,1
75636,-100,4,1,0,55,0,1
87272,-100,4,1,1,55,0,0

[Colours]
Combo1 : 255,0,0
Combo2 : 255,255,255

[HitObjects]
96,108,11636,1,0
36,240,12363,1,0
180,220,13090,1,0
132,356,13818,2,0,B|312:356,2,180
144,212,16000,1,0
280,168,16727,2,0,B|344:188|404:160,2,89.9999999999999
280,168,18181,5,0
412,108,18909,1,0
320,0,19636,1,0
244,100,20363,2,0,B|268:176|296:204|296:204|256:220|272:292,1,180
380,344,21818,2,0,B|16:344,1,360
16,200,24000,5,0
152,248,24727,2,0,B|216:268|288:220,1,89.9999999999999,2|0
180,112,25818,1,0
180,112,26181,2,0,B|264:32|372:132,2,180,2|0|2
260,232,28363,1,2
396,184,29090,1,4
316,304,29818,6,0,B|284:348|252:316|228:348|192:300|192:300|136:300,2,180
256,172,32000,2,0,B|256:44,2,89.9999999999999
344,284,33454,2,0,B|236:284,2,89.9999999999999
344,140,34909,1,4
84,164,39272,6,0,B|52:296|180:368|312:300|312:164,1,360
428,164,42181,6,0,B|460:296|332:368|200:300|200:164,1,360
256,48,45090,5,0
364,192,46545,1,0
256,336,48000,1,0
256,192,48181,12,0,50772
440,32,52363,6,0,B|464:180|320:288|320:288|364:356|284:384|224:356|208:312|136:296|136:336,1,539.999999999999
40,328,55272,6,0,B|16:180|160:72|160:72|116:4|196:-24|256:4|272:48|344:64|344:24,1,539.999999999999
252,180,58181,5,0
368,64,58909,1,0
448,192,59636,1,0
368,312,60363,1,0
448,192,61090,1,0
312,140,61818,2,0,B|340:228|252:256|204:176,3,180
148,220,64363,6,0,B|124:188|124:188|76:176,1,89.9999999999999
32,108,65090,2,0,B|16:40|16:40|40:0,1,89.9999999999999
152,124,66181,1,0
312,116,66909,6,0,B|376:228|452:124,2,180
180,172,69090,1,0
200,316,69818,5,0
180,172,70545,1,0
44,216,71272,1,0
44,216,71636,6,0,B|332:272,1,270
432,192,73454,6,0,B|236:148,2,180
404,52,75636,5,0
260,28,76363,1,0
116,52,77090,1,0
208,160,77818,1,0
88,196,78545,6,0,B|144:296|272:284|328:160|328:160|296:104,1,360
256,48,80363,1,0
209,115,80727,2,0,B|184:160|184:160|240:284|368:296|424:196,1,360
420,108,82909,6,0,B|372:24,2,89.9999999999999
380,128,84000,2,0,B|320:224,1,89.9999999999999
256,192,84545,12,4,87272
