osu file format v7

[General]
AudioFilename: 85046_newgrounds_parago.mp3
AudioLeadIn: 0
PreviewTime: 24388
Countdown: 1
SampleSet: Normal
StackLeniency: 0.7
Mode: 0
LetterboxInBreaks: 1

[Editor]
DistanceSpacing: 1
BeatDivisor: 8
GridSize: 8

[Metadata]
Title:Chaoz Fantasy
Artist:ParagonX9
Creator:Aoitenshi
Version:Aoi Kiai
Source:Newgrounds
Tags:Pwong YGOkid8 lepidopodus

[Difficulty]
HPDrainRate:7
CircleSize:5
OverallDifficulty:8
SliderMultiplier:1.4
SliderTickRate:2

[Events]
//Background and Video events
0,0,"Chaoz Fantasy Dragon.jpg"
//Break Periods
2,71917,73554
//Storyboard Layer 0 (Background)
//Storyboard Layer 1 (Fail)
//Storyboard Layer 2 (Pass)
//Storyboard Layer 3 (Foreground)
//Storyboard Sound Samples
//Background Colour Transformations
3,100,163,162,255

[TimingPoints]
760,369.571912534647,4,1,0,70,1,0
83520,-200,4,2,0,70,0,0
85275,-200,4,2,0,40,0,0
85460,-200,4,2,0,70,0,0
85829,-200,4,2,0,40,0,0
86014,-200,4,2,0,70,0,0
89710,-200,4,2,0,40,0,0
89895,-200,4,2,0,70,0,0
90264,-200,4,2,0,40,0,0
90449,-200,4,2,0,70,0,0
95346,-100,4,2,0,70,0,0
97101,-100,4,2,0,40,0,0
97286,-100,4,2,0,70,0,0
97656,-100,4,2,0,40,0,0
97841,-100,4,2,0,70,0,0
101536,-100,4,2,0,40,0,0
101721,-100,4,2,0,70,0,0
102091,-100,4,2,0,40,0,0
102275,-100,4,2,0,70,0,0
102645,-100,4,2,0,40,0,0
102830,-100,4,2,0,70,0,0
105694,-100,4,1,0,70,0,0

[Colours]
Combo1 : 52,147,192
Combo2 : 193,225,244
Combo3 : 255,255,255

[HitObjects]
40,240,24412,2,0,B|40:320,1,70
112,312,24782,1,2
112,240,24966,2,0,B|184:240,1,70
184,312,25336,1,2
256,312,25521,2,0,B|256:240,1,70
328,240,25890,1,2
328,312,26075,2,0,B|408:312,1,70
400,240,26445,1,2
472,240,26630,2,0,B|472:312,1,70
472,240,26999,2,0,B|392:240,1,70,2|2
400,168,27369,6,0,B|320:168,1,70
264,168,27738,1,2
264,96,27923,2,0,B|344:96,1,70
400,96,28293,1,2
400,24,28477,2,0,B|320:24,1,70
264,24,28847,1,2
264,96,29032,2,0,B|344:96,1,70
400,96,29401,1,2
400,168,29586,2,0,B|328:168,1,70
264,168,29956,2,0,B|336:168,1,70,2|2
400,168,30325,6,0,B|400:256,2,70,0|0|2
344,208,30880,2,0,B|344:296,2,70,0|0|2
288,248,31434,2,0,B|288:328,2,70,0|0|2
232,208,31988,2,0,B|232:280,2,70,0|0|2
176,168,32543,2,0,B|176:256,3,70,0|0|2|2
176,304,33282,6,0,B|264:304,1,70
272,240,33651,2,0,B|368:240,1,70,2|0
368,304,34021,2,0,B|280:304,1,70,0|2
272,240,34391,2,0,B|176:240,1,70
136,240,34760,1,2
136,168,34945,1,0
208,168,35130,1,0
208,96,35314,1,2
280,96,35499,1,0
280,168,35684,1,0
352,168,35869,1,2
352,240,36054,1,2
280,240,36238,6,0,B|200:240,1,70
136,240,36608,1,2
64,240,36793,2,0,B|64:152,1,70
64,96,37162,1,2
64,24,37347,2,0,B|144:24,1,70
208,24,37717,1,2
280,24,37901,2,0,B|280:104,1,70
280,168,38271,1,2
280,240,38456,2,0,B|208:240,1,70
208,168,38825,2,0,B|288:168,1,70,2|2
344,168,39195,6,0,B|344:248,1,70
344,168,39565,1,2
344,96,39749,2,0,B|344:24,1,70
344,96,40119,1,2
344,168,40304,2,0,B|344:248,1,70
344,168,40673,1,2
344,96,40858,2,0,B|344:24,1,70
344,96,41228,1,2
344,168,41412,2,0,B|344:240,1,70
344,304,41782,2,0,B|344:232,1,70,2|2
344,168,42152,6,0,B|288:112,2,70,0|0|2
296,120,42706,2,0,B|240:176,2,70,0|0|2
248,168,43260,2,0,B|192:112,2,70,0|0|2
200,120,43815,2,0,B|144:176,2,70,0|0|2
152,168,44369,2,0,B|88:104,3,70,0|0|2|2
152,168,45108,6,0,B|152:248,1,70
152,312,45478,2,0,B|232:312,1,70,2|0
224,240,45847,2,0,B|224:160,1,70,0|2
224,96,46217,2,0,B|152:96,1,70
152,168,46586,1,2
152,240,46771,1,0
152,312,46956,1,0
224,312,47141,1,2
224,240,47326,1,0
224,168,47510,1,0
224,96,47695,1,2
152,96,47880,1,2
152,168,48065,6,0,B|80:232|164:304,3,140
184,232,49358,1,0
184,232,49451,1,2
184,232,49543,2,2,B|256:296|168:360,1,140,2|0
251,349,50097,2,2,B|179:285|267:221,1,140,2|0
328,232,50652,6,2,B|376:160|320:96,4,140,0|2|2|2|2
296,168,52315,1,0
296,168,52407,1,2
296,168,52500,2,2,B|248:240|304:304,1,140,2|0
328,232,53054,2,2,B|376:160|320:96,1,140,2|0
296,168,53608,6,2,B|248:96|304:32,2,140,0|2|0
224,168,54532,2,2,B|272:96|216:32,1,140,2|0
152,40,55087,2,2,B|104:112|160:176,4,140
288,40,56934,2,2,B|336:112|280:176,3,140
256,208,58413,12,0,59521
424,104,59891,6,0,B|352:104,1,70,6|0
352,176,60261,1,8
424,176,60445,2,0,B|424:248,1,70
352,240,60815,1,0
280,240,61000,2,0,B|280:168,1,70,8|0
280,134,61277,1,2
279,99,61369,2,0,B|207:99,1,70,2|0
144,128,61739,1,8
208,152,61924,2,0,B|304:152,1,70,2|0
344,176,62293,1,0
280,200,62478,2,0,B|192:200,1,70,10|0
136,200,62848,5,2
136,272,63032,1,0
208,272,63217,2,0,B|208:200,1,70,8|0
280,200,63587,1,0
280,128,63772,1,0
208,128,63956,2,0,B|128:128,1,70,8|0
136,160,64233,1,2
136,200,64326,1,2
208,200,64511,1,0
280,200,64695,2,0,B|280:288,1,70,8|2
208,272,65065,1,0
208,344,65250,1,0
136,344,65435,2,0,B|136:264,1,70,10|0
136,200,65804,6,0,B|216:200,3,70,2|0|8|2
136,200,66543,2,0,B|64:200,3,70,0|0|10|0
136,200,67282,2,0,B|136:112,3,70,0|0|8|0
136,200,68022,2,0,B|136:272,3,70,0|0|10|0
256,208,68761,12,0,70978
256,192,71348,5,0
256,192,71440,1,0
256,192,71533,1,0
256,192,71625,1,0
256,192,71717,1,4
256,192,74304,5,8
256,192,74489,1,8
256,192,74581,1,0
256,192,74674,6,0,L|328:192,1,70,4|0
400,192,75043,1,2
400,264,75228,2,0,L|320:264,1,70
256,264,75598,1,2
184,264,75783,2,0,L|184:192,1,70
184,120,76152,1,2
256,120,76337,2,0,L|328:120,1,70
400,120,76707,1,2
400,192,76891,1,0
328,192,77076,1,0
328,264,77261,2,0,L|256:264,1,70,2|2
256,192,77630,6,0,L|256:112,2,70,0|0|2
184,192,78185,2,0,L|112:192,2,70,0|0|2
184,264,78739,2,0,L|184:344,2,70,0|0|2
256,264,79294,2,0,L|328:264,2,70,0|0|2
256,192,79848,2,0,L|256:112,3,70,0|0|2|2
328,120,80587,6,0,L|424:120,1,70
472,120,80957,2,0,L|472:200,1,70,2|0
472,264,81326,2,0,L|392:264,1,70,0|2
328,264,81696,2,0,L|328:192,1,70
328,120,82065,1,2
400,120,82250,1,0
472,120,82435,1,0
472,192,82620,1,2
472,264,82804,1,0
400,264,82989,1,0
328,264,83174,1,2
328,229,83266,1,0
328,192,83359,1,2
328,157,83451,1,0
328,120,83544,6,0,L|288:64|216:64|176:128,1,210,6|0
112,128,85022,2,2,L|112:200,1,70,2|2
80,200,85576,2,2,L|80:120,1,70,2|2
80,96,86131,2,2,B|98:33|114:102,1,70
144,96,86685,5,0
176,96,86870,1,2
224,144,87239,1,0
224,176,87424,1,2
296,176,87794,1,2
296,193,87886,1,2
296,210,87978,1,2
296,248,88163,1,2
264,248,88348,1,2
232,248,88533,1,2
160,248,88902,2,2,B|80:248,1,70
88,216,89457,6,2,L|160:216,1,70,2|2
160,184,90011,2,2,L|80:184,1,70,2|2
88,152,90565,1,2
88,120,90750,1,0
88,88,90935,1,2
160,88,91305,1,0
192,88,91489,1,2
224,88,91674,1,2
256,88,91859,2,2,B|288:128|234:177,1,70
257,170,92321,1,2
256,187,92413,5,2
256,224,92598,1,0
256,256,92783,1,2
256,328,93152,1,0
256,360,93337,1,2
256,288,93707,1,0
256,208,93892,12,0,95000
416,168,95370,6,2,B|400:136|376:112|352:112|328:136|312:176,1,140,6|0
368,216,95924,2,2,B|352:248|328:272|304:272|280:248|264:208,1,140,2|0
200,192,96479,1,0
152,240,96663,1,0
104,192,96848,6,0,B|120:160|144:136|168:136|192:160|208:200,1,140,4|6
152,240,97403,2,2,B|168:272|192:296|216:296|240:272|256:232,1,140,6|4
200,192,97957,2,2,B|216:160|240:136|264:136|288:160|304:200,1,140,4|4
392,80,98696,5,2
480,192,99066,1,0
392,304,99435,1,2
320,304,99620,2,2,B|320:248,2,35
248,304,99990,2,2,B|176:304,1,70
112,304,100359,2,2,B|72:232|120:160,2,140
184,304,101283,6,4,B|328:304,1,140,4|4
288,240,101837,2,4,B|255:364|222:234,1,140
184,184,102392,2,4,B|328:184,1,140,4|4
256,64,103131,5,2
288,128,103316,1,0
256,192,103500,1,2
224,128,103685,1,2
256,264,104055,1,2
256,296,104147,1,0
256,328,104240,1,4
176,208,104609,5,2
256,88,104979,1,0
336,208,105348,1,2
256,208,105718,12,0,106827
56,192,107196,6,0,B|136:192,1,70
128,192,107566,1,2
200,264,107751,2,0,B|120:264,1,70
128,264,108120,1,2
56,336,108305,2,0,B|128:336,1,70
128,336,108674,1,2
200,264,108859,1,0
272,336,109044,1,0
344,264,109229,1,2
344,168,109414,2,0,B|344:96,1,70
168,96,109783,2,2,B|168:168,1,70
344,168,110153,6,0,B|344:240,1,70
256,168,110522,1,2
168,168,110707,2,0,B|168:240,1,70,0|0
256,168,111077,1,2
344,240,111262,2,0,B|344:168,1,70,0|0
256,240,111631,1,2
168,240,111816,2,0,B|168:168,1,70
256,240,112185,1,2
344,168,112370,2,0,B|344:80,1,70
168,168,112740,2,2,B|168:88,1,70
344,240,113109,6,0,B|272:240,2,70,0|0|2
168,240,113664,2,0,B|248:240,2,70,0|0|2
344,312,114218,2,0,B|272:312,2,70,0|0|2
168,312,114772,2,0,B|248:312,2,70,0|0|2
344,240,115327,2,0,B|424:240,1,70
168,240,115696,2,0,B|64:240,1,70,2|2
96,168,116066,6,0,B|176:168,1,70
416,168,116436,2,0,B|328:168,1,70,2|0
96,168,116805,2,0,B|176:168,1,70,0|2
416,168,117175,2,0,B|328:168,1,70
184,96,117544,1,2
328,96,117729,1,0
184,88,117914,1,0
328,88,118099,1,2
184,80,118283,1,0
328,80,118468,1,0
184,72,118653,1,2
328,72,118838,1,2
184,72,119023,6,0,B|184:144,1,70
184,72,119392,1,2
328,144,119577,2,0,B|328:66,1,70
328,144,119946,1,2
184,144,120131,2,0,B|184:72,1,70
184,144,120501,1,2
328,72,120686,2,0,B|328:150,1,70
328,72,121055,1,2
184,72,121240,2,0,B|128:128,1,70
328,72,121610,2,2,B|384:128,1,70
216,200,121979,6,0,B|144:200,1,70
256,72,122349,1,2
296,200,122533,2,0,B|376:200,1,70
256,72,122903,1,2
216,200,123088,2,0,B|144:200,1,70
256,72,123457,1,2
296,200,123642,2,0,B|376:200,1,70
256,72,124012,1,2
216,200,124197,2,0,B|144:200,1,70
296,200,124566,2,2,B|368:200,1,70
304,344,124936,6,0,B|304:274,2,70,0|0|2
136,272,125490,2,0,B|208:272,2,70,0|0|2
208,120,126044,2,0,B|208:190,2,70,0|0|2
376,192,126599,2,0,B|304:192,2,70,0|0|2
304,120,127153,2,0,B|384:120,1,70
208,336,127523,2,0,B|136:336,1,70,2|2
144,192,127892,6,0,B|216:192,1,70
368,192,128262,2,0,B|296:192,1,70,2|0
256,80,128631,2,0,B|256:176,1,70,0|2
256,304,129001,2,0,B|256:216,1,70
256,208,129371,12,0,130849
