osu file format v9

[General]
AudioFilename: 245921_ParagonX9___Chaoz_Airflow.mp3
AudioLeadIn: 0
PreviewTime: -1
Countdown: 0
SampleSet: Normal
StackLeniency: 0.7
Mode: 0
LetterboxInBreaks: 1

[Editor]
DistanceSpacing: 0.8
BeatDivisor: 6
GridSize: 8

[Metadata]
Title:Chaoz Airflow
Artist:ParagonX9
Creator:Fatih120
Version:Hard
Source:
Tags:

[Difficulty]
HPDrainRate:4
CircleSize:5
OverallDifficulty:6
ApproachRate:7
SliderMultiplier:1.4
SliderTickRate:1

[Events]
//Background and Video events
0,0,"mqdefault.jpg"
//Break Periods
//Storyboard Layer 0 (Background)
//Storyboard Layer 1 (Fail)
//Storyboard Layer 2 (Pass)
//Storyboard Layer 3 (Foreground)
//Storyboard Sound Samples
//Background Colour Transformations
3,100,163,162,255

[TimingPoints]
815.475980104664,344.787955407424,4,1,0,100,1,0

[Colours]
Combo1 : 255,255,255
Combo2 : 128,255,0
Combo3 : 0,255,255
Combo4 : 255,0,0
Combo5 : 255,150,0
Combo6 : 128,0,255

[HitObjects]
240,200,758,1,0
512,48,1734,1,0
352,128,2309,1,0
224,192,2769,1,0
224,192,3286,1,0
224,192,3803,1,0
432,112,4493,1,0
272,168,5010,1,0
272,168,5470,1,0
120,232,5987,1,0
248,152,6447,1,0
456,120,7079,1,0
304,192,7596,1,0
136,184,8113,1,0
240,72,8573,1,0
392,144,9090,1,0
144,208,9894,1,0
256,104,10354,1,0
408,192,10871,1,0
248,192,11388,1,0
168,80,11791,1,0
384,208,12538,1,0
224,152,13055,1,0
224,96,13572,1,0
376,192,14147,1,0
232,200,14606,1,0
224,120,15354,1,0
384,112,15813,1,0
224,240,16445,1,0
104,136,16905,1,0
280,136,17422,1,0
312,360,18112,1,0
200,224,18686,1,0
208,72,19146,1,0
344,176,19663,1,0
184,240,20181,1,0
336,56,20928,1,0
248,168,21387,1,0
400,232,21905,1,0
248,176,22422,1,0
104,120,22881,1,0
224,160,23284,1,0
288,72,23628,1,0
232,168,23973,1,0
224,160,24318,1,0
224,160,24720,1,0
224,160,25008,1,0
320,120,25352,1,0
432,128,25697,1,0
360,208,26042,1,0
256,208,26387,1,0
184,144,26674,1,0
192,16,27076,1,0
264,104,27421,1,0
264,216,27766,1,0
152,216,28111,1,0
200,128,28398,1,0
312,160,28743,1,0
296,272,29088,1,0
184,248,29432,1,0
144,144,29777,1,0
248,168,30122,1,0
320,80,30467,1,0
352,192,30812,1,0
352,192,31156,1,0
272,256,31444,1,0
160,264,31788,1,0
120,168,32076,1,0
232,128,32421,1,0
360,144,32823,1,0
360,248,33110,1,0
400,152,33455,1,0
432,64,33742,1,0
320,80,34087,1,0
176,144,34547,1,0
120,240,34892,1,0
232,232,35236,1,0
336,176,35639,1,0
368,72,35983,1,0
264,40,36328,1,0
176,96,36673,1,0
272,88,36960,1,0
288,192,37305,1,0
192,224,37650,1,0
280,176,37937,1,0
400,160,38339,1,0
304,176,38627,1,0
208,104,39029,1,0
312,120,39374,1,0
312,120,39719,1,0
264,208,40006,1,0
152,224,40351,1,0
232,144,40695,1,0
368,120,41098,1,0
208,192,41615,1,0
368,128,42132,1,0
152,224,42879,1,0
288,160,43339,1,0
144,240,43856,1,0
272,176,44316,1,0
40,0,45178,5,0
120,96,45580,1,0
200,152,45867,1,0
312,112,46270,1,0
416,120,46614,1,0
328,168,46902,1,0
208,160,47246,1,0
296,88,47591,1,0
384,160,47936,1,0
288,112,48281,1,0
232,200,48626,1,0
320,120,48970,1,0
376,216,49315,1,0
264,168,49717,1,0
288,64,50062,1,0
280,112,50235,1,0
304,152,50350,1,0
304,152,50522,1,0
304,152,50694,1,0
80,200,51384,1,0
192,176,51729,1,0
288,168,52016,1,0
408,152,52361,1,0
296,136,52706,1,0
176,120,53050,1,0
272,184,53395,1,0
400,160,53797,1,0
232,184,54315,1,0
368,48,54889,1,0
256,160,55406,1,0
368,40,55924,1,0
296,120,56268,1,0
216,176,56556,1,0
216,176,57015,1,0
344,144,57418,1,0
280,160,57590,1,0
192,240,57935,1,0
264,160,58280,1,0
328,72,58624,1,0
344,144,58969,1,0
240,176,59314,1,0
144,112,59659,1,0
248,128,60004,1,0
184,216,60348,1,0
88,224,60636,1,0
192,192,60980,1,0
296,144,61325,1,0
352,48,61670,1,0
248,88,62015,1,0
224,184,62360,1,0
320,136,62704,1,0
216,184,63049,1,0
160,104,63337,1,0
288,112,63739,1,0
344,200,64026,1,0
224,208,64371,1,0
120,160,64716,1,0
240,128,65118,1,0
312,208,65463,1,0
200,184,65808,1,0
304,152,66152,1,0
208,184,66440,1,0
320,152,66784,1,0
432,104,67187,1,0
328,120,67474,1,0
208,136,67876,1,0
224,208,68106,1,0
208,96,68451,1,0
248,112,68566,1,0
360,152,68911,1,0
304,176,69083,1,0
184,152,69428,1,0
240,152,69600,1,0
304,40,70002,1,0
288,136,70290,1,0
272,224,70577,1,0
280,168,70749,1,0
264,240,70979,1,0
288,128,71324,1,0
192,184,71669,1,0
144,136,71899,1,0
280,168,72186,1,0
336,144,72358,1,0
280,168,72761,1,0
280,168,73048,1,0
176,128,73393,1,0
272,136,73680,1,0
376,136,74025,1,0
296,200,74370,1,0
200,160,74715,1,0
288,128,75002,1,0
352,232,75404,1,0
248,200,75749,1,0
112,272,76209,1,0
264,176,76783,1,0
344,112,77875,5,0
264,176,78162,1,0
160,160,78507,1,0
192,64,78795,1,0
272,96,79024,1,0
192,192,79427,1,0
224,152,79599,1,0
344,160,79944,1,0
488,168,80404,1,0
320,136,80921,1,0
232,160,81208,1,0
208,264,81553,1,0
280,192,81840,1,0
352,88,82242,1,0
264,104,82530,1,0
184,192,82875,1,0
240,168,83047,1,0
296,160,83219,1,0
344,152,83392,1,0
344,152,83679,1,0
256,112,83966,1,0
144,104,84311,1,0
136,216,84656,1,0
240,192,85001,1,0
320,184,85231,1,0
280,120,85460,1,0
320,88,85633,1,0
272,88,85805,1,0
192,112,86035,1,0
152,224,86380,1,0
264,200,86725,1,0
344,144,87012,1,0
232,160,87357,1,0
336,112,87702,1,0
280,128,87874,1,0
216,128,88046,1,0
248,72,88276,1,0
296,96,88449,1,0
272,64,88564,1,0
304,120,88793,1,0
272,224,89138,1,0
168,216,89483,1,0
144,112,89828,1,0
240,136,90115,1,0
288,248,90517,1,0
272,208,90690,1,0
296,168,90862,1,0
376,104,91207,1,0
320,104,91379,1,0
264,104,91552,1,0
160,152,91896,1,0
272,136,92241,1,0
312,224,92529,1,0
320,120,92816,1,0
232,208,93218,1,0
208,240,93333,1,0
168,192,93505,1,0
264,112,93908,1,0
232,168,94138,1,0
272,144,94253,1,0
400,160,94655,1,0
312,200,94942,1,0
200,184,95287,1,0
176,96,95574,1,0
288,152,95976,1,0
232,128,96149,1,0
288,152,96321,1,0
288,152,96666,1,0
288,152,96838,1,0
288,152,97011,1,0
416,144,97413,1,0
312,152,97758,1,0
224,120,98045,1,0
296,48,98333,1,0
248,160,98677,1,0
208,216,98907,1,0
160,240,99080,1,0
120,152,99367,1,0
176,168,99539,1,0
232,136,99769,1,0
344,112,100114,1,0
264,168,100401,1,0
160,184,100746,1,0
248,152,101033,1,0
176,176,101263,1,0
328,176,101723,1,0
256,72,102125,1,0
152,32,102470,1,0
248,176,102987,1,0
376,152,103389,1,0
280,96,103734,1,0
152,72,104136,1,0
176,192,104481,1,0
296,216,104883,1,0
400,184,105228,1,0
304,104,106205,5,0
200,136,106550,1,0
152,24,106952,1,0
232,152,107412,1,0
408,152,107929,1,0
184,136,108619,1,0
336,144,109078,1,0
152,136,109653,1,0
312,144,110113,1,0
32,120,110975,1,0
144,128,111320,1,0
264,176,111722,1,0
384,16,112354,1,0
304,72,112641,1,0
240,168,112986,1,0
456,248,113676,1,0
352,192,114020,1,0
240,160,114365,1,0
352,192,115055,1,0
352,64,115457,1,0
400,176,115859,1,0
288,360,116549,1,0
312,256,116894,1,0
272,168,117181,1,0
80,136,119250,2,0,B|416:80,4,326.666666666667
368,224,123847,2,0,B|128:88,2,256.666666666667
64,192,126088,2,0,B|360:112,2,303.333333333333
336,216,128444,2,0,B|112:136|344:96|336:112,6,233.333333333333
176,128,133156,1,0
296,104,133558,1,0
344,184,133846,1,0
256,208,134133,1,0
352,72,135627,5,0
264,128,135972,1,0
152,184,136374,1,0
104,64,138098,1,0
104,64,138443,1,0
216,104,138788,1,0
328,152,139132,1,0
136,32,139822,1,0
176,144,140167,1,0
176,256,140512,1,0
328,80,141259,1,0
296,168,141546,1,0
376,96,141891,1,0
176,168,142523,1,0
176,168,142925,1,0
496,200,143902,1,0
392,192,144247,1,0
288,176,144592,1,0
248,176,145913,1,0
248,176,146258,1,0
248,176,146545,1,0
256,112,148729,1,0
352,160,149074,1,0
376,264,149419,1,0
80,128,150395,1,0
200,128,150798,1,0
400,200,151430,1,0
272,216,151832,1,0
152,208,152177,1,0
424,56,153154,1,0
328,112,153499,1,0
240,160,153786,1,0
168,256,154131,1,0
384,160,154878,1,0
168,112,155567,1,0
400,80,156314,1,0
304,136,156659,1,0
400,136,156946,1,0
272,192,158498,5,0
272,192,158670,1,0
184,168,158958,1,0
240,152,159130,1,0
200,112,159303,1,0
264,112,159475,1,0
320,128,159647,1,0
352,184,159820,1,0
320,232,159992,1,0
264,240,160164,1,0
184,168,160452,1,0
280,192,160739,1,0
320,128,161026,1,0
320,128,161314,1,0
200,112,161716,1,0
200,112,161831,1,0
160,224,162176,1,0
216,248,162348,1,0
320,208,162693,1,0
360,176,162865,1,0
280,88,163210,1,0
184,128,163555,1,0
152,224,163900,1,0
208,224,164072,1,0
304,208,164359,1,0
360,184,164532,1,0
368,48,164934,1,0
352,104,165106,1,0
240,144,165451,1,0
184,152,165624,1,0
88,208,165968,1,0
192,192,166256,1,0
296,176,166601,1,0
344,152,166773,1,0
264,88,167118,1,0
216,104,167233,1,0
120,208,167635,1,0
192,192,167865,1,0
296,176,168210,1,0
296,136,168324,1,0
320,16,168669,1,0
248,80,168957,1,0
200,192,169359,1,0
296,224,169646,1,0
352,120,169991,1,0
248,160,170336,1,0
160,216,170681,1,0
240,296,171025,1,0
312,208,171370,1,0
248,288,171715,1,0
304,200,172060,1,0
216,168,172347,1,0
120,120,172692,1,0
216,112,172979,1,0
352,104,173381,1,0
296,224,173784,1,0
336,120,174128,1,0
288,224,174473,1,0
216,144,174818,1,0
296,240,175220,1,0
224,152,175565,1,0
328,168,175910,1,0
416,176,176197,1,0
360,80,176542,1,0
392,184,176887,1,0
296,144,177174,1,0
176,184,177576,1,0
272,160,177864,1,0
296,288,178266,1,0
336,176,178611,1,0
280,80,178955,1,0
280,80,179243,1,0
88,200,179932,1,0
248,184,180450,1,0
88,248,180967,1,0
224,168,181426,1,0
400,128,182001,1,0
288,192,182403,1,0
200,112,182748,1,0
296,152,183035,1,0
296,152,183265,1,0
296,152,183438,1,0
272,256,183782,1,0
200,192,184070,1,0
296,136,184415,1,0
352,136,184587,1,0
304,136,184759,1,0
296,136,185104,1,0
208,200,185449,1,0
232,96,185794,1,0
240,144,185966,1,0
280,168,186139,1,0
80,264,186828,1,0
184,200,187230,1,0
224,192,187345,1,0
280,184,187518,1,0
392,120,187920,1,0
224,192,188207,1,0
224,192,188552,1,0
224,192,188724,1,0
224,192,188897,1,0
328,144,189242,1,0
256,208,189529,1,0
136,248,189931,1,0
168,200,190104,1,0
216,176,190276,1,0
328,168,190621,1,0
256,208,190966,1,0
136,160,191368,1,0
184,160,191540,1,0
328,168,191713,1,0
336,232,191885,1,0
272,224,192057,1,0
160,208,192402,1,0
272,240,192747,1,0
232,144,193092,1,0
328,96,193437,1,0
432,88,193724,1,0
392,192,194069,1,0
296,232,194413,1,0
184,168,194816,1,0
120,96,195103,1,0
224,112,195448,1,0
328,88,195793,1,0
256,160,196137,1,0
176,224,196425,1,0
288,184,196827,1,0
368,152,197114,1,0
272,120,197402,1,0
152,136,197804,1,0
168,232,198091,1,0
264,168,198436,1,0
376,160,198781,1,0
328,64,199126,1,0
232,88,199413,1,0
152,176,199758,1,0
280,144,200160,1,0
400,168,200505,1,0
392,48,200849,1,0
280,88,201194,1,0
400,64,201596,1,0
400,64,201884,1,0
400,64,202458,1,0
416,72,202918,1,0
416,72,203378,1,0
416,72,203838,1,0
208,184,204585,5,0
360,112,205102,1,0
224,216,205619,1,0
104,88,206136,1,0
216,208,206653,1,0
400,104,207285,1,0
248,184,207803,1,0
152,56,208320,1,0
248,184,208780,1,0
120,272,209239,1,0
368,176,210044,1,0
280,72,210446,1,0
192,224,211021,1,0
376,208,211595,1,0
280,64,212113,1,0
128,224,212802,1,0
320,240,213377,1,0
336,96,213836,1,0
304,144,214009,1,0
176,168,214411,1,0
288,256,214813,1,0
272,96,215273,1,0
352,208,215733,1,0
240,136,216135,1,0
168,272,216595,1,0
272,144,217112,1,0
184,256,217572,1,0
384,136,218319,1,0
256,200,218778,1,0
168,48,219296,1,0
192,232,219870,1,0
336,208,220330,1,0
336,208,221020,1,0
160,192,221537,1,0
328,120,222111,1,0
256,264,222629,1,0
280,112,223088,1,0
152,296,223778,1,0
288,216,224295,1,0
408,88,224812,1,0
320,144,225157,1,0
216,184,225502,1,0
120,128,225847,1,0
248,144,226249,1,0
320,64,226594,1,0
336,160,226881,1,0
224,184,227226,1,0
248,144,227571,1,0
248,144,227973,1,0
328,96,228260,1,0
224,160,228605,1,0
320,96,228950,1,0
232,160,229294,1,0
312,96,229639,1,0
176,312,230444,1,0
240,240,230731,1,0
312,168,231076,1,0
288,72,231363,1,0
184,104,231708,1,0
136,200,232053,1,0
240,160,232398,1,0
352,152,232742,1,0
264,80,233087,1,0
240,192,233432,1,0
144,144,233777,1,0
240,208,234121,1,0
240,72,234524,1,0
192,160,234811,1,0
72,216,235213,1,0
176,192,235558,1,0
280,176,235903,1,0
192,192,236190,1,0
248,96,236535,1,0
336,152,236880,1,0
344,272,237225,1,0
240,224,237569,1,0
312,136,237914,1,0
400,184,238201,1,0
400,184,238546,1,0
400,184,238891,1,0
400,184,239236,1,0
288,184,239581,1,0
472,72,240270,1,0
384,120,240558,1,0
280,168,240902,1,0
400,112,241305,1,0
320,136,241592,1,0
232,136,241879,1,0
80,144,242339,1,0
208,248,242856,1,0
344,224,243316,1,0
296,104,243718,1,0
192,128,244063,1,0
120,216,244408,1,0
208,176,244695,1,0
336,208,245097,1,0
416,24,245729,1,0
336,72,246017,1,0
216,128,246419,1,0
144,240,246821,1,0
384,200,247568,1,0
184,224,248200,1,0
256,128,248545,1,0
144,176,248947,1,0
256,192,249350,12,0,252050
