osu file format v6

[General]
AudioFilename: PARADOX - Arkanoid (Nero 7).mp3
AudioLeadIn: 1996
PreviewTime: 30997
Countdown: 1
SampleSet: Soft
StackLeniency: 0.7
Mode: 0
LetterboxInBreaks: 1

[Editor]
Bookmarks: 11797
DistanceSpacing: 1.20000004768372
BeatDivisor: 4
GridSize: 8

[Metadata]
Title:Nero 7
Artist:ParaDoX
Creator:Blue Dragon
Version:Normal
Source:Arkanoid
Tags:keygen chiptune

[Difficulty]
HPDrainRate:4
CircleSize:4
OverallDifficulty:4
SliderMultiplier:1.1
SliderTickRate:1

[Events]
//Background and Video events
0,0,"Tech_Cthulhu_Wallpaper_2_0_by_NilNilNil.jpg"
//Break Periods
//Storyboard Layer 0 (Background)
//Storyboard Layer 1 (Fail)
//Storyboard Layer 2 (Pass)
//Storyboard Layer 3 (Foreground)
//Storyboard Sound Samples
//Background Colour Transformations
3,100,0,0,0

[TimingPoints]
287,480,4,2,0,50,1,0

[Colours]
Combo1 : 167,167,167
Combo2 : 22,40,169
Combo3 : 132,40,17
SliderBorder : 172,172,172

[HitObjects]
256,80,287,2,0,B|256:216,1,110,0|8
200,312,1247,2,0,B|336:312,1,110,2|8
376,192,2207,5,0
376,64,2687,1,8
256,128,3167,2,2,B|256:208,2,55,2|0|8
136,64,4127,5,0
40,152,4607,1,2
136,248,5087,1,0
240,336,5567,1,8
344,248,6047,2,0,B|344:176,6,55,2|0|8|0|2|0|8
256,152,7967,5,4
192,40,8447,1,4
320,40,8927,1,4
256,152,9407,5,2
256,152,9887,1,8
256,232,11807,5,4
192,344,12287,1,4
320,344,12767,1,4
256,232,13247,5,2
256,232,13727,1,8
432,192,15647,6,0,B|432:64,1,110,0|8
296,88,16607,1,0
296,88,17087,1,8
296,216,17567,6,0,B|168:216,1,110,0|8
56,216,18527,2,0,B|56:152,2,55,0|0|8
128,328,19487,5,0
256,328,19967,1,2
256,200,20447,1,0
384,200,20927,1,8
384,72,21407,6,0,B|264:72,2,110,2|0|2
384,136,22607,1,0
384,136,22847,1,8
256,176,23327,5,4
256,176,23807,1,4
256,176,24287,1,4
144,248,24767,5,2
144,312,25007,2,0,B|144:352,2,27.5,0|0|8
352,304,27167,5,4
264,200,27647,1,4
176,304,28127,1,4
88,200,28607,1,2
176,96,29087,1,8
136,304,31007,5,0
264,304,31487,1,8
400,304,31967,1,0
400,304,32207,1,0
400,304,32447,1,8
328,192,32927,5,0
328,64,33407,1,8
208,128,33887,1,0
208,128,34127,1,0
208,128,34367,1,8
272,240,34847,5,0
144,240,35327,1,8
208,360,35807,1,0
208,360,36047,1,0
208,360,36287,1,8
256,240,36767,6,2,B|312:296,1,55,2|0
360,280,37247,2,2,B|416:224,1,55,2|0
464,240,37727,2,2,B|520:296,2,55,2|2|10
256,64,38687,5,4
256,192,39167,1,4
256,320,39647,1,4
400,192,40127,5,2
400,128,40367,2,2,B|400:80,2,27.5,2|2|8
280,72,41087,5,8
144,72,41567,1,0
216,184,42047,1,8
128,344,42527,5,4
256,344,43007,1,4
384,344,43487,1,4
320,232,43967,1,2
256,232,44207,2,0,B|256:192,2,27.5,0|0|8
256,40,44927,5,8
256,176,45407,1,0
256,176,45647,1,0
256,176,45887,1,8
136,112,46367,5,0
136,112,46607,1,0
136,112,46847,1,2
136,240,47327,2,0,B|136:304,2,55,2|0|2
264,240,48287,5,2
328,240,48527,1,0
392,240,48767,1,2
328,128,49247,1,8
328,128,49487,1,8
328,128,49727,1,4
256,16,50207,6,0,B|176:16,1,55
160,72,50687,1,8
160,72,50927,1,0
200,128,51167,2,0,B|280:128,1,55,0|0
296,184,51647,1,2
320,312,52127,5,2
320,312,52367,1,2
320,312,52607,1,2
320,312,52847,1,2
256,312,53087,1,2
256,312,53327,1,2
256,312,53567,1,4
152,232,54047,5,4
256,152,54527,1,4
152,72,55007,1,4
48,152,55487,1,2
48,152,55727,2,0,B|48:192,2,27.5,0|0|2
136,248,56447,5,8
256,248,56927,1,0
256,184,57167,1,0
256,248,57407,1,8
256,208,57887,12,4,59807
104,240,60287,5,8
232,240,60767,1,0
296,240,61007,1,0
360,240,61247,1,8
256,40,61727,5,4
