osu file format v6

[General]
AudioFilename: PARADOX - Alcatraz (Adobe Photoshop CS2).mp3
AudioLeadIn: 3000
PreviewTime: 15474
Countdown: 1
SampleSet: Soft
StackLeniency: 0.7
Mode: 0
LetterboxInBreaks: 1

[Editor]
DistanceSpacing: 1.10000002384186
BeatDivisor: 4
GridSize: 8

[Metadata]
Title:Alcatraz
Artist:ParaDoX
Creator:Blue Dragon
Version:Difficult
Source:
Tags:keygen chiptune

[Difficulty]
HPDrainRate:7
CircleSize:4
OverallDifficulty:8
SliderMultiplier:1.9
SliderTickRate:2

[Events]
//Background and Video events
0,0,"AlcatrazBG.jpg"
//Break Periods
2,30812,38742
//Storyboard Layer 0 (Background)
//Storyboard Layer 1 (Fail)
//Storyboard Layer 2 (Pass)
//Storyboard Layer 3 (Foreground)
//Storyboard Sound Samples
//Background Colour Transformations
3,100,0,0,0

[TimingPoints]
132,480,4,2,0,50,1,0
18586,-100,4,2,0,0,0,0
19423,-100,4,2,0,50,0,0
26246,-100,4,2,0,0,0,0
27084,-100,4,2,0,50,0,0
57214,-100,4,2,0,0,0,0

[Colours]
Combo1 : 0,100,121
Combo2 : 192,192,192
Combo3 : 62,183,255
SliderBorder : 172,172,172

[HitObjects]
392,96,372,1,0
392,200,612,2,0,B|392:296,1,95,2|0
288,304,1092,1,4
288,200,1332,1,0
184,200,1572,1,0
184,96,1812,1,2
80,96,2052,1,0
80,200,2292,2,4,B|80:304,2,95,4|0|0
184,200,3012,1,4
256,304,4212,5,0
256,304,4332,1,0
256,304,4452,1,8
256,200,4692,1,0
256,96,4932,1,4
336,32,5172,2,0,B|416:112,1,95
408,200,5652,1,2
408,304,5892,1,0
320,248,6132,1,0
216,248,6372,2,0,B|112:248,1,95,2|0
96,128,6852,2,0,B|96:248,1,95,8|0
96,352,7332,2,0,B|96:232,1,95,8|4
176,320,7812,5,0
280,320,8052,1,0
384,320,8292,1,2
480,320,8532,2,0,B|344:320,1,95,0|8
384,216,9012,1,0
384,112,9252,1,0
488,112,9492,1,8
488,16,9732,2,0,B|488:128,1,95
384,112,10212,1,8
280,112,10452,1,0
280,216,10692,1,4
160,288,11892,5,0
160,288,12012,1,0
160,288,12132,2,8,B|160:176,1,95,8|0
208,96,12612,2,0,B|208:216,1,95,2|0
208,191,13092,1,0
256,288,13332,2,0,B|256:176,1,95,2|0
296,96,13812,1,0
400,96,14052,2,2,B|504:96,1,95
440,184,14532,1,2
440,288,14772,1,0
440,184,15012,1,4
440,288,15252,1,0
96,288,15492,5,0
96,288,15612,1,0
96,288,15732,1,0
96,288,15852,1,0
96,288,15972,2,0,B|24:360,1,95,2|0
96,288,16452,2,4,B|176:208,1,95,4|0
240,288,16932,1,0
319,220,17172,2,4,B|397:298,1,95,4|0
319,220,17652,1,0
320,120,17892,1,4
240,48,18132,1,0
160,120,18372,1,4
256,208,18492,12,0,19332
256,288,19572,5,0
256,288,19692,1,0
256,288,19812,2,8,B|328:280|312:192,1,95,8|0
208,216,20292,2,8,B|215:149|269:162,1,95,2|0
376,152,20772,1,0
472,104,21012,2,0,B|472:224,1,95,2|0
472,304,21492,1,0
368,304,21732,1,2
424,216,21972,1,0
320,216,22212,1,8
264,304,22452,1,0
208,216,22692,1,4
152,304,22932,1,0
80,232,23172,5,0
80,224,23292,1,0
80,216,23412,1,0
80,208,23532,1,0
80,200,23652,2,0,B|72:128|168:136,1,95,2|0
227,136,24132,2,8,B|123:136,1,95,8|0
128,32,24612,1,0
232,32,24852,1,2
336,32,25092,1,0
336,136,25332,1,0
440,136,25572,1,2
440,240,25812,1,0
336,240,26052,1,4
256,208,26172,12,0,27012
256,40,27252,5,0
256,40,27372,1,0
256,40,27492,2,0,B|256:144,1,95,2|0
152,136,27972,1,8
152,240,28212,1,0
256,240,28452,1,0
352,240,28692,2,8,B|248:240,1,95,8|0
256,136,29172,1,0
360,136,29412,1,0
464,136,29652,1,2
464,240,29892,1,8
464,240,30132,1,0
464,344,30372,1,8
464,344,30612,1,0
160,304,39492,6,0,B|280:304,1,95,2|0
256,200,39972,1,0
256,304,40212,2,0,B|376:304,1,95,2|0
456,304,40692,1,0
352,304,40932,2,0,B|232:304,1,95,2|0
256,200,41412,1,4
80,192,42612,5,0
80,192,42732,1,0
80,192,42852,2,0,B|64:120|144:128,1,95,8|0
232,128,43332,2,0,B|352:128,1,95,4|0
432,128,43812,1,0
328,128,44052,2,0,B|208:128,1,95,4|0
232,232,44532,1,0
336,232,44772,2,0,B|336:344,1,95,2|0
232,328,45252,1,0
336,328,45492,1,2
232,328,45732,1,0
336,328,45972,1,4
440,328,46212,5,0
440,328,46332,1,0
440,328,46452,1,0
440,328,46572,1,0
440,328,46692,2,4,B|440:192,1,95,2|0
440,128,47172,1,4
336,128,47412,1,0
232,128,47652,1,0
128,128,47892,1,4
24,128,48132,1,0
128,128,48372,1,0
232,128,48612,1,4
336,128,48852,1,0
440,128,49092,1,4
96,304,50292,5,0
96,304,50412,1,0
96,304,50532,2,8,B|208:304,1,95,2|0
192,208,51012,2,0,B|192:312,1,95,8|0
288,304,51492,1,0
288,304,51732,2,8,B|184:304,1,95,8|0
192,304,52212,2,0,B|112:224,1,95
192,304,52692,2,0,B|288:208,1,95,2|0
192,304,53172,2,0,B|192:192,2,95,0|0|4
256,32,54132,5,0
256,32,54252,1,0
256,32,54372,2,8,B|384:32,1,95,8|0
352,136,54852,2,8,B|224:136,1,95,4|0
256,240,55332,2,0,B|376:240,1,95,0|4
352,344,55812,2,0,B|240:344,1,95
152,344,56292,5,0
152,240,56532,1,0
152,136,56772,1,4
256,208,57252,12,0,59652
