osu file format v14

[General]
AudioFilename: End of the World.mp3
AudioLeadIn: 0
PreviewTime: -1
Countdown: 1
SampleSet: None
StackLeniency: 1
Mode: 2
LetterboxInBreaks: 1
WidescreenStoryboard: 1

[Editor]
DistanceSpacing: 2
BeatDivisor: 4
GridSize: 8
TimelineZoom: 1.5

[Metadata]
Title:End of the World
TitleUnicode:End of the World
Artist:Papiyon
ArtistUnicode:Papiyon
Creator:Leotic
Version:Dog
Source:
Tags:Leotic
BeatmapID:709058
BeatmapSetID:318416

[Difficulty]
HPDrainRate:5
CircleSize:4
OverallDifficulty:5
ApproachRate:9
SliderMultiplier:1.3
SliderTickRate:1

[Events]
//Background and Video events
//Break Periods
//Storyboard Layer 0 (Background)
//Storyboard Layer 1 (Fail)
//Storyboard Layer 2 (Pass)
//Storyboard Layer 3 (Foreground)
//Storyboard Sound Samples

[TimingPoints]
0,322.061191626409,4,2,0,100,1,0

[HitObjects]
160,192,2189,5,0,0:0:0:0:
296,200,2432,1,0,0:0:0:0:
232,128,2675,1,0,0:0:0:0:
424,152,3243,1,0,0:0:0:0:
304,136,3486,2,0,L|200:128,1,97.5
40,112,3972,1,0,0:0:0:0:
224,72,4216,1,0,0:0:0:0:
392,112,4540,1,0,0:0:0:0:
328,256,4783,1,0,0:0:0:0:
136,232,4945,1,0,0:0:0:0:
240,232,5513,5,0,0:0:0:0:
480,224,5756,1,0,0:0:0:0:
176,160,6081,1,0,0:0:0:0:
128,160,6243,1,0,0:0:0:0:
96,280,6486,1,0,0:0:0:0:
440,184,6648,1,0,0:0:0:0:
432,96,6891,1,0,0:0:0:0:
296,320,7054,1,0,0:0:0:0:
120,272,7297,1,0,0:0:0:0:
160,136,7540,1,0,0:0:0:0:
368,208,7783,1,0,0:0:0:0:
184,320,8027,1,0,0:0:0:0:
72,240,8189,1,0,0:0:0:0:
168,200,8373,1,0,0:0:0:0:
224,200,8534,1,0,0:0:0:0:
288,176,8695,1,0,0:0:0:0:
376,144,8856,1,0,0:0:0:0:
168,96,9017,1,0,0:0:0:0:
392,72,9178,1,0,0:0:0:0:
224,104,9339,1,0,0:0:0:0:
320,96,9500,1,0,0:0:0:0:
192,56,9661,1,0,0:0:0:0:
288,56,9742,1,0,0:0:0:0:
216,168,9903,1,0,0:0:0:0:
320,152,10064,1,0,0:0:0:0:
360,184,10144,2,0,L|170:245,1,195
328,160,10783,1,0,0:0:0:0:
344,136,10864,1,0,0:0:0:0:
384,128,10945,1,0,0:0:0:0:
432,128,11108,1,0,0:0:0:0:
432,152,11189,1,0,0:0:0:0:
464,248,11351,1,0,0:0:0:0:
472,272,11513,1,0,0:0:0:0:
416,312,11675,1,0,0:0:0:0:
352,320,11756,1,0,0:0:0:0:
184,336,11999,1,0,0:0:0:0:
352,256,12162,1,0,0:0:0:0:
160,320,12405,5,0,0:0:0:0:
120,264,12567,1,0,0:0:0:0:
112,248,12729,1,0,0:0:0:0:
213,204,13054,1,0,0:0:0:0:
151,151,13216,1,0,0:0:0:0:
207,127,13378,1,0,0:0:0:0:
136,64,13540,1,0,0:0:0:0:
212,57,13621,1,0,0:0:0:0:
274,62,13783,1,0,0:0:0:0:
385,110,13864,1,0,0:0:0:0:
295,156,14108,1,0,0:0:0:0:
320,187,14270,1,0,0:0:0:0:
391,221,14432,1,0,0:0:0:0:
331,283,14594,1,0,0:0:0:0:
446,305,14756,1,0,0:0:0:0:
322,239,14837,1,0,0:0:0:0:
203,224,14999,1,0,0:0:0:0:
114,277,15081,1,0,0:0:0:0:
159,147,15243,1,0,0:0:0:0:
342,106,15405,1,0,0:0:0:0:
348,47,15567,1,0,0:0:0:0:
215,107,15810,1,0,0:0:0:0:
150,44,16054,1,0,0:0:0:0:
278,110,16183,1,0,0:0:0:0:
171,173,16297,1,0,0:0:0:0:
193,208,16425,1,0,0:0:0:0:
167,238,16540,1,0,0:0:0:0:
196,258,16586,1,0,0:0:0:0:
168,288,16783,1,0,0:0:0:0:
188,315,17027,1,0,0:0:0:0:
176,322,17310,1,0,0:0:0:0:
175,192,17552,1,0,0:0:0:0:
260,157,17918,1,0,0:0:0:0:
336,232,18162,1,0,0:0:0:0:
264,312,18405,1,0,0:0:0:0:
157,272,18567,1,0,0:0:0:0:
295,186,18810,1,0,0:0:0:0:
324,134,18972,1,0,0:0:0:0:
367,218,19135,1,0,0:0:0:0:
337,223,19323,1,0,0:0:0:0:
289,192,19484,1,0,0:0:0:0:
300,248,19726,1,0,0:0:0:0:
410,92,20289,5,0,0:0:0:0:
246,175,20450,1,0,0:0:0:0:
201,208,20531,1,0,0:0:0:0:
284,300,20692,1,0,0:0:0:0:
176,232,20756,1,0,0:0:0:0:
80,96,20918,1,0,0:0:0:0:
187,75,21256,1,0,0:0:0:0:
270,125,21336,1,0,0:0:0:0:
190,165,21405,1,0,0:0:0:0:
288,176,21497,1,0,0:0:0:0:
212,230,21648,1,0,0:0:0:0:
288,246,21739,1,0,0:0:0:0:
206,268,21819,1,0,0:0:0:0:
237,157,21972,1,0,0:0:0:0:
312,192,22135,1,0,0:0:0:0:
176,184,22378,1,0,0:0:0:0:
412,188,22705,1,0,0:0:0:0:
475,133,22783,1,0,0:0:0:0:
496,85,22866,1,0,0:0:0:0:
158,104,23108,1,0,0:0:0:0:
312,161,23349,1,0,0:0:0:0:
170,210,23432,1,0,0:0:0:0:
293,212,23510,1,0,0:0:0:0:
443,267,23756,1,0,0:0:0:0:
406,227,23993,1,0,0:0:0:0:
445,191,24074,1,0,0:0:0:0:
409,153,24081,1,0,0:0:0:0:
450,122,24154,1,0,0:0:0:0:
411,88,24235,1,0,0:0:0:0:
439,77,24324,1,0,0:0:0:0:
396,59,24396,1,0,0:0:0:0:
433,47,24557,1,0,0:0:0:0:
433,150,24798,1,0,0:0:0:0:
413,183,25054,1,0,0:0:0:0:
424,228,25216,1,0,0:0:0:0:
354,292,25540,1,0,0:0:0:0:
307,276,25783,1,0,0:0:0:0:
326,231,26027,1,0,0:0:0:0:
346,195,26270,1,0,0:0:0:0:
363,225,26432,1,0,0:0:0:0:
309,194,26489,1,0,0:0:0:0:
369,145,26570,1,0,0:0:0:0:
305,120,26650,1,0,0:0:0:0:
343,264,26675,1,0,0:0:0:0:
364,90,26731,1,0,0:0:0:0:
312,54,26811,1,0,0:0:0:0:
361,43,26892,1,0,0:0:0:0:
90,182,27214,1,0,0:0:0:0:
92,61,27243,1,0,0:0:0:0:
94,254,27486,1,0,0:0:0:0:
185,227,27648,1,0,0:0:0:0:
287,328,27810,1,0,0:0:0:0:
166,330,28054,1,0,0:0:0:0:
113,288,28297,1,0,0:0:0:0:
164,253,28540,1,0,0:0:0:0:
220,217,28783,1,0,0:0:0:0:
285,176,29027,1,0,0:0:0:0:
354,142,29189,1,0,0:0:0:0:
311,281,29351,1,0,0:0:0:0:
390,232,29594,1,0,0:0:0:0:
128,246,29837,1,0,0:0:0:0:
307,156,30081,1,0,0:0:0:0:
245,281,30324,1,0,0:0:0:0:
401,191,30567,1,0,0:0:0:0:
239,197,30729,1,0,0:0:0:0:
174,130,30891,1,0,0:0:0:0:
444,260,31135,1,0,0:0:0:0:
282,90,31540,1,0,0:0:0:0:
262,238,31864,1,0,0:0:0:0:
383,172,32108,1,0,0:0:0:0:
236,128,32351,1,0,0:0:0:0:
176,152,32513,1,0,0:0:0:0:
120,240,32756,1,0,0:0:0:0:
176,232,32930,1,0,0:0:0:0:
280,240,33413,1,0,0:0:0:0:
360,232,33655,1,0,0:0:0:0:
456,216,34057,1,0,0:0:0:0:
392,152,34380,1,0,0:0:0:0:
240,136,34702,1,0,0:0:0:0:
99,134,34943,1,0,0:0:0:0:
166,270,35185,1,0,0:0:0:0:
343,194,35587,1,0,0:0:0:0:
336,280,35909,1,0,0:0:0:0:
448,240,36151,1,0,0:0:0:0:
252,264,36553,1,0,0:0:0:0:
132,179,36795,1,0,0:0:0:0:
352,288,36956,1,0,0:0:0:0:
373,176,37198,1,0,0:0:0:0:
213,107,37520,1,0,0:0:0:0:
386,112,37842,1,0,0:0:0:0:
274,209,38003,1,0,0:0:0:0:
357,194,38244,1,0,0:0:0:0:
453,187,38486,1,0,0:0:0:0:
484,165,38727,1,0,0:0:0:0:
287,148,38808,1,0,0:0:0:0:
389,239,38969,1,0,0:0:0:0:
446,201,39210,1,0,0:0:0:0:
332,226,39452,1,0,0:0:0:0:
385,200,39533,1,0,0:0:0:0:
306,198,39774,1,0,0:0:0:0:
281,248,40096,5,0,0:0:0:0:
431,133,40338,1,0,0:0:0:0:
362,224,40499,1,0,0:0:0:0:
362,141,40660,1,0,0:0:0:0:
250,151,40821,1,0,0:0:0:0:
237,210,41062,1,0,0:0:0:0:
340,104,41384,1,0,0:0:0:0:
155,163,41706,1,0,0:0:0:0:
322,201,41948,1,0,0:0:0:0:
192,76,42109,1,0,0:0:0:0:
354,133,42351,1,0,0:0:0:0:
278,256,42592,1,0,0:0:0:0:
288,212,42834,1,0,0:0:0:0:
384,224,43075,1,0,0:0:0:0:
110,229,43236,1,0,0:0:0:0:
112,156,43397,1,0,0:0:0:0:
114,91,43719,1,0,0:0:0:0:
195,246,43961,1,0,0:0:0:0:
300,281,44283,1,0,0:0:0:0:
417,226,44444,1,0,0:0:0:0:
426,131,44685,1,0,0:0:0:0:
449,74,44927,1,0,0:0:0:0:
293,185,45169,1,0,0:0:0:0:
178,142,45491,1,0,0:0:0:0:
95,131,45652,1,0,0:0:0:0:
357,117,45813,1,0,0:0:0:0:
222,249,45974,1,0,0:0:0:0:
120,96,46215,1,0,0:0:0:0:
103,285,46457,1,0,0:0:0:0:
296,264,46779,1,0,0:0:0:0:
213,242,46940,1,0,0:0:0:0:
273,191,47101,1,0,0:0:0:0:
320,120,47262,1,0,0:0:0:0:
152,240,47423,1,0,0:0:0:0:
387,236,47665,1,0,0:0:0:0:
183,157,48148,1,0,0:0:0:0:
294,199,48309,1,0,0:0:0:0:
220,282,48550,1,0,0:0:0:0:
432,168,48792,1,0,0:0:0:0:
342,299,48953,1,0,0:0:0:0:
142,246,49275,1,0,0:0:0:0:
316,238,49436,1,0,0:0:0:0:
195,302,49677,1,0,0:0:0:0:
303,324,49838,1,0,0:0:0:0:
263,192,50000,1,0,0:0:0:0:
289,162,50241,1,0,0:0:0:0:
162,271,50644,1,0,0:0:0:0:
380,269,50885,1,0,0:0:0:0:
179,217,51127,1,0,0:0:0:0:
245,214,51368,1,0,0:3:0:0:
256,272,51529,1,0,0:0:0:0:
352,176,51771,6,0,P|96:120|-160:144,1,520
104,232,53301,1,0,0:0:0:0:
288,248,53623,1,0,0:0:0:0:
152,152,54025,1,0,0:0:0:0:
200,288,54347,1,0,0:0:0:0:
354,220,54669,1,0,0:0:0:0:
56,192,54991,1,0,0:0:0:0:
371,147,55314,1,0,0:0:0:0:
240,240,55636,1,0,0:0:0:0:
232,104,55958,1,0,0:0:0:0:
400,168,56199,1,0,0:0:0:0:
104,240,56521,1,0,0:0:0:0:
96,96,56843,1,0,0:0:0:0:
352,280,57165,1,0,0:0:0:0:
392,136,57487,1,0,0:0:0:0:
176,224,57809,1,0,0:0:0:0:
168,304,58132,1,0,0:0:0:0:
424,288,58373,1,0,0:0:0:0:
128,184,58695,1,0,0:0:0:0:
320,72,59017,1,0,0:0:0:0:
344,240,59339,1,0,0:0:0:0:
164,256,59661,1,0,0:0:0:0:
441,223,59983,1,0,0:0:0:0:
159,220,60305,1,0,0:0:0:0:
51,186,60628,1,0,0:0:0:0:
350,167,60950,1,0,0:0:0:0:
221,305,61272,1,0,0:0:0:0:
356,257,61594,1,0,0:0:0:0:
205,163,61916,1,0,0:0:0:0:
264,262,62238,1,0,0:0:0:0:
395,241,62479,1,0,0:0:0:0:
325,187,62801,1,0,0:0:0:0:
260,211,63123,1,0,0:0:0:0:
307,263,63526,1,0,0:0:0:0:
323,147,63848,1,0,0:0:0:0:
185,216,64009,1,0,0:0:0:0:
221,139,64412,1,0,0:0:0:0:
396,85,64734,1,0,0:0:0:0:
432,71,65056,1,0,0:0:0:0:
304,118,65378,1,0,0:0:0:0:
211,117,65700,1,0,0:0:0:0:
343,201,66022,1,0,0:0:0:0:
140,212,66344,1,0,0:0:0:0:
342,279,66666,1,0,0:0:0:0:
177,301,66988,1,0,0:0:0:0:
353,133,67310,1,0,0:0:0:0:
194,174,67632,1,0,0:0:0:0:
232,243,67954,1,0,0:0:0:0:
305,286,68357,1,0,0:0:0:0:
377,252,68599,1,0,0:0:0:0:
454,206,68921,1,0,0:0:0:0:
89,175,69323,1,0,0:0:0:0:
161,206,69565,1,0,0:0:0:0:
81,144,69887,1,0,0:0:0:0:
296,248,70209,1,0,0:0:0:0:
130,260,70450,1,0,0:0:0:0:
167,184,70853,1,0,0:0:0:0:
145,114,71175,1,0,0:0:0:0:
80,226,71497,1,0,0:0:0:0:
335,200,71819,1,0,0:0:0:0:
382,150,72141,1,0,0:0:0:0:
431,117,72222,1,0,0:0:0:0:
386,88,72383,1,0,0:0:0:0:
434,197,72463,1,0,0:0:0:0:
422,61,72544,1,0,0:0:0:0:
385,40,72624,1,0,0:0:0:0:
428,24,72785,1,0,0:0:0:0:
389,216,72946,1,0,0:0:0:0:
296,248,73107,1,0,0:0:0:0:
279,125,73349,1,0,0:0:0:0:
206,195,73510,1,0,0:0:0:0:
129,248,73752,1,0,0:0:0:0:
319,206,74074,1,0,0:0:0:0:
209,93,74396,1,0,0:0:0:0:
173,311,74557,1,0,0:0:0:0:
136,268,74718,1,0,0:0:0:0:
191,236,74798,1,0,0:0:0:0:
142,213,74879,1,0,0:0:0:0:
191,183,74959,1,0,0:0:0:0:
138,171,75040,1,0,0:0:0:0:
188,146,75120,1,0,0:0:0:0:
136,151,75201,1,0,0:0:0:0:
176,115,75281,1,0,0:0:0:0:
135,109,75362,1,0,0:0:0:0:
343,192,75603,1,0,0:0:0:0:
407,141,75845,1,0,0:0:0:0:
471,110,76006,1,0,0:0:0:0:
381,245,76247,1,0,0:0:0:0:
267,216,76409,1,0,0:0:0:0:
160,172,76570,1,0,0:0:0:0:
68,141,76731,1,0,0:0:0:0:
235,101,77053,1,0,0:0:0:0:
148,151,77455,1,0,0:0:0:0:
148,151,77536,1,0,0:0:0:0:
148,151,77697,1,0,0:0:0:0:
148,151,77777,1,0,0:0:0:0:
148,151,77858,1,0,0:0:0:0:
148,151,77938,1,0,0:0:0:0:
148,151,78180,1,0,0:0:0:0:
148,151,78421,1,0,0:0:0:0:
280,224,78582,1,0,0:0:0:0:
148,151,78663,1,0,0:0:0:0:
272,224,78904,1,0,0:0:0:0:
148,151,79066,1,0,0:0:0:0:
272,224,79227,1,0,0:0:0:0:
148,151,79388,1,0,0:0:0:0:
272,224,79549,1,0,0:0:0:0:
148,151,79629,1,0,0:0:0:0:
148,151,79951,1,0,0:0:0:0:
148,151,80112,1,0,0:0:0:0:
148,151,80193,1,0,0:0:0:0:
85,251,80434,1,0,0:0:0:0:
124,239,80515,1,0,0:0:0:0:
181,216,80595,1,0,0:0:0:0:
241,198,80676,1,0,0:0:0:0:
273,170,80837,1,0,0:0:0:0:
120,189,80917,1,0,0:0:0:0:
156,245,81159,1,0,0:0:0:0:
330,216,81239,1,0,0:0:0:0:
196,114,81481,1,0,0:0:0:0:
243,106,81561,1,0,0:0:0:0:
327,114,81723,1,0,0:0:0:0:
