osu file format v5

[General]
AudioFilename: To Be Loved.mp3
AudioLeadIn: 0
PreviewTime: -1
Countdown: 1
SampleSet: Normal
StackLeniency: 0.7
Mode: 0
LetterboxInBreaks: 1

[Metadata]
Title:To Be Loved
Artist:Papa Roach
Creator:luke0719
Version:Normal
Source:WWE Raw Zone
Tags:

[Difficulty]
HPDrainRate:5
CircleSize:5
OverallDifficulty:5
SliderMultiplier:1.4
SliderTickRate:2

[Events]
//Background and Video events
0,0,"john_cena_randy_orton_1280x1024.jpg"
//Break Periods
2,25045,29258
2,57860,58024
2,80051,90202
2,120211,129893
2,150057,159583
//Storyboard Layer 0 (Background)
//Storyboard Layer 1 (Failing)
//Storyboard Layer 2 (Passing)
//Storyboard Layer 3 (Foreground)
//Storyboard Sound Samples
//Background Colour Transformations
3,100,163,162,255

[TimingPoints]
464,312.467451307156,4,1,0,100,1

[Colours]
Combo1 : 255,255,255
Combo2 : 0,255,0
Combo3 : 5,5,240
Combo4 : 240,5,5
Combo5 : 255,150,0

[HitObjects]
257,188,5775,1,0
332,186,6088,1,0
446,183,6557,2,0,B|421:125|393:99|358:84|310:79|268:80|222:87|186:110|50:256,1,490
308,182,8275,5,0
232,183,8588,1,0
64,181,9056,2,0,B|93:123|129:95|178:82|218:75|263:73|316:84|468:246,1,490
259,165,10775,5,0
259,241,11087,1,0
372,242,11556,2,0,B|337:294|309:324|269:343|251:319|202:299|41:44,1,490
154,65,12962,1,0
248,125,13275,1,0
331,199,13587,1,0
424,261,13900,1,0
468,158,14212,2,0,B|396:110,1,70
354,118,14525,2,0,B|275:118,1,70
228,119,14837,1,4
123,42,15462,5,0
86,109,15774,1,0
48,177,16087,1,0
97,234,16399,2,0,B|146:267|187:288|237:294|291:282|496:176,1,420
319,31,17962,5,0
410,94,18274,1,0
306,137,18587,1,0
215,71,18899,1,0
103,78,19212,1,0
67,184,19524,1,0
174,215,19836,1,0
387,282,20461,5,0
472,209,20774,1,0
382,142,21086,1,0
269,144,21399,2,0,B|188:144,1,70
149,170,21711,2,0,B|99:234,1,70
144,265,22024,2,0,B|209:338,1,70
144,349,22336,2,0,B|70:349,1,70
242,349,22961,5,0
340,295,23274,5,0
233,262,23586,5,0
335,215,23899,5,0
230,174,24211,5,0
236,118,24367,6,4,B|308:118,1,70
361,124,24680,6,4,B|423:186,1,70
254,193,30148,5,4
478,196,30773,5,0
396,119,31085,1,0
303,54,31398,1,0
191,52,31710,1,0
78,54,32023,2,4,B|25:76|18:127|77:166|194:257,1,280
409,287,33273,5,0
297,285,33585,1,0
205,219,33898,1,0
313,191,34210,1,0
423,172,34522,2,4,B|460:128|409:86|326:174|194:80,1,280
419,32,35772,5,0
482,124,36085,1,0
370,126,36397,1,0
455,198,36710,1,0
344,214,37022,2,4,B|299:237|253:203|204:199|74:303,1,280
88,181,37960,5,4
198,198,38272,1,4
286,128,38585,1,4
198,198,38897,1,4
164,91,39209,2,4,B|202:28|242:14|288:4|460:268,1,420
231,278,40772,5,0
342,278,41084,1,0
229,278,41397,1,0
340,279,41709,1,0
340,166,42022,2,4,B|326:119|283:89|237:73|185:71|88:122,1,280
318,62,43272,5,0
429,62,43584,1,0
431,173,43896,1,0
428,60,44209,1,0
348,138,44521,2,4,B|348:193|308:226|171:163|399:338,1,280
166,343,45771,5,0
166,230,46084,1,0
277,230,46396,1,0
348,143,46709,1,0
449,188,47021,2,4,B|495:216|479:272|417:256|371:256|272:342,1,280
161,331,47959,5,4
221,237,48271,1,4
127,174,48583,1,4
150,64,48896,1,4
261,64,49208,2,4,B|330:80|403:103|461:145|483:179|401:208|344:173|301:151|274:194|312:252|387:282,1,420
43,63,51239,6,0,B|91:93|132:132|152:239,1,210
250,181,52021,1,0
248,292,52333,1,4
350,247,52646,1,4
44,250,53739,6,0,B|86:208|125:182|230:140,1,210
334,141,54520,1,4
255,221,54833,1,4
366,221,55145,1,4
23,30,56239,6,0,B|85:74,1,70
125,102,56551,2,0,B|196:48,1,70
223,96,56864,2,0,B|290:157,1,70
296,194,57176,2,4,B|350:173|390:165|469:294,1,210
114,196,59207,6,0,B|261:196,1,140
359,192,59832,1,4
267,127,60145,1,4
81,275,61238,6,0,B|133:262|169:233|202:111,1,210
287,188,62020,1,4
287,76,62332,1,4
175,61,62645,1,4
478,45,63738,6,0,B|430:62|395:96|260:65,1,210
162,77,64519,1,4
70,142,64832,1,4
171,189,65144,1,4
47,348,66238,6,4,B|55:298|88:256|179:187,1,210
267,253,67019,1,4
377,234,67332,1,4
466,36,67956,5,0
357,63,68269,1,4
249,94,68581,1,4
137,83,68894,2,4,B|87:135|74:175|60:227|71:271|91:308|131:328|184:331|279:322|298:294,1,420
475,333,70769,5,0
374,285,71081,1,0
265,254,71394,1,0
154,270,71706,1,0
72,193,72019,2,4,B|20:156|25:115|85:85|141:60|236:70,1,280
455,77,73268,5,0
348,111,73581,1,0
240,143,73893,1,0
342,189,74206,1,0
231,206,74518,2,4,B|165:223|125:254|104:279|33:95,1,280
260,93,75768,5,0
147,94,76081,1,0
238,158,76393,1,0
348,175,76706,1,0
246,221,77018,2,4,B|209:261|252:286|283:305|322:276|464:201,1,280
445,96,77955,5,0
344,45,78268,1,0
232,46,78580,1,0
124,78,78893,1,0
215,141,79205,2,4,B|265:191,1,70
226,232,79518,2,4,B|152:288,1,70
122,303,79830,1,4
77,336,79986,1,4
256,196,91235,6,0,B|197:188|197:153|216:127|274:106|336:78,1,210
326,192,92016,1,0
416,125,92329,1,0
342,70,92641,1,0
90,69,93735,6,0,B|46:97|43:158|142:250,1,210
247,251,94516,1,0
176,163,94829,1,0
228,64,95141,1,0
458,62,96235,6,0,B|475:115|457:160|344:246,1,210
276,159,97016,1,0
164,159,97328,1,0
71,222,97641,1,4
478,35,98891,5,0
383,94,99203,1,0
282,143,99516,1,0
180,190,99828,1,0
281,238,100141,1,4
34,37,101390,5,0
127,99,101703,1,0
229,144,102015,1,0
331,190,102328,1,0
229,237,102640,1,4
449,64,103890,5,0
340,91,104203,1,0
287,110,104360,1,0
124,145,104672,1,0
97,194,104828,1,0
115,246,104984,1,0
157,281,105140,1,0
480,34,106234,6,0,B|442:79|351:224,1,210
419,303,107015,1,0
307,299,107327,1,0
224,223,107640,1,0
115,195,107952,6,4,B|170:128,1,70
197,99,108265,2,4,B|135:54,1,70
84,58,108577,1,4
252,60,109046,6,0,B|328:60,1,70
374,77,109358,2,0,B|443:138,1,70
445,176,109671,2,4,B|370:233,1,70
83,78,110765,5,0
183,127,111077,1,0
90,190,111389,1,0
48,294,111702,1,0
155,262,112014,2,4,B|213:231|260:214|299:209|441:198,1,280
202,173,113264,5,0
309,141,113577,1,0
369,46,113889,1,0
256,46,114202,1,0
144,46,114514,2,4,B|90:81|65:107|34:145|155:287,1,280
368,287,115764,5,0
256,286,116076,1,0
162,224,116389,1,0
273,222,116701,1,0
385,222,117014,2,4,B|148:54,1,280
267,46,117951,5,4
377,63,118264,1,4
468,127,118576,1,4
359,156,118889,1,4
256,192,119045,12,0,120139
255,222,130762,5,0
256,109,131075,1,4
98,49,131544,2,4,B|58:110|33:148|22:195|24:236|35:285|56:321|288:321,1,455
255,68,133262,5,0
254,180,133575,1,4
374,63,134043,2,4,B|425:97|446:132|446:182|435:236|421:276|400:313|373:327|334:339|256:334|165:317,1,490
368,205,135762,5,0
256,206,136074,1,4
87,208,136543,2,4,B|80:142|111:107|161:87|224:75|299:85|486:214,1,490
396,284,137949,1,0
285,300,138262,1,0
173,303,138574,1,0
62,285,138887,1,0
85,234,139043,2,4,B|147:174,1,70
159,141,139355,2,4,B|142:57,1,70
201,67,139668,2,4,B|293:67,1,70
473,335,140761,5,0
381,270,141074,1,4
243,173,141543,2,0,B|319:173,1,70
368,172,141855,2,0,B|446:172,1,70
438,227,142167,2,0,B|439:217|439:304,1,70
438,351,142480,2,4,B|368:351,1,70
368,126,143261,5,0
255,128,143574,1,4
87,126,144042,2,4,B|88:200,1,70
87,252,144355,2,4,B|161:252,1,70
212,255,144667,2,4,B|296:255,1,70
338,254,144980,2,4,B|338:183,1,70
115,158,145761,5,0
226,159,146073,1,0
394,157,146542,2,4,B|394:235,1,70
450,225,146855,2,4,B|450:154,1,70
455,99,147167,2,4,B|385:99,1,70
329,100,147479,2,4,B|330:24,1,70
329,142,147948,5,0
216,143,148261,1,0
217,31,148573,1,0
104,29,148886,1,0
106,84,149042,2,4,B|106:158,1,70
108,209,149354,2,4,B|189:209,3,70
251,192,160759,5,0
249,79,161072,1,0
360,77,161384,1,0
445,150,161697,2,4,B|462:197|422:242|373:267|237:313,1,280
36,47,163259,5,0
143,78,163572,1,0
253,95,163884,1,0
361,121,164196,2,4,B|335:168|297:201|249:213|108:177,1,280
428,304,165759,5,0
428,192,166071,1,0
368,96,166384,1,0
257,82,166696,2,4,B|202:113|172:146|223:174|260:181|304:197|281:237|239:275|168:274,1,280
74,80,167946,5,0
186,80,168259,1,0
187,191,168571,1,0
298,191,168883,1,0
256,192,169196,12,0,170446
257,194,170758,5,0
367,174,171071,1,0
354,62,171383,1,0
241,62,171696,1,0
297,158,172008,2,4,B|67:334,1,280,4|4
172,126,173258,5,0
229,222,173570,1,0
321,285,173883,1,0
422,239,174195,1,4
342,160,174508,2,4,B|278:162|265:113|243:68|72:77,1,280
267,206,175758,5,0
322,108,176070,1,0
227,46,176383,1,0
115,46,176695,1,0
192,127,177008,2,4,B|134:178|124:203|131:254|289:334,1,280
227,222,177945,5,4
286,127,178257,1,4
345,221,178570,1,4
389,186,178726,1,4
425,143,178882,1,4
256,192,179039,12,4,180445
