osu file format v5

[General]
AudioFilename: To Be Loved.mp3
AudioLeadIn: 0
PreviewTime: -1
Countdown: 1
SampleSet: Normal
StackLeniency: 0.7
Mode: 0
LetterboxInBreaks: 1

[Metadata]
Title:To Be Loved
Artist:Papa Roach
Creator:luke0719
Version:Easy
Source:WWE Raw Zone
Tags:

[Difficulty]
HPDrainRate:1
CircleSize:3
OverallDifficulty:1
SliderMultiplier:1.4
SliderTickRate:2

[Events]
//Background and Video events
0,0,"john_cena_randy_orton_1280x1024.jpg"
//Break Periods
2,25045,29258
2,60344,64678
2,80676,89698
2,120581,129268
2,150371,159236
//Storyboard Layer 0 (Background)
//Storyboard Layer 1 (Failing)
//Storyboard Layer 2 (Passing)
//Storyboard Layer 3 (Foreground)
//Storyboard Sound Samples
//Background Colour Transformations
3,100,163,162,255

[TimingPoints]
464,312.467451307156,4,1,0,100,1

[Colours]
Combo1 : 255,255,255
Combo2 : 0,255,0
Combo3 : 5,5,240
Combo4 : 240,5,5
Combo5 : 255,150,0

[HitObjects]
257,188,5775,1,0
446,185,6557,2,0,B|421:127|393:101|358:86|310:81|268:82|222:89|186:112|45:252,1,490
260,326,8275,5,0
39,153,9056,2,0,B|68:95|104:67|153:54|193:47|238:45|291:56|461:193,1,490
266,310,10775,5,0
453,102,11556,2,0,B|411:148|372:175|333:146|324:87|314:38|286:18|251:19|201:48|191:105|249:173|277:203|267:233|227:256|166:252,1,490
66,255,12962,1,0
164,53,13587,1,0
388,50,14212,1,0
388,274,14837,1,4
247,99,15462,5,0
47,201,16087,1,0
110,293,16399,2,0,B|141:326|207:315|240:272|211:202|256:189|308:208|326:279|330:322|374:345|414:306|444:239,1,420
462,125,17962,5,0
321,127,18587,1,0
169,129,19212,1,0
169,280,19836,1,0
321,281,20461,5,0
354,144,21086,1,0
202,147,21711,1,0
50,149,22336,1,4
149,263,22961,5,0
224,264,23274,5,0
300,265,23586,5,4
303,113,24211,5,0
227,113,24523,5,0
150,113,24836,5,4
254,193,30148,5,4
405,189,30773,5,0
298,81,31398,1,0
73,79,32023,2,0,B|125:109|157:136|102:172|52:190|20:207|49:246|98:262|136:284,1,280
354,284,33273,5,0
354,59,33898,1,0
130,57,34522,2,0,B|194:89|236:112|274:137|301:171|304:204|289:225|262:260,1,280
45,258,35772,5,0
268,253,36397,1,0
66,152,37022,2,0,B|112:111|134:97|157:142|187:174|229:134|251:98|269:74|293:110|328:146,1,280
464,305,38272,5,4
239,305,38897,1,4
44,193,39522,2,4,B|77:150|119:117|154:94|200:90|232:114|246:149|276:192,1,280
421,336,40772,5,0
422,111,41397,1,0
129,146,42022,2,4,B|127:145|179:147|225:163|227:204|363:308,1,280
249,103,43272,5,0
472,103,43896,1,0
263,184,44521,2,4,B|263:239|223:272|86:209|371:334,1,280
137,327,45771,5,0
361,327,46396,1,0
357,102,47021,2,4,B|280:165|220:61|138:260,1,280
366,238,48271,5,4
141,240,48896,1,4
46,100,49521,6,4,B|80:56|115:37|159:39|329:125,1,280,0|4
45,328,51239,6,0,B|54:268|75:220|106:157|153:146|176:221|186:298|235:290|290:234|340:175|453:33,1,560
38,45,53739,6,0,B|38:128|51:179|74:211|111:253|140:183|160:124|179:93|241:163|261:224|292:266|356:290|414:300|481:280|443:207|443:207|413:168|413:168,1,630
250,341,56239,6,4,B|181:327|155:294|201:251|276:242|334:250|363:255|404:235|361:168|279:147|206:142|131:146|102:114|205:68|287:64,1,560
446,329,59051,6,0,B|369:325|329:301|305:277|348:244|394:190|344:140|278:109|211:104|49:188|49:189,1,490
52,338,66238,6,0,B|60:288|93:246|197:182,1,210
188,187,67019,1,0
300,185,67332,1,4
126,44,67956,5,0
225,95,68269,1,0
321,152,68581,1,4
213,185,68894,2,4,B|164:266|179:306|229:284|475:335,1,350
89,150,70769,5,0
313,152,71394,1,0
88,149,72019,2,4,B|94:147|38:172|45:214|63:244|289:248,1,280
471,346,73268,5,0
315,184,73893,1,0
148,34,74518,2,4,B|82:51|42:82|21:107|239:166,1,280
59,317,75768,5,0
283,317,76393,1,0
84,212,77018,2,4,B|101:192|125:175|153:179|195:185|360:237,1,280
166,102,78268,1,0
389,105,78893,1,0
256,192,79205,12,0,80455
256,196,91235,6,0,B|197:188|197:153|216:127|274:106|341:83,1,210
428,144,92016,1,0
430,256,92329,1,4
335,196,92641,1,4
70,227,93735,6,0,B|114:199|153:189|278:189,1,210
385,192,94516,1,0
441,94,94829,1,4
333,62,95141,1,4
50,128,96235,6,0,B|33:181|51:226|161:308,1,210
258,312,97016,1,0
370,308,97328,1,4
372,195,97641,1,4
47,259,98735,6,0,B|269:258,1,210
369,257,99516,1,0
367,145,99828,1,4
254,145,100141,1,4
86,71,101390,5,0
310,71,102015,1,0
311,295,102640,1,4
86,295,103265,1,0
87,70,103890,1,0
199,70,104203,1,0
310,70,104515,1,0
422,68,104828,1,0
310,71,105140,1,4
47,69,106234,6,0,B|126:100|232:206,1,210
440,191,107327,1,0
215,189,107952,1,0
42,46,108577,1,0
266,44,109202,1,4
267,156,109515,1,4
378,154,109827,1,4
41,152,110765,5,0
196,312,111389,1,0
191,88,112014,2,4,B|249:57|296:40|335:35|455:109,1,280
455,331,113264,5,0
230,329,113889,1,0
230,104,114514,2,4,B|178:140|153:166|122:204|66:338,1,280
294,326,115764,5,0
294,101,116389,1,0
89,191,117014,2,4,B|377:191,1,280
162,103,118264,1,4
386,101,118889,1,4
256,192,119201,12,0,120451
57,319,130762,5,0
337,321,131544,2,4,B|421:297|386:242|303:234|226:232|115:229|159:176|201:149|241:134|277:124|326:119|404:114,1,490
199,231,133262,5,0
440,89,134043,2,4,B|348:89|309:128|313:172|381:197|453:207|479:231|418:282|358:295|301:310|258:318|214:320|177:318,1,490
256,192,135606,12,0,137324
114,77,137949,1,0
266,76,138574,1,0
418,77,139199,1,4
421,189,139512,1,4
421,300,139824,1,4
92,230,140761,5,0
316,230,141386,1,0
473,70,142011,1,4
360,70,142324,1,4
248,71,142636,1,4
64,199,143261,5,0
287,206,143886,1,0
63,200,144511,1,4
148,127,144823,1,4
245,71,145136,1,4
451,158,145761,5,0
226,158,146386,1,0
389,311,147011,1,4
277,311,147323,1,4
164,311,147636,1,4
159,87,148261,5,0
383,87,148886,1,4
384,198,149198,1,4
384,86,149510,1,4
271,86,149823,1,4
205,122,160759,5,0
356,122,161384,1,0
270,247,162009,2,4,B|358:221|407:196|468:48,1,280
260,159,163259,5,0
47,87,163884,1,0
160,279,164509,2,4,B|252:324|300:312|416:202,1,280
229,73,165759,5,0
423,183,166384,1,0
229,73,167009,2,0,B|270:112|274:149|267:179|250:215|221:253|176:283|282:319,1,280
437,169,168259,5,0
213,169,168883,1,0
256,192,169196,12,0,170133
410,303,170758,5,0
403,79,171383,1,0
178,79,172008,2,4,B|334:321,1,280,0|4
105,309,173258,5,0
328,315,173883,1,0
325,90,174508,2,4,B|284:92|262:137|249:186|64:186,1,280
272,286,175758,5,0
467,175,176383,1,0
285,43,177008,2,4,B|227:94|217:119|224:170|99:265,1,280
220,270,177945,5,4
331,271,178257,1,4
443,269,178570,1,4
443,157,178882,1,4
256,192,179039,12,4,180445
