osu file format v9

[General]
AudioFilename: Papa Roach - Lifeline.mp3
AudioLeadIn: 0
PreviewTime: 61270
Countdown: 1
SampleSet: Normal
StackLeniency: 0.7
Mode: 0
LetterboxInBreaks: 1

[Editor]
DistanceSpacing: 1.5
BeatDivisor: 4
GridSize: 4

[Metadata]
Title:Lifeline
Artist:Papa Roach
Creator:Katty Pie
Version:Normal
Source:
Tags:Absolute94 Metamorphosis

[Difficulty]
HPDrainRate:4
CircleSize:3
OverallDifficulty:4
ApproachRate:4
SliderMultiplier:1
SliderTickRate:1

[Events]
//Background and Video events
0,0,"BG.jpg"
//Break Periods
2,41663,44106
2,154305,168634
2,208644,211653
2,213173,215049
//Storyboard Layer 0 (Background)
//Storyboard Layer 1 (Fail)
//Storyboard Layer 2 (Pass)
//Storyboard Layer 3 (Foreground)
//Storyboard Sound Samples
//Background Colour Transformations
3,100,163,162,255

[TimingPoints]
143,566.037735849057,4,1,0,55,1,0
63539,-100,4,1,0,55,0,1
81652,-100,4,1,0,55,0,0
94105,-100,4,2,0,55,0,0
95520,-100,4,1,0,55,0,0
99765,-100,4,1,0,55,0,1
135992,-100,4,1,0,55,0,0
172784,-100,4,2,0,55,0,0
176746,-100,4,1,0,55,0,1
208444,-100,4,1,0,55,0,0

[Colours]
Combo1 : 255,255,0
Combo2 : 128,255,0
Combo3 : 0,215,215
SliderBorder : 255,255,255

[HitObjects]
188,20,27312,6,0,B|220:20|244:44|260:92|244:140|220:164|180:164,1,200,4|0
80,60,29010,1,8
52,208,29576,6,0,B|20:208|-4:232|-20:280|-4:328|20:352|60:352,1,200,0|8
88,280,30992,2,0,B|156:280,1,50,0|8
248,180,31841,5,4
356,76,32407,1,8
444,200,32973,1,0
444,200,33256,2,0,B|436:252|436:252|432:264,1,50,0|8
416,320,33822,1,0
344,320,34105,6,8,B|288:224,1,100,8|12
144,248,35237,1,0
144,248,35520,1,0
144,248,35803,1,12
272,152,36369,5,0
120,152,36935,1,12
272,152,37501,2,0,B|272:264,1,100,0|8
424,232,38633,6,0,B|500:196|488:88|408:76,1,200,0|12
344,80,40048,1,0
344,156,40331,1,8
268,156,40614,1,0
192,156,40897,2,0,B|72:156,1,100,0|4
256,56,45426,5,4
368,152,45992,1,0
280,272,46558,1,8
136,312,47124,1,0
136,312,47690,6,0,B|48:168|48:168,1,150
24,120,48822,1,8
64,56,49105,1,0
136,40,49388,1,4
304,64,49954,6,0,B|344:56|368:72|392:104|384:152|384:152|456:152,1,200,4|8
441,152,51369,1,0
441,152,51652,1,8
336,256,52218,6,0,B|336:184,1,50,4|0
264,208,52784,2,0,B|264:264,1,50,8|0
192,256,53350,2,0,B|192:192,1,50,0|0
192,128,53916,1,8
192,128,54199,1,0
256,88,54482,6,4,B|296:80|328:104|356:144|332:196|332:196,1,150
256,168,55614,2,0,B|200:208,1,50,8|0
208,272,56180,1,8
360,272,56746,5,4
388,204,57029,1,0
416,136,57312,1,8
268,136,57878,1,4
200,100,58161,1,0
124,104,58444,1,8
256,192,59010,12,4,61275
384,72,61841,5,8
384,144,62124,1,0
384,216,62407,1,4
312,216,62690,1,0
240,216,62973,6,0,B|128:216,1,100,8|4
72,80,64105,2,0,B|40:80|16:104|0:152|16:200|40:224|80:224,1,200,8|8
104,152,65520,2,0,B|176:152,1,50,0|4
288,80,66369,5,8
424,144,66935,1,4
376,288,67501,1,8
272,184,68067,2,0,B|200:184,1,50,4|4
148,192,68633,6,0,B|116:192|92:216|76:264|92:312|116:336|156:336,1,200,8|8
224,336,70048,1,4
288,296,70331,1,4
400,200,70897,6,8,B|400:48,1,150
320,56,72029,2,0,B|256:56,1,50,8|0
192,56,72595,2,0,B|192:160,1,100,8|4
192,312,73727,5,8
264,312,74010,1,0
336,312,74293,1,8
408,312,74576,1,0
408,312,74859,2,0,B|408:208,1,100,8|4
308,100,75992,6,0,B|308:64|280:44|244:32|228:56,1,100,0|8
196,112,76841,1,0
196,188,77124,1,8
196,264,77407,1,0
272,260,77690,6,0,B|276:296|300:320|336:320|352:304,1,100,8|0
416,308,78539,2,0,B|480:308,2,50,0|8|4
356,264,79388,2,0,B|264:196,1,100,0|8
124,196,80520,2,0,B|216:268,1,100,4|8
256,80,81652,5,4
408,80,82218,1,8
408,232,82784,2,0,B|296:232,1,100,4|8
216,112,83916,6,0,B|160:112,2,50,4|0|8
216,184,84765,1,0
216,256,85048,1,0
368,248,85614,2,0,B|368:136,1,100,8|0
304,104,86463,5,0
240,64,86746,2,0,B|136:64,1,100,8|0
56,184,87878,1,8
56,184,88444,6,0,B|168:184,1,100,4|8
272,280,89576,2,8,B|160:280,1,100,0|8
224,136,90709,5,4
224,136,91275,1,8
224,136,91841,1,4
376,136,92407,2,0,B|396:192|396:192,1,50,8|4
392,260,92973,6,8,B|184:260,2,200,8|0|4
256,192,95378,12,4,97501
184,208,98067,6,0,B|296:208,1,100,4|8
288,136,98916,1,0
288,64,99199,2,4,B|224:64,1,50
160,64,99765,6,0,B|96:64,2,50,8|0|4
312,80,100897,1,8
400,200,101463,1,8
440,264,101746,1,4
384,320,102029,5,0
312,312,102312,1,4
312,312,102595,2,0,B|224:240|224:240,1,100
104,176,103727,1,8
144,112,104010,1,0
208,72,104293,6,0,B|272:72,1,50,4|0
332,72,104859,2,0,B|332:144,1,50,8|0
408,120,105426,2,0,B|480:120,1,50,8|0
456,192,105992,2,0,B|456:256,1,50,12|0
384,240,106558,6,0,B|328:240,1,50,8|0
280,184,107124,1,0
240,120,107407,1,0
240,120,107690,2,4,B|208:48|128:64|112:136|168:184,1,200
168,244,109105,2,0,B|168:304,1,50,0|0
328,304,109954,6,8,B|360:376|440:360|456:288|400:240,1,200
344,232,111369,2,0,B|304:184,2,50,0|8|0
408,192,112218,5,4
408,120,112501,1,0
336,120,112784,1,4
264,120,113067,2,4,B|192:120,1,50,0|4
64,116,113916,5,8
64,192,114199,1,0
64,268,114482,2,8,B|64:336,2,50,8|0|12
212,268,115614,1,4
360,256,116180,5,8
432,240,116463,1,0
480,184,116746,1,8
496,112,117029,1,0
420,112,117312,2,0,B|348:112,1,50,8|0
360,36,117878,6,0,B|296:36,1,50,4|0
296,108,118444,2,0,B|224:108,1,50,8|0
172,108,119010,1,8
172,256,119576,1,8
320,260,120142,5,8
396,260,120426,1,0
444,204,120709,2,0,B|476:148|428:92,1,100,8|4
368,112,121558,1,0
368,112,121841,2,0,B|368:164|368:176,1,50,4|0
368,236,122407,5,8
220,260,122973,1,4
72,284,123539,1,4
76,136,124105,2,8,B|188:136,2,100,8|8|4
204,56,125803,5,8
280,56,126086,1,0
356,56,126369,1,8
404,200,126935,5,8
292,304,127501,1,4
184,196,128067,1,8
312,116,128633,2,8,B|424:116,1,100
280,48,129765,6,0,B|168:48,1,100,4|12
104,52,130614,1,4
104,128,130897,1,12
100,276,131463,5,4
212,172,132029,1,8
212,172,132595,2,0,B|216:104|292:108,1,100,4|8
424,112,133727,6,0,B|478:104|486:176,1,100,4|8
380,280,134859,1,0
304,292,135142,1,4
240,252,135426,1,4
248,176,135709,1,4
176,176,135992,6,0,B|76:176,1,100,4|8
120,320,137124,2,8,B|240:320,1,100,0|8
344,232,138256,2,0,B|240:232,1,100,4|8
96,200,139388,5,4
64,264,139671,1,0
64,336,139954,1,8
136,336,140237,2,0,B|200:336,3,50,0|4|0|8
256,208,141652,2,8,B|320:132|244:60,1,150,8|0
180,72,142784,6,0,B|132:72,4,50
128,216,144482,2,0,B|72:216,1,50,8|0
104,144,145048,6,0,B|160:144,1,50,12|0
200,88,145614,2,0,B|320:88,3,100,8|0|8|4
416,184,147878,5,4
328,304,148444,1,8
176,304,149010,1,4
80,184,149576,5,4
232,192,150142,2,4,B|304:192,1,50,4|0
256,120,150709,2,0,B|192:120,1,50,8|0
232,48,151275,2,0,B|304:48,1,50,8|8
256,192,151841,12,4,154105
256,192,169954,12,4,172218
448,176,172784,6,0,B|328:176,1,100,2|8
240,64,173916,2,0,B|352:64,1,100,2|4
344,216,175048,5,8
344,288,175331,1,0
272,288,175614,1,2
232,144,176180,1,8
172,100,176463,1,0
112,56,176746,5,4
112,56,177029,2,0,B|40:96|48:184,1,150,4|0
184,240,178444,2,0,B|256:200|248:108,1,150,8|4
248,40,179576,1,8
392,88,180143,5,4
448,136,180426,1,4
400,192,180709,2,0,B|400:304,2,100,8|4|8
272,120,182407,6,0,B|208:120,1,50,0|0
184,56,182973,2,0,B|136:56,1,50,8|0
56,56,183539,2,0,B|56:168,1,100,0|8
200,200,184671,5,4
352,200,185237,1,8
504,200,185803,1,4
424,72,186369,2,8,B|216:72,1,200
340,164,188067,2,0,B|452:164,1,100,4|8
416,312,189199,5,8
348,340,189482,1,8
272,344,189765,1,8
200,324,190048,1,0
144,272,190331,6,0,B|88:256|72:192,1,100,4|4
200,120,191463,2,8,B|256:136|272:200,1,100
416,184,192595,5,8
320,64,193161,1,4
168,64,193727,1,8
96,192,194293,2,0,B|96:248,1,50,8|0
144,296,194859,6,0,B|216:296,1,50,4|0
256,256,195426,2,0,B|256:192,1,50,8|0
304,152,195992,2,0,B|368:152,1,50,8|8
384,84,196558,2,0,B|464:68|448:244,1,200,8|4
296,264,198256,5,8
224,264,198539,1,0
152,264,198822,1,8
88,128,199388,5,4
88,128,199954,1,4
224,64,200520,1,8
296,64,200803,1,0
368,64,201086,2,0,B|368:176,3,100,8|4|8|4
240,240,203350,5,4
152,120,203916,1,4
64,240,204482,1,8
152,360,205048,1,8
216,320,205331,1,0
280,280,205614,1,4
256,192,206180,12,4,208444
44,44,212973,5,4
440,48,216369,5,8
440,124,216652,1,0
440,200,216935,1,8
440,276,217218,2,0,B|440:348,1,50,0|4
48,328,219765,6,0,B|48:216,1,100,4|8
148,116,220897,2,0,B|148:232,1,100,0|8
256,192,222029,12,4,226558
