osu file format v9

[General]
AudioFilename: Papa Roach - Getting Away With Murder.mp3
AudioLeadIn: 1000
PreviewTime: 46368
Countdown: 1
SampleSet: Normal
StackLeniency: 0.7
Mode: 1
LetterboxInBreaks: 1

[Editor]
Bookmarks: 27889,113356,131835
DistanceSpacing: 1
BeatDivisor: 4
GridSize: 4

[Metadata]
Title:Getting Away With Murder
Artist:Papa Roach
Creator:Katty Pie
Version:Drum Rock
Source:
Tags:DarknessAngel MystykAMV alternative rock

[Difficulty]
HPDrainRate:5
CircleSize:5
OverallDifficulty:5
ApproachRate:5
SliderMultiplier:1.6
SliderTickRate:2

[Events]
//Background and Video events
0,0,"taiko BG.jpg"
//Break Periods
//Storyboard Layer 0 (Background)
//Storyboard Layer 1 (Fail)
//Storyboard Layer 2 (Pass)
//Storyboard Layer 3 (Foreground)
//Storyboard Sound Samples
//Background Colour Transformations
3,100,163,162,255

[TimingPoints]
170,577.478344562079,4,1,0,80,1,0
46368,-100,4,1,0,80,0,1
64847,-100,4,1,0,80,0,0
85637,-100,4,1,0,80,0,1
104116,-100,4,1,0,80,0,0
150314,-100,4,1,0,80,0,1
168794,-100,4,1,0,80,0,0
171103,-100,4,1,0,80,0,1
189583,-100,4,1,0,80,0,0

[Colours]
Combo1 : 255,0,128
Combo2 : 128,255,255

[HitObjects]
116,96,170,21,0
116,96,459,5,8
116,96,747,1,8
116,96,1036,5,0
116,96,1325,5,8
116,96,1614,1,8
116,96,1902,5,0
116,96,2480,1,0
116,96,2768,5,8
116,96,2913,1,8
116,96,3057,1,8
116,96,3346,5,0
116,96,3635,5,8
116,96,3923,5,0
116,96,4212,1,0
116,96,4790,1,0
116,96,5078,5,8
116,96,5367,1,8
116,96,5512,1,8
116,96,5656,5,0
116,96,5945,5,8
116,96,6089,5,0
116,96,6233,5,8
116,96,6522,5,0
116,96,7100,1,0
116,96,7388,5,8
116,96,7677,1,8
116,96,7966,5,0
116,96,8255,5,6
184,252,9410,5,0
184,252,9698,5,8
184,252,9987,5,0
184,252,10276,1,0
184,252,10420,1,0
184,252,10564,5,8
184,252,10709,1,8
184,252,10853,5,0
184,252,11142,5,8
184,252,11431,5,0
184,252,11719,1,0
184,252,12008,1,0
184,252,12153,1,0
184,252,12297,5,8
184,252,12586,5,0
184,252,12874,5,8
184,252,13163,5,0
184,252,13307,1,0
184,252,13452,5,8
184,252,13596,5,0
184,252,13741,5,8
184,252,14029,5,0
184,252,14318,1,0
184,252,14607,5,8
184,252,14895,5,0
184,252,15040,1,0
184,252,15184,1,0
184,252,15328,5,8
184,252,15473,5,0
184,252,15762,5,8
184,252,16050,1,8
184,252,16195,1,8
184,252,16339,5,0
184,252,16628,1,0
184,252,16917,5,8
184,252,17205,5,0
184,252,17494,1,0
184,252,17639,5,8
184,252,17783,1,8
184,252,17927,5,0
184,252,18072,5,8
184,252,18216,1,8
184,252,18360,5,0
184,252,18649,5,8
184,252,18938,5,0
184,252,19227,5,8
184,252,19371,5,0
184,252,19515,5,8
184,252,19804,1,8
184,252,19948,5,0
184,252,20093,1,0
184,252,20237,1,0
184,252,20382,5,8
164,216,20526,5,0
184,252,20670,1,0
184,252,20959,1,0
184,252,21248,5,8
184,252,21537,5,0
184,252,21825,1,0
184,252,22114,1,0
184,252,22258,5,8
184,252,22547,5,0
184,252,22692,5,8
184,252,22980,5,4
184,252,23269,1,4
184,252,23558,5,6
184,252,23846,1,6
184,252,24135,5,0
184,252,24280,5,8
184,252,24424,5,0
184,252,24713,1,0
184,252,25001,5,8
184,252,25146,5,0
184,252,25290,1,0
184,252,25579,1,4
184,252,25868,5,6
184,252,26156,1,6
184,252,26734,5,0
184,252,26878,5,8
184,252,27023,1,8
184,252,27167,1,8
184,252,27311,1,8
184,252,27456,1,8
184,252,27600,5,0
184,252,27889,1,4
184,252,28178,5,8
184,252,28466,5,0
184,252,28755,1,0
184,252,28899,5,8
184,252,29044,5,0
184,252,29333,1,0
184,252,29621,1,0
184,252,29766,5,8
184,252,29910,1,8
184,252,30054,1,8
184,252,30199,5,0
184,252,30487,1,0
184,252,30776,1,0
184,252,31065,1,4
184,252,31642,1,0
184,252,31931,5,8
184,252,32220,1,8
184,252,32364,5,0
184,252,32509,5,8
184,252,32797,1,2
184,252,33086,1,2
184,252,33375,1,6
184,252,33952,5,0
184,252,34241,1,8
184,252,34385,1,0
184,252,34530,1,0
184,252,34674,5,8
184,252,34819,5,0
184,252,35107,1,0
184,252,35396,5,2
184,252,35685,5,0
184,252,35974,5,8
184,252,36262,5,0
184,252,36407,1,0
184,252,36551,5,8
184,252,36840,1,2
184,252,37128,1,6
184,252,37417,1,8
184,252,37562,5,0
184,252,37706,5,8
184,252,37995,5,0
184,252,38139,5,8
184,252,38283,5,0
184,252,38572,5,8
184,252,38717,5,0
184,252,38861,5,8
184,252,39150,1,8
184,252,39294,5,0
184,252,39438,1,0
184,252,39583,1,0
184,252,39727,5,8
184,252,40016,5,0
184,252,40305,5,8
184,252,40593,5,0
184,252,40882,5,8
184,252,41026,1,8
184,252,41171,1,8
184,252,41460,5,0
184,252,41748,1,4
184,252,42037,1,0
184,252,42326,5,8
184,252,42470,1,8
184,252,42615,1,8
184,252,42903,5,0
184,252,43192,5,6
184,252,43481,5,0
184,252,43769,5,6
184,252,44058,5,0
184,252,44347,1,0
184,252,44491,1,0
184,252,44636,5,8
184,252,44924,1,6
184,252,45213,5,4
184,252,45502,5,6
184,252,45791,5,0
184,252,45935,5,8
184,252,46079,5,0
184,252,46224,5,8
184,252,46368,5,0
184,252,46657,5,8
184,252,46946,5,0
184,252,47234,1,0
184,252,47379,5,8
184,252,47523,5,0
184,252,47812,1,0
184,252,47956,5,8
184,252,48101,5,0
184,252,48245,5,8
184,252,48389,1,8
184,252,48678,5,4
184,252,48967,5,8
184,252,49256,1,8
184,252,49400,5,0
184,252,49544,5,8
184,252,49833,5,0
184,252,49977,5,8
184,252,50122,1,8
184,252,50266,1,8
184,252,50410,5,0
184,252,50699,1,0
184,252,50988,1,4
184,252,51277,5,8
184,252,51421,5,0
184,252,51565,5,8
184,252,51854,1,8
184,252,51999,5,0
184,252,52143,5,8
184,252,52432,1,2
184,252,52720,1,2
184,252,53009,1,6
184,252,53298,5,0
184,252,53442,5,8
184,252,53587,1,8
184,252,53731,5,0
184,252,53875,5,8
184,252,54020,1,8
184,252,54164,5,0
184,252,54308,5,8
184,252,54453,1,8
184,252,54597,5,0
184,252,54742,5,8
184,252,54886,1,8
184,252,55030,5,0
184,252,55175,5,8
184,252,55319,5,0
184,252,55608,1,4
184,252,55897,5,8
184,252,56185,5,0
184,252,56474,5,8
184,252,56618,5,0
184,252,56763,5,8
184,252,57051,5,0
184,252,57340,1,0
184,252,57485,5,8
184,252,57629,5,0
184,252,57918,1,4
184,252,58206,5,8
184,252,58495,1,8
184,252,58784,5,0
184,252,59073,1,0
184,252,59217,5,8
184,252,59361,1,8
184,252,59650,5,0
184,252,59794,5,8
184,252,59939,1,8
184,252,60228,5,4
184,252,60516,1,0
184,252,60805,5,8
184,252,60949,5,0
184,252,61094,5,8
184,252,61383,5,0
184,252,61671,5,2
184,252,61960,1,2
184,252,62249,1,6
184,252,62538,5,0
184,252,62682,5,8
184,252,62826,1,8
184,252,62971,1,8
184,252,63115,5,0
184,252,63259,1,0
184,252,63404,5,8
184,252,63548,1,8
184,252,63692,1,8
184,252,63837,5,0
184,252,63981,1,0
184,252,64126,5,8
184,252,64270,1,8
184,252,64414,5,0
184,252,64559,1,0
184,252,64847,1,0
184,252,64992,1,0
184,252,65136,5,8
184,252,65281,1,8
184,252,65714,1,8
184,252,65858,1,8
184,252,66002,5,0
184,252,66147,1,0
184,252,66580,5,8
184,252,66724,1,8
184,252,66869,5,0
184,252,67157,1,0
184,252,67446,5,8
184,252,67735,1,8
184,252,68024,5,0
184,252,68168,5,8
184,252,68312,5,0
184,252,68601,1,0
184,252,68890,5,8
184,252,69034,5,0
184,252,69179,5,8
184,252,69467,5,0
184,252,69756,5,6
184,252,70045,1,6
184,252,70333,5,0
184,252,70622,1,0
184,252,70911,5,8
184,252,71200,5,0
184,252,71344,1,0
184,252,71488,1,0
184,252,71777,5,8
184,252,71922,1,8
184,252,72066,1,8
184,252,72355,5,0
184,252,72643,5,8
184,252,73221,5,0
184,252,73365,5,8
184,252,73510,1,8
184,252,73798,5,0
184,252,73943,5,8
184,252,74087,1,8
184,252,74376,5,0
184,252,74520,5,8
184,252,74665,5,0
184,252,74953,1,0
184,252,75098,5,8
184,252,75242,5,0
184,252,75531,1,0
184,252,75820,5,6
184,252,76108,1,6
184,252,76397,5,4
184,252,76686,5,8
184,252,76974,1,8
184,252,77263,1,8
184,252,77552,5,0
184,252,77696,1,0
184,252,77841,5,8
184,252,78129,5,0
184,252,78274,5,8
184,252,78418,1,8
184,252,78563,5,0
184,252,78707,5,8
184,252,78996,5,0
184,252,79284,5,8
184,252,79573,1,6
184,252,79862,1,6
184,252,80151,5,0
184,252,80295,5,8
184,252,80439,5,0
184,252,80728,1,0
184,252,81017,1,4
184,252,81306,1,0
184,252,81450,5,8
184,252,81594,1,8
184,252,81883,1,6
184,252,82172,1,6
184,252,82461,5,0
184,252,82749,5,6
184,252,83038,1,6
184,252,83327,5,0
184,252,83471,5,8
184,252,83615,1,8
184,252,83760,1,8
184,252,83904,5,0
184,252,84049,5,8
184,252,84193,1,8
184,252,84337,1,8
184,252,84482,5,0
184,252,84626,1,0
184,252,84770,5,8
184,252,84915,1,8
184,252,85059,1,8
184,252,85204,5,0
184,252,85348,1,0
184,252,85637,1,4
184,252,85925,5,8
184,252,86214,1,8
184,252,86503,5,0
184,252,86792,1,0
184,252,86936,5,8
184,252,87080,1,8
184,252,87225,1,8
184,252,87369,5,0
184,252,87658,5,8
184,252,87947,5,4
184,252,88235,5,8
184,252,88380,1,8
184,252,88524,1,8
184,252,88813,5,0
184,252,89102,5,8
184,252,89246,1,8
184,252,89390,1,8
184,252,89679,5,0
184,252,89967,1,0
184,252,90256,1,4
184,252,90545,1,0
184,252,90690,5,8
184,252,90834,5,0
184,252,91123,5,8
184,252,91411,5,0
184,252,91556,5,8
184,252,91700,5,0
184,252,91989,5,2
184,252,92278,1,6
184,252,92566,5,0
184,252,92711,1,0
184,252,92855,5,8
184,252,92999,1,8
184,252,93144,5,0
184,252,93288,1,0
184,252,93433,5,8
184,252,93577,1,8
184,252,93721,5,0
184,252,93866,1,0
184,252,94010,5,8
184,252,94154,1,8
184,252,94299,5,0
184,252,94443,5,8
184,252,94588,1,8
184,252,94876,5,4
184,252,95165,1,0
184,252,95454,1,0
184,252,95743,5,8
184,252,95887,5,0
184,252,96031,5,8
184,252,96320,5,0
184,252,96464,5,8
184,252,96609,5,0
184,252,96897,5,8
184,252,97186,5,4
184,252,97475,1,0
184,252,97619,1,0
184,252,97764,5,8
184,252,98052,5,0
184,252,98341,5,8
184,252,98630,5,0
184,252,98919,5,8
184,252,99063,5,0
184,252,99207,5,8
184,252,99496,5,4
184,252,99785,5,8
184,252,100074,5,0
184,252,100362,5,8
184,252,100507,1,8
184,252,100651,5,0
184,252,100940,5,2
184,252,101229,1,2
184,252,101517,1,6
184,252,101806,5,0
184,252,101950,5,8
184,252,102095,1,8
184,252,102239,1,8
184,252,102384,1,8
184,252,102528,5,0
184,252,102672,1,0
184,252,102817,1,0
184,252,102961,5,8
184,252,103105,1,8
184,252,103250,1,8
184,252,103394,1,8
184,252,103538,5,0
184,252,103683,5,8
184,252,103827,5,0
184,252,104116,1,4
184,252,104405,1,0
184,252,104549,5,8
184,252,104693,1,8
184,252,104838,5,0
184,252,105271,1,0
184,252,105415,5,8
184,252,105560,1,8
184,252,105704,5,0
184,252,106137,5,8
184,252,106281,1,8
184,252,106426,5,0
184,252,106570,1,0
184,252,107003,5,8
184,252,107148,1,8
184,252,107292,5,0
184,252,107436,1,0
184,252,107870,5,8
184,252,108014,5,0
184,252,108158,5,8
184,252,108303,5,0
184,252,108736,5,8
184,252,108880,5,0
184,252,109025,5,8
184,252,109169,5,0
184,252,109602,1,0
184,252,109746,5,8
184,252,109891,1,8
184,252,110035,5,0
184,252,110468,1,0
184,252,110613,5,8
184,252,110757,1,8
184,252,110901,5,0
184,252,111334,1,0
184,252,111479,5,8
184,252,111623,1,8
184,252,111768,1,8
184,252,112201,5,0
184,252,112778,1,0
184,252,113356,5,6
184,252,113644,5,0
184,252,113933,5,8
184,252,114077,1,8
184,252,114222,1,8
184,252,114511,5,0
184,252,114799,1,0
184,252,115088,5,8
184,252,115232,1,8
184,252,115377,1,8
184,252,115666,5,0
184,252,115954,5,8
184,252,116243,5,0
184,252,116532,1,0
184,252,116676,5,8
184,252,116820,1,8
184,252,116965,1,8
184,252,117109,5,0
184,252,117398,5,8
184,252,117687,5,0
184,252,117975,1,4
184,252,118553,1,2
184,252,119130,1,0
184,252,119708,1,0
184,252,119852,5,8
184,252,119997,5,0
184,252,120285,1,6
184,252,120574,5,8
184,252,120863,5,0
184,252,121152,1,0
184,252,121296,5,8
184,252,121440,1,8
184,252,121585,5,0
184,252,121729,5,8
184,252,121873,1,8
184,252,122018,5,0
184,252,122162,5,8
184,252,122307,5,0
184,252,122595,1,4
184,252,122884,5,8
184,252,123028,5,0
184,252,123173,5,8
184,252,123461,5,0
184,252,123750,5,8
184,252,124039,5,0
184,252,124183,5,8
184,252,124328,5,0
184,252,124616,1,0
184,252,124905,5,8
184,252,125194,1,8
184,252,125483,5,0
184,252,125771,1,0
184,252,125916,1,0
184,252,126060,5,8
184,252,126349,5,0
184,252,126493,1,0
184,252,126638,5,8
184,252,126782,1,8
184,252,126926,5,0
184,252,127215,5,2
184,252,127504,5,0
184,252,127793,1,0
184,252,128081,5,8
184,252,128226,1,8
184,252,128370,5,0
184,252,128659,1,0
184,252,128948,5,8
184,252,129092,1,8
184,252,129236,5,0
184,252,129525,5,2
184,252,129814,5,0
184,252,130102,5,8
184,252,130247,5,0
184,252,130391,5,8
184,252,130680,5,0
184,252,130824,5,8
184,252,130969,1,8
184,252,131113,5,0
184,252,131257,5,8
184,252,131402,1,8
184,252,131546,5,0
184,252,131835,1,4
184,252,132124,5,8
184,252,132412,5,0
184,252,132701,1,0
184,252,132845,5,8
184,252,132990,5,0
184,252,133279,1,0
184,252,133567,1,0
184,252,133712,5,8
184,252,133856,1,8
184,252,134000,1,8
184,252,134145,5,0
184,252,134433,1,0
184,252,134722,1,0
184,252,135011,5,2
184,252,135588,5,0
184,252,135877,5,8
184,252,136166,1,8
184,252,136310,5,0
184,252,136455,5,8
184,252,136743,1,0
184,252,137032,1,0
184,252,137321,1,6
184,252,137898,5,0
184,252,138187,1,0
184,252,138331,5,8
184,252,138476,1,8
184,252,138620,5,0
184,252,138765,5,8
184,252,139053,1,8
184,252,139342,1,6
184,252,139631,1,6
184,252,139920,1,8
184,252,140208,5,0
184,252,140353,1,0
184,252,140497,1,0
184,252,140786,5,6
184,252,141074,1,6
184,252,141363,1,8
184,252,141508,5,0
184,252,141652,5,8
184,252,141941,5,0
184,252,142085,5,8
184,252,142229,5,0
184,252,142518,5,8
184,252,142663,5,0
184,252,142807,5,8
184,252,143096,1,8
184,252,143240,5,0
184,252,143384,1,0
184,252,143529,1,0
184,252,143673,5,8
184,252,143962,5,0
184,252,144251,5,8
184,252,144539,5,0
184,252,144828,5,8
184,252,144972,1,8
184,252,145117,1,8
184,252,145406,5,0
184,252,145694,1,4
184,252,145983,1,0
184,252,146272,5,8
184,252,146416,1,8
184,252,146561,1,8
184,252,146849,5,0
184,252,147138,5,2
184,252,147427,5,0
184,252,147715,5,2
184,252,148004,5,4
184,252,148293,1,0
184,252,148437,1,0
184,252,148582,5,8
184,252,148870,1,2
184,252,149159,5,0
184,252,149448,5,2
184,252,149737,5,0
184,252,149881,5,8
184,252,150025,5,0
184,252,150314,1,4
184,252,150603,1,0
184,252,150892,5,0
184,252,151180,1,0
184,252,151325,5,8
184,252,151469,5,0
184,252,151758,1,0
184,252,151902,5,8
184,252,152047,5,0
184,252,152191,5,8
184,252,152335,1,8
184,252,152624,1,4
184,252,152913,5,8
184,252,153202,1,8
184,252,153346,5,0
184,252,153490,5,8
184,252,153779,5,0
184,252,153923,5,8
184,252,154068,1,8
184,252,154212,1,8
184,252,154356,5,0
184,252,154645,1,0
184,252,154934,1,4
184,252,155223,5,8
184,252,155367,5,0
184,252,155511,5,8
184,252,155800,1,8
184,252,155945,5,0
184,252,156089,5,8
184,252,156378,1,2
184,252,156666,1,2
184,252,156955,1,6
184,252,157244,5,0
184,252,157388,5,8
184,252,157533,1,8
184,252,157677,5,0
184,252,157821,5,8
184,252,157966,1,8
184,252,158110,5,0
184,252,158254,5,8
184,252,158399,1,8
184,252,158543,5,0
184,252,158688,5,8
184,252,158832,1,8
184,252,158976,5,0
184,252,159121,5,8
184,252,159265,5,0
184,252,159554,1,4
184,252,159843,5,8
184,252,160131,5,0
184,252,160420,5,8
184,252,160564,5,0
184,252,160709,5,8
184,252,160997,5,0
184,252,161286,1,0
184,252,161431,5,8
184,252,161575,5,0
184,252,161864,1,4
184,252,162152,5,8
184,252,162441,1,8
184,252,162730,5,0
184,252,163019,1,0
184,252,163163,5,8
184,252,163307,1,8
184,252,163596,5,0
184,252,163740,5,8
184,252,163885,1,8
184,252,164174,5,4
184,252,164462,1,0
184,252,164751,5,8
184,252,164895,5,0
184,252,165040,5,8
184,252,165329,5,0
184,252,165617,5,2
184,252,165906,1,2
184,252,166195,1,6
184,252,166484,5,0
184,252,166628,5,8
184,252,166772,1,8
184,252,166917,1,8
184,252,167061,5,0
184,252,167205,1,0
184,252,167350,5,8
184,252,167494,1,8
184,252,167638,1,8
184,252,167783,5,0
184,252,167927,1,0
184,252,168072,5,8
184,252,168216,1,8
184,252,168360,5,0
184,252,168505,1,0
184,252,168794,5,0
184,252,168938,5,8
184,252,169082,1,8
184,252,169227,1,8
184,252,169371,5,0
184,252,169660,1,0
184,252,169804,5,8
184,252,169948,1,8
184,252,170093,1,8
184,252,170237,5,0
184,252,170526,1,4
184,252,170815,5,6
184,252,171103,5,4
184,252,171391,5,8
184,252,171680,1,8
184,252,171969,5,0
184,252,172258,1,0
184,252,172402,5,8
184,252,172546,1,8
184,252,172691,1,8
184,252,172835,5,0
184,252,173124,5,8
184,252,173413,5,4
184,252,173701,5,8
184,252,173846,1,8
184,252,173990,1,8
184,252,174279,5,0
184,252,174568,5,8
184,252,174712,1,8
184,252,174856,1,8
184,252,175145,5,0
184,252,175434,1,0
184,252,175722,1,4
184,252,176011,1,0
184,252,176156,5,8
184,252,176300,5,0
184,252,176589,5,8
184,252,176877,5,0
184,252,177022,5,8
184,252,177166,5,0
184,252,177455,5,2
184,252,177744,1,6
184,252,178032,5,0
184,252,178177,1,0
184,252,178321,5,8
184,252,178465,1,8
184,252,178610,5,0
184,252,178754,1,0
184,252,178899,5,8
184,252,179043,1,8
184,252,179187,5,0
184,252,179332,1,0
184,252,179476,5,8
184,252,179620,1,8
184,252,179765,5,0
184,252,179909,5,8
184,252,180054,1,8
184,252,180342,5,4
184,252,180631,1,0
184,252,180920,1,0
184,252,181209,5,8
184,252,181353,5,0
184,252,181497,5,8
184,252,181786,5,0
184,252,181930,5,8
184,252,182075,5,0
184,252,182363,5,8
184,252,182652,5,4
184,252,182941,1,0
184,252,183085,1,0
184,252,183230,5,8
184,252,183518,5,4
184,252,183807,5,8
184,252,184096,5,4
184,252,184385,5,8
184,252,184529,5,0
184,252,184673,5,8
184,252,184962,5,4
184,252,185251,5,8
184,252,185540,5,0
184,252,185828,5,8
184,252,185973,1,8
184,252,186117,5,0
184,252,186406,5,2
184,252,186695,1,2
184,252,186983,1,6
184,252,187272,5,0
184,252,187416,5,8
184,252,187561,1,8
184,252,187705,1,8
184,252,187850,1,8
184,252,187994,5,0
184,252,188138,1,0
184,252,188283,1,0
184,252,188427,5,8
184,252,188571,1,8
184,252,188716,1,8
184,252,188860,1,8
184,252,189004,5,0
184,252,189149,5,8
184,252,189293,5,0
184,252,189582,1,4
