osu file format v13

[General]
AudioFilename: 9th life.mp3
AudioLeadIn: 2000
PreviewTime: 36748
Countdown: 0
SampleSet: Normal
StackLeniency: 0.7
Mode: 0
LetterboxInBreaks: 0
WidescreenStoryboard: 0

[Editor]
DistanceSpacing: 1.2
BeatDivisor: 4
GridSize: 32
TimelineZoom: 1.5

[Metadata]
Title:9th Life
TitleUnicode:9th Life
Artist:Papa Roach
ArtistUnicode:Papa Roach
Creator:AlexaBM
Version:Challenging
Source:
Tags:ninth Shadren The Connection
BeatmapID:535594
BeatmapSetID:230225

[Difficulty]
HPDrainRate:6.5
CircleSize:4
OverallDifficulty:6.5
ApproachRate:7.5
SliderMultiplier:1.8
SliderTickRate:1

[Events]
//Background and Video events
0,0,"bg.jpg",0,0
//Break Periods
2,67687,74356
2,127689,134359
//Storyboard Layer 0 (Background)
//Storyboard Layer 1 (Fail)
//Storyboard Layer 2 (Pass)
//Storyboard Layer 3 (Foreground)
//Storyboard Sound Samples

[TimingPoints]
178,468.771973686267,4,1,1,80,1,0
36742,-133.333333333333,4,1,1,80,0,0
37210,-133.333333333333,4,1,1,40,0,0
37679,-90.9090909090909,4,1,1,70,0,1
67212,-90.9090909090909,4,1,1,90,0,1
67681,-100,4,1,1,80,0,0
97682,-90.9090909090909,4,1,1,70,0,1
127215,-90.9090909090909,4,1,1,90,0,1
127683,-111.111111111111,4,1,1,80,0,0
142215,-111.111111111111,4,1,1,40,0,0
142684,-100,4,1,1,80,0,0
158622,-100,4,1,1,40,0,0
159560,-90.9090909090909,4,1,1,70,0,1
188624,-90.9090909090909,4,1,1,80,0,0
189561,-90.9090909090909,4,1,1,40,0,0

[Colours]
Combo1 : 255,47,47
Combo2 : 26,140,255
Combo3 : 249,135,43
Combo4 : 0,191,255
Combo5 : 252,194,88
Combo6 : 130,188,219

[HitObjects]
56,53,178,6,0,P|63:97|53:140,1,90,4|8,0:0|0:0,0:0:0:0:
39,247,646,2,0,P|97:212|173:228,1,135,8|0,0:0|0:0,0:0:0:0:
210,243,1115,2,0,P|248:257|314:249,1,90,4|0,0:3|0:0,0:0:0:0:
380,187,1584,2,0,P|390:143|382:99,1,90,8|0,0:0|0:0,0:0:0:0:
297,51,2053,5,4,0:0:0:0:
100,184,2287,1,0,0:0:0:0:
180,260,2521,2,0,L|184:100,1,135,8|0,0:0|2:0,0:0:0:0:
184,100,2990,1,6,0:3:0:0:
324,24,3225,1,0,0:0:0:0:
416,84,3459,2,0,B|424:148|424:148|408:204|408:204|416:269,1,180,8|4,0:0|0:0,0:0:0:0:
444,364,4162,5,0,0:0:0:0:
320,288,4396,1,8,0:0:0:0:
184,340,4631,1,0,0:0:0:0:
184,340,4748,1,8,0:0:0:0:
184,340,4865,2,0,P|175:276|187:235,1,90,4|0,0:3|0:0,0:0:0:0:
240,160,5334,1,8,0:0:0:0:
436,320,5568,1,0,0:0:0:0:
436,320,5686,1,0,0:0:0:0:
436,320,5803,6,0,L|444:220,1,90,4|0,0:0|0:0,0:0:0:0:
454,122,6272,1,8,0:0:0:0:
365,18,6506,1,0,0:0:0:0:
248,84,6740,5,8,0:0:0:0:
244,101,6858,1,8,0:0:0:0:
241,118,6975,1,8,0:0:0:0:
238,135,7092,1,8,0:0:0:0:
235,152,7209,1,8,0:0:0:0:
232,169,7326,1,8,0:0:0:0:
229,186,7443,1,8,0:0:0:0:
226,203,7561,1,8,0:0:0:0:
223,220,7678,6,0,P|259:256|314:270,1,90,4|8,0:0|0:0,0:0:0:0:
400,239,8147,2,0,P|425:163|397:85,1,135,8|8,0:0|0:0,0:0:0:0:
373,73,8615,2,0,P|334:51|289:54,1,90,4|0,0:3|0:0,0:0:0:0:
204,192,9084,2,0,P|268:194|303:166,1,90,8|0,0:0|0:0,0:0:0:0:
373,73,9553,5,0,0:0:0:0:
233,106,9787,1,0,0:0:0:0:
364,236,10022,2,0,P|410:252|517:155,1,180,12|4,0:0|0:3,0:0:0:0:
293,293,10725,1,0,0:0:0:0:
424,162,10959,2,0,P|440:115|343:8,1,180,12|4,0:0|0:0,0:0:0:0:
148,40,11897,6,0,P|99:58|44:138,1,135,8|8,0:0|0:0,0:0:0:0:
43,175,12366,2,0,L|63:287,1,90,4|0,0:3|0:0,0:0:0:0:
164,352,12834,2,0,L|179:263,1,90,8|0,0:0|0:0,0:0:0:0:
196,248,13186,1,0,0:0:0:0:
216,236,13303,6,0,P|264:224|324:248,1,90,4|4,0:3|0:3,0:0:0:0:
372,316,13772,1,8,0:0:0:0:
440,136,14006,1,0,0:0:0:0:
501,289,14241,1,4,0:3:0:0:
344,208,14475,1,0,0:0:0:0:
344,208,14592,1,0,0:0:0:0:
344,208,14709,2,0,P|272:192|224:196,1,90,8|0,0:0|0:0,0:0:0:0:
100,236,15178,5,4,0:0:0:0:
32,320,15413,1,0,2:0:0:0:
16,160,15647,2,0,L|12:56,1,90,8|0,0:0|2:0,0:0:0:0:
172,156,16116,2,0,L|175:245,1,90,0|0,0:0|2:0,0:0:0:0:
216,348,16585,1,8,0:0:0:0:
324,364,16819,1,0,2:0:0:0:
422,319,17053,6,0,P|448:275|459:234,1,90,0|0,0:0|2:0,0:0:0:0:
436,132,17522,2,0,P|368:88|264:112,2,180,8|0|0,0:0|0:0|0:0,0:0:0:0:
456,240,18694,1,0,2:0:0:0:
336,360,18928,6,0,L|308:248,1,90,0|0,0:0|2:0,0:0:0:0:
236,196,19397,2,0,P|196:192|124:228,1,90,8|0,0:0|2:0,0:0:0:0:
104,304,19866,2,0,L|96:108,1,180,0|8,0:0|0:0,0:0:0:0:
156,32,20569,1,0,2:0:0:0:
314,107,20803,5,0,0:0:0:0:
259,250,21038,1,0,2:0:0:0:
381,228,21272,1,8,0:0:0:0:
226,140,21507,1,0,2:0:0:0:
395,309,21741,2,0,P|456:257|433:166,1,180,4|8,0:2|0:0,0:0:0:0:
337,129,22444,1,0,0:0:0:0:
204,260,22679,6,0,P|124:284|28:244,1,180,4|8,0:0|0:0,0:0:0:0:
152,68,23616,2,0,P|232:44|328:84,1,180,4|8,0:3|0:0,0:0:0:0:
389,158,24319,1,0,2:0:0:0:
500,148,24554,6,0,P|504:100|480:52,1,90,4|0,0:3|2:0,0:0:0:0:
396,120,25022,2,0,L|380:300,2,180,8|4|8,0:0|0:3|0:0,0:0:0:0:
332,32,26194,1,0,2:0:0:0:
200,136,26429,6,0,P|150:149|94:133,1,90,4|2,0:3|0:0,0:0:0:0:
221,50,26898,2,0,P|286:124|252:207,1,180,8|4,0:0|0:3,0:0:0:0:
100,332,27835,1,0,0:0:0:0:
196,380,28069,1,0,2:0:0:0:
288,324,28304,6,0,P|340:312|384:336,2,90,4|0|8,0:3|2:0|0:0,0:0:0:0:
196,380,29007,1,0,2:0:0:0:
196,380,29241,2,0,L|196:184,1,180,4|8,0:3|0:0,0:0:0:0:
246,58,29945,1,4,0:0:0:0:
392,28,30179,5,4,0:2:0:0:
316,232,30648,2,0,P|388:272|488:224,2,180,8|0|8,0:0|0:0|0:0,0:0:0:0:
348,128,31820,1,0,2:0:0:0:
288,40,32054,1,4,0:0:0:0:
196,232,32523,6,0,P|124:272|24:224,2,180,8|0|8,0:0|0:0|0:0,0:0:0:0:
164,128,33695,1,0,2:0:0:0:
224,40,33929,1,4,0:0:0:0:
388,180,34398,6,0,P|412:236|368:340,2,180,8|0|8,0:0|0:0|0:0,0:0:0:0:
180,236,35804,2,0,L|172:132,1,90,4|0,0:0|0:0,0:0:0:0:
156,40,36273,1,8,0:0:0:0:
257,176,36507,1,0,0:0:0:0:
324,20,36742,6,0,P|364:68|364:148,1,135.000005149842,12|4,0:0|2:2,0:0:0:0:
360,156,37679,6,0,L|152:176,1,198.000006042481,4|8,0:0|0:0,0:0:0:0:
56,228,38382,1,2,2:3:0:0:
24,116,38617,2,0,P|20:64|44:12,1,99.0000030212403,0|0,0:0|2:0,0:0:0:0:
132,192,39086,2,0,P|136:244|112:296,1,99.0000030212403,8|0,0:0|2:0,0:0:0:0:
29,366,39554,6,0,P|97:326|225:334,1,198.000006042481,4|8,0:0|0:0,0:0:0:0:
325,366,40258,1,2,2:3:0:0:
409,282,40492,2,0,L|421:174,1,99.0000030212403,0|0,0:0|2:0,0:0:0:0:
320,28,40961,2,0,L|309:126,1,99.0000030212403,8|0,0:0|0:0,0:0:0:0:
268,298,41429,5,4,0:0:0:0:
204,173,41664,1,4,0:0:0:0:
338,217,41898,1,8,0:0:0:0:
167,268,42133,1,0,2:0:0:0:
128,156,42367,2,0,P|193:95|283:169,1,198.000006042481,4|8,0:2|0:0,0:0:0:0:
306,361,43305,5,4,0:0:0:0:
461,249,43539,1,0,2:0:0:0:
447,361,43773,1,8,0:0:0:0:
348,262,44008,1,0,2:0:0:0:
447,361,44242,2,0,B|470:289|470:289|443:169,1,198.000006042481,4|8,0:2|0:0,0:0:0:0:
327,75,44945,1,0,0:0:0:0:
184,180,45180,6,0,P|124:176|132:44,2,198.000006042481,4|8|0,0:0|0:0|0:0,0:0:0:0:
292,132,46352,1,2,2:3:0:0:
400,188,46586,2,0,P|468:192|504:168,1,99.0000030212403,8|0,0:0|2:0,0:0:0:0:
437,72,47055,6,0,B|337:44|337:44|217:64,2,198.000006042481,4|8|0,0:0|0:0|0:0,0:0:0:0:
475,184,48227,1,0,2:0:0:0:
284,281,48461,1,8,0:0:0:0:
419,305,48695,1,0,2:0:0:0:
350,163,48930,6,0,P|311:135|256:128,2,99.0000030212403,4|0|8,0:0|2:0|0:0,0:0:0:0:
444,228,49633,1,0,2:0:0:0:
444,228,49867,2,0,B|464:152|464:152|448:104|448:104|464:20,1,198.000006042481,4|12,0:2|0:0,0:0:0:0:
273,183,50805,6,0,L|255:281,1,99.0000030212403,4|0,0:0|2:0,0:0:0:0:
174,192,51274,1,8,0:0:0:0:
64,256,51508,1,0,0:0:0:0:
64,256,51625,1,8,0:0:0:0:
64,256,51742,2,0,L|82:158,1,99.0000030212403,0|0,0:0|0:0,0:0:0:0:
116,44,52211,1,8,0:0:0:0:
174,191,52446,1,0,0:0:0:0:
116,44,52680,6,0,P|204:64|332:28,1,198.000006042481,4|8,0:0|0:0,0:0:0:0:
112,176,53618,2,0,P|200:196|328:160,1,198.000006042481,4|8,0:0|0:0,0:0:0:0:
388,92,54321,6,0,L|392:320,1,198.000006042481,2|0,2:3|2:0,0:0:0:0:
480,372,55024,1,8,0:0:0:0:
480,372,55258,2,0,L|476:174,1,198.000006042481,2|0,2:3|2:0,0:0:0:0:
432,64,55961,1,8,0:0:0:0:
256,32,56196,1,0,0:0:0:0:
80,64,56430,6,0,P|56:132|88:176,1,99.0000030212403,0|0,0:0|2:0,0:0:0:0:
152,180,56899,2,0,P|96:192|80:328,2,198.000006042481,8|0|12,0:0|0:0|0:0,0:0:0:0:
329,298,58305,5,4,0:0:0:0:
336,187,58540,1,0,0:0:0:0:
341,77,58774,1,12,0:0:0:0:
444,247,59008,1,0,0:0:0:0:
336,187,59243,2,0,P|309:174|237:197,1,99.0000030212403,4|0,0:0|0:0,0:0:0:0:
288,345,59712,2,0,P|301:318|289:245,1,99.0000030212403,4|0,0:2|0:0,0:0:0:0:
125,141,60180,6,0,B|160:180|132:234|132:234|106:284|134:329,2,198.000006042481,4|8|0,0:0|0:0|0:0,0:0:0:0:
378,329,61587,1,8,0:0:0:0:
378,329,61821,1,0,0:0:0:0:
378,329,62055,6,0,B|406:284|380:234|380:234|352:180|396:130,2,198.000006042481,4|8|0,0:0|0:0|0:0,0:0:0:0:
259,342,63227,1,0,0:0:0:0:
114,258,63462,1,8,0:0:0:0:
241,218,63696,1,0,0:0:0:0:
165,352,63930,6,0,P|117:366|59:352,2,99.0000030212403,4|0|8,0:0|0:0|0:0,0:0:0:0:
256,275,64634,1,0,0:0:0:0:
176,188,64868,2,0,P|116:156|-4:201,1,198.000006042481,4|8,0:2|0:0,0:0:0:0:
91,276,65571,1,0,0:0:0:0:
256,275,65806,6,0,P|307:275|356:308,1,99.0000030212403,4|0,0:0|0:0,0:0:0:0:
422,365,66274,1,8,0:0:0:0:
400,222,66509,1,0,0:0:0:0:
283,348,66743,5,4,0:2:0:0:
258,92,67212,1,12,0:0:0:0:
24,192,75181,5,4,0:0:0:0:
72,40,75415,1,0,2:0:0:0:
152,168,75650,2,0,P|237:192|321:164,1,180,8|0,0:0|0:0,0:0:0:0:
408,100,76353,1,0,0:0:0:0:
408,100,76470,1,0,0:0:0:0:
408,100,76587,2,0,L|428:216,1,90,8|0,0:0|0:0,0:0:0:0:
344,348,77056,6,0,L|324:232,1,90,4|0,0:0|2:0,0:0:0:0:
287,160,77525,2,0,P|215:208|130:186,1,180,8|0,0:0|0:0,0:0:0:0:
183,25,78228,1,0,0:0:0:0:
183,25,78345,1,0,0:0:0:0:
183,25,78462,2,0,L|201:121,1,90,8|0,0:0|0:0,0:0:0:0:
252,348,78931,5,4,0:0:0:0:
340,284,79166,1,0,2:0:0:0:
437,332,79400,2,0,B|459:290|442:245|442:245|420:193|444:156,1,180,8|0,0:0|0:0,0:0:0:0:
492,62,80103,1,0,0:0:0:0:
492,62,80220,1,0,0:0:0:0:
492,62,80338,2,0,P|444:54|380:62,1,90,8|0,0:0|0:0,0:0:0:0:
302,96,80806,6,0,P|257:98|212:90,1,90,4|0,0:0|2:0,0:0:0:0:
136,164,81275,2,0,P|138:208|130:253,1,90,8|0,0:0|0:0,0:0:0:0:
76,348,81744,1,0,0:0:0:0:
184,360,81978,1,8,0:0:0:0:
206,356,82095,1,8,0:0:0:0:
228,353,82213,1,8,0:0:0:0:
250,349,82330,1,8,0:0:0:0:
273,346,82447,1,0,0:0:0:0:
412,360,82681,6,0,L|428:260,1,90,4|0,0:3|2:0,0:0:0:0:
400,164,83150,2,0,P|340:128|224:160,2,180,8|4|8,0:0|0:3|0:0,0:0:0:0:
452,260,84322,1,0,0:0:0:0:
348,289,84556,6,0,P|296:294|238:264,1,90,4|0,0:3|2:0,0:0:0:0:
231,236,84908,1,0,0:0:0:0:
231,236,85025,2,0,L|130:231,1,90,8|0,0:0|2:0,0:0:0:0:
32,232,85494,2,0,P|24:296|44:356,1,90,4|0,0:3|2:0,0:0:0:0:
64,360,85846,1,0,0:0:0:0:
64,360,85963,2,0,P|128:368|188:348,1,90,8|0,0:0|0:0,0:0:0:0:
318,227,86432,5,4,0:3:0:0:
440,336,86666,1,0,0:0:0:0:
440,336,86783,1,0,0:0:0:0:
440,336,86900,2,0,L|448:220,1,90,8|0,0:0|0:0,0:0:0:0:
428,140,87369,2,0,P|384:84|272:100,1,180,4|8,0:3|0:0,0:0:0:0:
211,172,88072,1,0,0:0:0:0:
132,312,88307,5,4,0:3:0:0:
32,180,88541,1,0,2:0:0:0:
12,312,88775,1,8,0:0:0:0:
164,216,89010,5,8,0:0:0:0:
188,221,89127,1,8,0:0:0:0:
209,234,89244,1,8,0:0:0:0:
227,251,89361,1,8,0:0:0:0:
240,272,89479,1,4,0:3:0:0:
247,292,89596,1,8,0:0:0:0:
250,314,89713,1,8,0:0:0:0:
347,356,89947,1,0,0:0:0:0:
347,356,90065,1,8,0:0:0:0:
347,356,90182,6,0,P|396:333|402:189,2,180,4|8|0,0:0|0:0|0:0,0:0:0:0:
240,336,91354,1,0,0:0:0:0:
240,336,91471,1,0,0:0:0:0:
240,336,91588,2,0,P|216:288|220:240,1,90,8|0,0:0|2:0,0:0:0:0:
300,180,92057,6,0,P|240:224|144:156,1,180,4|8,0:0|0:0,0:0:0:0:
108,84,92760,1,0,2:0:0:0:
108,84,92994,2,0,L|100:288,1,180,0|8,0:0|0:0,0:0:0:0:
148,360,93698,1,0,0:0:0:0:
300,212,93932,5,4,0:0:0:0:
376,288,94166,1,0,2:0:0:0:
396,128,94401,2,0,P|313:83|212:119,2,180,8|0|8,0:0|0:0|0:0,0:0:0:0:
496,320,95807,5,4,0:0:0:0:
392,344,96041,1,0,0:0:0:0:
496,320,96276,1,8,0:0:0:0:
380,217,96510,1,0,0:0:0:0:
496,320,96745,1,8,0:0:0:0:
496,320,96862,1,0,0:0:0:0:
496,320,96979,1,0,0:0:0:0:
488,212,97213,2,0,L|481:98,1,90,8|4,0:0|0:0,0:0:0:0:
356,208,97682,6,0,P|264:245|167:198,2,198.000006042481,4|8|0,0:2|0:0|0:0,0:0:0:0:
196,32,99088,1,8,0:0:0:0:
233,145,99323,1,0,2:0:0:0:
196,32,99557,6,0,B|142:24|142:24|96:37,1,99.0000030212403,4|0,0:0|2:0,0:0:0:0:
10,208,100026,2,0,B|63:215|63:215|109:202,1,99.0000030212403,8|2,0:0|2:3,0:0:0:0:
212,256,100495,2,0,L|212:388,1,99.0000030212403,0|0,0:0|2:0,0:0:0:0:
318,187,100963,2,0,L|318:286,1,99.0000030212403,8|0,0:0|0:0,0:0:0:0:
423,120,101432,5,4,0:0:0:0:
472,240,101667,1,0,2:0:0:0:
451,47,101901,2,0,P|394:45|348:112,1,99.0000030212403,8|0,0:0|2:0,0:0:0:0:
280,156,102370,2,0,B|216:188|168:144|168:144|112:136|68:184,1,198.000006042481,4|8,0:2|0:0,0:0:0:0:
295,288,103307,5,4,0:0:0:0:
355,150,103542,1,0,2:0:0:0:
473,244,103776,1,8,0:0:0:0:
407,79,104010,1,0,2:0:0:0:
368,236,104245,2,0,P|325:231|283:198,1,99.0000030212403,4|0,0:2|0:0,0:0:0:0:
179,138,104714,2,0,P|174:188|134:239,1,99.0000030212403,8|0,0:0|0:0,0:0:0:0:
94,93,105182,6,0,P|197:44|266:99,1,198.000006042481,4|8,0:0|0:0,0:0:0:0:
435,245,106120,2,0,P|332:294|263:239,1,198.000006042481,0|8,0:0|0:0,0:0:0:0:
215,147,106823,1,0,2:0:0:0:
120,216,107058,6,0,L|100:324,1,99.0000030212403,4|0,0:0|2:0,0:0:0:0:
41,147,107526,2,0,P|98:114|160:118,1,99.0000030212403,8|0,0:0|2:0,0:0:0:0:
239,159,107995,1,0,0:0:0:0:
459,44,108464,1,8,0:0:0:0:
408,134,108698,1,0,0:0:0:0:
350,53,108933,5,4,0:0:0:0:
487,118,109167,1,0,2:0:0:0:
350,53,109401,2,0,P|301:54|260:81,1,99.0000030212403,8|0,0:0|2:0,0:0:0:0:
213,158,109870,2,0,B|276:190|328:140|328:140|370:135|400:156,1,198.000006042481,4|8,0:2|0:0,0:0:0:0:
474,340,110808,6,0,L|486:224,1,99.0000030212403,4|0,0:0|2:0,0:0:0:0:
361,294,111276,1,4,0:0:0:0:
376,160,111511,1,0,0:0:0:0:
376,160,111628,1,0,0:0:0:0:
376,160,111745,2,0,L|388:41,1,99.0000030212403
288,248,112214,1,4,0:0:0:0:
288,248,112448,1,0,0:0:0:0:
288,248,112683,6,0,P|212:280|156:164,1,198.000006042481,4|8,0:0|0:0,0:0:0:0:
214,368,113620,2,0,P|122:333|66:253,1,198.000006042481,4|8,0:0|0:0,0:0:0:0:
24,140,114323,6,0,B|83:121|131:152|131:152|187:151|225:97,1,198.000006042481,2|0,2:3|2:0,0:0:0:0:
284,28,115027,1,8,0:0:0:0:
284,28,115261,2,0,L|300:240,1,198.000006042481,2|0,2:3|2:0,0:0:0:0:
418,209,115964,1,8,0:0:0:0:
246,361,116199,1,0,0:0:0:0:
60,308,116433,6,0,L|76:184,1,99.0000030212403,4|0,0:0|2:0,0:0:0:0:
172,65,116902,2,0,L|184:164,1,99.0000030212403,8|0,0:0|2:0,0:0:0:0:
296,292,117370,2,0,B|384:320|416:248|416:248|456:248|472:208,1,198.000006042481,0|8,0:0|0:0,0:0:0:0:
108,163,118308,6,0,P|150:207|160:113,1,198.000006042481,4|8,0:0|0:0,0:0:0:0:
408,163,119246,2,0,P|366:207|356:113,1,198.000006042481,0|8,0:0|0:0,0:0:0:0:
165,323,120183,6,0,B|221:326|256:290|256:290|291:326|345:324,2,198.000006042481,4|8|0,0:0|0:0|0:0,0:0:0:0:
256,104,121589,1,8,0:0:0:0:
256,104,121824,1,0,0:0:0:0:
340,188,122058,6,0,P|369:138|312:-3,1,198.000006042481,4|8,0:0|0:0,0:0:0:0:
280,264,122996,2,0,P|324:285|393:272,1,99.0000030212403
184,184,123465,2,0,P|140:163|71:176,1,99.0000030212403,8|0,0:0|0:0,0:0:0:0:
12,256,123933,5,4,0:0:0:0:
64,48,124168,1,0,0:0:0:0:
208,156,124402,2,0,P|256:156|308:120,1,99.0000030212403,8|0,0:0|0:0,0:0:0:0:
384,48,124871,2,0,P|393:141|484:204,1,198.000006042481,4|8,0:2|0:0,0:0:0:0:
497,85,125574,1,0,0:0:0:0:
288,112,125808,6,0,L|179:131,1,99.0000030212403,4|0,0:0|0:0,0:0:0:0:
80,174,126277,1,8,0:0:0:0:
241,252,126512,1,0,0:0:0:0:
94,353,126746,5,4,0:2:0:0:
418,353,127215,1,4,0:0:0:0:
359,214,135184,6,0,L|270:179,1,80.9999975280763,12|0,0:0|2:0,0:0:0:0:
219,110,135653,1,8,0:0:0:0:
131,68,135887,1,0,2:0:0:0:
42,189,136121,1,8,0:0:0:0:
136,167,136356,1,0,2:0:0:0:
110,260,136590,1,8,0:0:0:0:
313,251,137059,5,8,0:0:0:0:
226,207,137528,1,8,0:0:0:0:
136,167,137996,1,8,0:0:0:0:
45,126,138465,1,8,0:0:0:0:
261,92,138934,6,0,P|255:42|277:-5,2,80.9999975280763,12|0|8,0:0|2:0|0:0,0:0:0:0:
308,176,139637,1,0,2:0:0:0:
405,167,139872,1,0,0:0:0:0:
381,263,140106,5,0,2:0:0:0:
345,245,140223,1,0,2:0:0:0:
319,215,140340,1,0,0:0:0:0:
308,176,140458,1,8,0:0:0:0:
312,136,140575,1,8,0:0:0:0:
332,101,140692,1,8,0:0:0:0:
365,77,140809,1,12,0:0:0:0:
472,304,142215,6,0,L|472:342,6,20.2499993820191,4|0|0|0|0|0|0,0:0|0:0|0:0|0:0|0:0|0:0|0:0,0:0:0:0:
472,304,142684,6,0,L|376:307,1,90,4|0,0:0|0:0,0:0:0:0:
288,256,143153,1,4,0:3:0:0:
200,320,143387,1,0,0:0:0:0:
108,264,143622,1,8,0:0:0:0:
16,320,143856,2,0,L|4:208,1,90,0|4,0:0|0:3,0:0:0:0:
28,124,144325,1,0,0:0:0:0:
236,40,144559,6,0,P|300:36|328:44,1,90,4|0,0:0|0:0,0:0:0:0:
324,152,145028,2,0,P|260:156|232:148,2,90,4|0|8,0:3|0:0|0:0,0:0:0:0:
417,97,145731,1,0,0:0:0:0:
488,176,145966,1,4,0:3:0:0:
484,196,146083,1,8,0:0:0:0:
480,216,146200,1,0,0:0:0:0:
476,236,146317,1,8,0:0:0:0:
472,260,146434,6,0,P|421:270|368:256,1,90,4|0,0:3|0:0,0:0:0:0:
264,148,146903,1,4,0:3:0:0:
180,216,147138,1,0,0:0:0:0:
88,160,147372,2,0,P|36:148|-12:160,2,90,8|0|4,0:0|0:0|0:3,0:0:0:0:
260,292,148075,1,8,0:0:0:0:
260,292,148192,1,8,0:0:0:0:
260,292,148309,6,0,L|280:196,1,90,4|0,0:0|0:0,0:0:0:0:
308,100,148778,1,0,0:0:0:0:
376,280,149013,1,8,0:0:0:0:
380,257,149130,1,8,0:0:0:0:
384,235,149247,1,8,0:0:0:0:
389,213,149364,1,8,0:0:0:0:
393,191,149481,1,0,0:0:0:0:
416,84,149716,1,8,0:0:0:0:
277,82,149950,1,0,0:0:0:0:
288,216,150185,6,0,P|236:224|192:208,1,90,4|0,0:0|0:0,0:0:0:0:
108,160,150653,1,4,0:3:0:0:
24,48,150888,1,0,0:0:0:0:
16,252,151122,1,8,0:0:0:0:
92,328,151356,2,0,P|130:338|192:320,1,90,0|4,0:0|0:3,0:0:0:0:
268,268,151825,1,0,0:0:0:0:
460,360,152060,6,0,L|472:260,1,90,4|0,0:0|0:0,0:0:0:0:
419,175,152528,2,0,P|368:166|319:184,2,90,4|0|8,0:3|0:0|0:0,0:0:0:0:
377,274,153232,1,8,0:0:0:0:
332,176,153466,1,4,0:3:0:0:
324,156,153583,1,8,0:0:0:0:
316,136,153700,1,0,0:0:0:0:
308,116,153818,1,8,0:0:0:0:
300,96,153935,6,0,P|243:115|197:102,1,90,4|0,0:0|0:0,0:0:0:0:
117,63,154403,2,0,L|110:170,1,90,4|0,0:3|0:0,0:0:0:0:
78,256,154872,1,8,0:0:0:0:
154,332,155107,1,0,0:0:0:0:
246,274,155341,1,4,0:3:0:0:
288,258,155458,1,8,0:0:0:0:
332,257,155575,1,8,0:0:0:0:
375,269,155693,1,8,0:0:0:0:
412,294,155810,1,12,0:0:0:0:
256,192,155927,12,0,158622,2:0:0:0:
158,250,159560,6,0,P|99:260|59:147,2,198.000006042481,4|8|0,0:0|0:0|0:0,0:0:0:0:
320,75,160966,1,8,0:0:0:0:
432,36,161201,1,0,2:0:0:0:
412,153,161435,6,0,B|423:228|423:228|408:281|408:281|418:352,2,198.000006042481,4|8|0,0:0|0:0|0:0,0:0:0:0:
134,104,162841,1,8,0:0:0:0:
287,145,163076,1,0,0:0:0:0:
175,253,163310,6,0,L|60:270,1,99.0000030212403,4|0,0:0|2:0,0:0:0:0:
142,367,163779,2,0,L|239:352,1,99.0000030212403,8|0,0:0|2:0,0:0:0:0:
346,299,164248,2,0,B|398:243|366:175|366:175|382:143|366:107,1,198.000006042481,4|8,0:2|0:0,0:0:0:0:
131,126,165185,5,4,0:0:0:0:
77,50,165420,1,0,2:0:0:0:
203,210,165654,1,8,0:0:0:0:
240,114,165888,1,0,2:0:0:0:
307,191,166123,2,0,P|350:181|411:197,1,99.0000030212403,4|0,0:0|0:0,0:0:0:0:
456,102,166592,2,0,P|425:58|419:3,1,99.0000030212403,8|0,0:0|0:0,0:0:0:0:
303,44,167060,6,0,B|265:68|205:50|205:50|141:31|80:74,2,198.000006042481,4|8|0,0:0|0:0|0:0,0:0:0:0:
338,279,168467,2,0,P|398:263|442:283,1,99.0000030212403,8|0,0:0|2:0,0:0:0:0:
259,338,168935,6,0,P|199:354|155:334,1,99.0000030212403,4|0,0:0|2:0,0:0:0:0:
87,252,169404,2,0,B|70:201|87:160|87:160|130:112|106:51,2,198.000006042481,8|0|8,0:0|0:0|0:0,0:0:0:0:
155,349,170576,1,0,0:0:0:0:
312,237,170810,6,0,L|426:249,2,99.0000030212403,4|0|8,0:0|2:0|0:0,0:0:0:0:
209,297,171514,1,0,2:0:0:0:
118,219,171748,2,0,P|95:140|127:20,1,198.000006042481,4|8,0:2|0:0,0:0:0:0:
335,132,172686,6,0,P|389:144|437:124,1,99.0000030212403,0|0,0:0|2:0,0:0:0:0:
503,36,173154,1,8,0:0:0:0:
490,220,173389,1,0,0:0:0:0:
490,220,173506,1,8,0:0:0:0:
490,220,173623,1,0,0:0:0:0:
398,295,173858,2,0,P|344:306|292:294,1,99.0000030212403,0|8,0:0|0:0,0:0:0:0:
211,219,174326,1,0,0:0:0:0:
141,314,174561,6,0,P|94:231|131:134,1,198.000006042481,4|8,0:0|0:0,0:0:0:0:
386,139,175498,2,0,P|418:230|371:314,1,198.000006042481,4|8,0:0|0:0,0:0:0:0:
256,347,176201,1,0,2:0:0:0:
141,313,176436,6,0,P|103:268|96:218,1,99.0000030212403,4|0,0:0|2:0,0:0:0:0:
163,131,176905,2,0,P|92:150|0:64,2,198.000006042481,8|0|8,0:0|0:0|0:0,0:0:0:0:
204,19,178076,1,0,2:0:0:0:
273,117,178311,6,0,L|291:228,1,99.0000030212403,4|0,0:0|2:0,0:0:0:0:
381,139,178780,2,0,L|396:236,1,99.0000030212403,12|0,0:0|2:0,0:0:0:0:
482,154,179248,2,0,L|509:314,1,148.50000453186,4|2,0:0|0:3,0:0:0:0:
509,324,179717,1,8,0:0:0:0:
297,315,180186,5,4,0:0:0:0:
200,247,180420,1,0,0:0:0:0:
24,306,180655,1,8,0:0:0:0:
59,192,180889,1,0,0:0:0:0:
192,55,181123,2,0,P|247:44|312:64,2,99.0000030212403,4|0|8,0:0|0:0|0:0,0:0:0:0:
190,193,181827,1,0,0:0:0:0:
311,258,182061,6,0,B|354:289|406:274|406:274|447:239|500:255,2,198.000006042481,4|8|0,0:0|0:0|0:0,0:0:0:0:
111,127,183467,1,8,0:0:0:0:
111,127,183702,1,0,0:0:0:0:
111,127,183936,6,0,B|74:166|78:196|78:196|119:258|83:333,1,198.000006042481,4|8,0:0|0:0,0:0:0:0:
329,320,184874,2,0,P|351:258|330:208,1,99.0000030212403
297,117,185342,2,0,P|359:139|409:118,1,99.0000030212403,8|0,0:0|0:0,0:0:0:0:
501,92,185811,6,0,P|479:154|500:204,1,99.0000030212403,4|0,0:0|0:0,0:0:0:0:
502,302,186280,1,8,0:0:0:0:
393,254,186514,1,0,0:0:0:0:
305,334,186749,2,0,B|248:350|208:324|208:324|161:295|99:324,1,198.000006042481,4|8,0:2|0:0,0:0:0:0:
7,371,187452,1,0,0:0:0:0:
68,163,187686,5,4,0:0:0:0:
159,287,187921,1,0,0:0:0:0:
51,270,188155,1,8,0:0:0:0:
176,179,188389,1,0,0:0:0:0:
326,304,188624,6,0,B|352:255|330:207|330:207|340:180|323:153,1,148.50000453186,8|0,0:0|2:0,0:0:0:0:
290,114,189093,2,0,P|368:128|400:27,1,198.000006042481,8|4,0:0|0:1,0:0:0:0:
