osu file format v13

[General]
AudioFilename: 9th life.mp3
AudioLeadIn: 2000
PreviewTime: 36748
Countdown: 0
SampleSet: Normal
StackLeniency: 0.7
Mode: 0
LetterboxInBreaks: 0
WidescreenStoryboard: 0

[Editor]
DistanceSpacing: 1.2
BeatDivisor: 4
GridSize: 16
TimelineZoom: 1.5

[Metadata]
Title:9th Life
TitleUnicode:9th Life
Artist:Papa Roach
ArtistUnicode:Papa Roach
Creator:AlexaBM
Version:Advanced
Source:
Tags:ninth Shadren The Connection
BeatmapID:535595
BeatmapSetID:230225

[Difficulty]
HPDrainRate:4.5
CircleSize:3
OverallDifficulty:3.5
ApproachRate:5
SliderMultiplier:1.4
SliderTickRate:1

[Events]
//Background and Video events
0,0,"bg.jpg",0,0
//Break Periods
2,67687,73981
2,127689,133984
//Storyboard Layer 0 (Background)
//Storyboard Layer 1 (Fail)
//Storyboard Layer 2 (Pass)
//Storyboard Layer 3 (Foreground)
//Storyboard Sound Samples

[TimingPoints]
178,468.771973686267,4,1,1,80,1,0
37210,-100,4,1,1,60,0,0
37679,-90.9090909090909,4,1,1,70,0,1
67212,-90.9090909090909,4,1,1,90,0,1
67681,-100,4,1,1,80,0,0
97682,-90.9090909090909,4,1,1,70,0,1
127215,-90.9090909090909,4,1,1,90,0,1
127683,-100,4,1,1,80,0,0
142684,-100,4,1,1,80,0,0
158622,-100,4,1,1,40,0,0
159560,-90.9090909090909,4,1,1,70,0,1
188624,-90.9090909090909,4,1,1,80,0,0
189561,-90.9090909090909,4,1,1,40,0,0

[Colours]
Combo1 : 255,47,47
Combo2 : 26,140,255
Combo3 : 249,135,43
Combo4 : 0,191,255
Combo5 : 252,194,88
Combo6 : 130,188,219

[HitObjects]
29,246,178,6,0,P|91:265|185:235,1,140,4|8,0:0|0:0,0:0:0:0:
297,150,1115,2,0,L|376:157,2,70,4|0|8,0:3|0:0|0:0,0:0:0:0:
235,92,1818,1,0,0:0:0:0:
179,29,2053,2,0,L|109:22,1,70,4|0,0:0|0:0,0:0:0:0:
34,61,2521,2,0,P|5:116|32:205,1,140,8|6,0:0|0:3,0:0:0:0:
66,259,3225,1,0,0:0:0:0:
145,286,3459,1,8,0:0:0:0:
307,335,3928,6,0,P|360:332|405:259,1,140,4|8,0:0|0:0,0:0:0:0:
316,121,4865,2,0,P|276:114|223:137,1,70,4|0,0:3|0:0,0:0:0:0:
173,159,5334,2,0,P|138:165|104:158,1,70,8|0,0:0|0:0,0:0:0:0:
65,83,5803,2,0,L|55:240,1,140,4|8,0:0|0:0,0:0:0:0:
160,354,6740,6,0,B|193:371|228:354|228:354|263:371|295:354|295:354|329:371|363:354|363:354|399:371|435:354,1,280,8|4,0:0|0:0,0:0:0:0:
497,202,8147,1,8,0:0:0:0:
358,108,8615,2,0,P|330:87|296:79,1,70,4|0,0:3|0:0,0:0:0:0:
215,103,9084,2,0,P|181:95|153:74,1,70,8|0,0:0|0:0,0:0:0:0:
102,141,9553,2,0,L|104:216,1,70,0|0,0:0|0:0,0:0:0:0:
142,285,10022,1,12,0:0:0:0:
294,213,10490,2,0,L|296:288,1,70,4|0,0:3|0:0,0:0:0:0:
334,357,10959,1,12,0:0:0:0:
470,259,11428,6,0,L|480:106,2,140,4|8|4,0:0|0:0|0:3,0:0:0:0:
320,336,12834,1,8,0:0:0:0:
267,269,13069,1,0,0:0:0:0:
189,312,13303,2,0,L|182:400,2,70,4|4|8,0:3|0:3|0:0,0:0:0:0:
111,278,14006,1,0,0:0:0:0:
39,321,14241,2,0,B|20:289|31:250|31:250|45:208|23:172,1,140,4|8,0:3|0:0,0:0:0:0:
37,17,15178,5,4,0:0:0:0:
205,24,15647,1,8,0:0:0:0:
321,146,16116,2,0,P|334:185|326:233,1,70,0|0,0:0|2:0,0:0:0:0:
263,261,16585,2,0,P|250:228|251:193,1,70,8|0,0:0|2:0,0:0:0:0:
246,109,17053,1,0,0:0:0:0:
56,96,17522,2,0,L|69:243,2,140,8|0|0,0:0|0:0|0:0,0:0:0:0:
112,33,18694,2,0,P|156:27|199:45,1,70,0|0,2:0|0:0,0:0:0:0:
336,96,19397,6,0,L|489:94,2,140,8|0|8,0:0|0:0|0:0,0:0:0:0:
168,112,20803,2,0,P|132:124|99:158,1,70,0|0,0:0|2:0,0:0:0:0:
87,226,21272,2,0,L|94:302,1,70,8|0,0:0|2:0,0:0:0:0:
147,360,21741,2,0,P|224:369|309:332,1,140,4|8,0:2|0:0,0:0:0:0:
343,292,22444,1,0,0:0:0:0:
343,207,22679,6,0,B|348:155|395:133|395:133|402:86,2,140,4|8|4,0:0|0:0|0:3,0:0:0:0:
202,299,24085,2,0,P|141:304|116:295,1,70,8|0,0:0|2:0,0:0:0:0:
72,243,24554,2,0,P|67:208|75:174,1,70,4|0,0:3|2:0,0:0:0:0:
137,118,25022,2,0,P|86:135|21:71,2,140,8|4|8,0:0|0:3|0:0,0:0:0:0:
189,52,26194,1,0,2:0:0:0:
264,89,26429,2,0,L|344:82,1,70,4|2,0:3|0:0,0:0:0:0:
408,121,26898,6,0,P|425:202|397:276,1,140,8|4,0:0|0:3,0:0:0:0:
241,251,27835,2,0,P|199:242|149:253,1,70,0|0,0:0|2:0,0:0:0:0:
101,290,28304,2,0,L|105:364,2,70,4|0|8,0:3|2:0|0:0,0:0:0:0:
32,241,29007,1,0,2:0:0:0:
13,159,29241,2,0,P|7:88|42:23,1,140,4|8,0:3|0:0,0:0:0:0:
121,20,29945,1,4,0:0:0:0:
192,64,30179,1,4,0:2:0:0:
356,97,30648,6,0,P|423:95|453:20,2,140,8|0|8,0:0|0:0|0:0,0:0:0:0:
286,144,31820,1,0,2:0:0:0:
282,228,32054,1,4,0:0:0:0:
130,294,32523,2,0,L|103:152,2,140,8|0|8,0:0|0:0|0:0,0:0:0:0:
183,359,33695,1,0,2:0:0:0:
264,341,33929,1,4,0:0:0:0:
415,268,34398,6,0,B|435:239|414:198|414:198|411:159|438:124,2,140,8|0|8,0:0|0:0|0:0,0:0:0:0:
253,311,35804,2,0,L|264:390,2,70,4|0|8,0:0|0:0|0:0,0:0:0:0:
194,250,36507,1,0,0:0:0:0:
221,170,36742,2,0,P|260:136|344:161,1,140,12|4,0:0|2:0,0:0:0:0:
492,259,37679,6,0,L|504:96,1,154.000004699707,4|8,0:0|0:0,0:0:0:0:
341,14,38617,2,0,L|329:167,1,154.000004699707,0|8,0:0|0:0,0:0:0:0:
208,307,39554,1,4,0:0:0:0:
64,193,40023,2,0,L|47:358,2,154.000004699707,8|0|8,0:0|0:0|0:0,0:0:0:0:
28,107,41195,1,0,0:0:0:0:
98,47,41429,6,0,P|152:40|182:50,1,77.0000023498536,4|4,0:0|0:0,0:0:0:0:
261,73,41898,2,0,P|298:79|336:72,1,77.0000023498536,8|0,0:0|2:0,0:0:0:0:
415,24,42367,2,0,P|387:82|419:187,1,154.000004699707,4|8,0:2|0:0,0:0:0:0:
345,341,43305,1,4,0:0:0:0:
261,302,43539,2,0,L|161:312,2,77.0000023498536,0|8|0,2:0|0:0|2:0,0:0:0:0:
303,219,44242,2,0,L|403:209,2,77.0000023498536,4|0|8,0:2|0:0|0:0,0:0:0:0:
221,174,44945,1,0,0:0:0:0:
140,127,45180,6,0,P|53:120|-7:183,1,154.000004699707,4|8,0:0|0:0,0:0:0:0:
46,339,46117,2,0,P|133:346|193:283,1,154.000004699707,0|8,0:0|0:0,0:0:0:0:
344,217,47055,2,0,L|527:209,2,154.000004699707,4|8|0,0:0|0:0|0:0,0:0:0:0:
163,178,48461,1,8,0:0:0:0:
268,26,48930,6,0,P|304:12|342:19,1,77.0000023498536,4|0,0:0|2:0,0:0:0:0:
420,66,49399,2,0,P|434:102|427:140,1,77.0000023498536,8|0,0:0|2:0,0:0:0:0:
349,187,49867,2,0,P|412:167|497:227,1,154.000004699707,4|12,0:2|0:0,0:0:0:0:
316,285,50805,2,0,P|279:274|242:279,1,77.0000023498536,4|0,0:0|2:0,0:0:0:0:
163,328,51274,2,0,P|111:331|73:312,2,77.0000023498536,8|0|0,0:0|0:0|0:0,0:0:0:0:
242,279,51977,1,0,0:0:0:0:
279,195,52211,2,0,P|282:143|263:105,1,77.0000023498536,8|0,0:0|0:0,0:0:0:0:
192,74,52680,6,0,P|261:82|315:-6,2,154.000004699707,4|8|4,0:0|0:0|0:0,0:0:0:0:
85,221,54086,1,8,0:0:0:0:
230,335,54555,2,0,B|268:347|307:327|307:327|345:307|388:328,2,154.000004699707,0|8|0,0:0|0:0|0:0,0:0:0:0:
85,221,55961,2,0,P|79:173|93:131,1,77.0000023498536,8|0,0:0|0:0,0:0:0:0:
151,80,56430,6,0,P|230:58|305:97,2,154.000004699707,0|8|0,0:0|0:0|0:0,0:0:0:0:
18,209,57836,1,12,0:0:0:0:
178,300,58305,2,0,L|168:380,2,77.0000023498536,4|0|12,0:0|0:0|0:0,0:0:0:0:
241,232,59008,1,0,0:0:0:0:
295,157,59243,2,0,L|285:77,2,77.0000023498536,4|0|4,0:0|0:0|0:2,0:0:0:0:
378,197,59946,1,0,0:0:0:0:
436,267,60180,6,0,P|468:198|428:120,2,154.000004699707,4|8|0,0:0|0:0|0:0,0:0:0:0:
254,231,61587,1,8,0:0:0:0:
182,289,61821,1,0,0:0:0:0:
109,231,62055,2,0,L|98:62,1,154.000004699707,4|8,0:0|0:0,0:0:0:0:
284,73,62993,2,0,L|382:51,2,77.0000023498536,0|0|8,0:0|0:0|0:0,0:0:0:0:
230,148,63696,1,0,0:0:0:0:
174,221,63930,6,0,L|76:243,2,77.0000023498536,4|0|8,0:0|0:0|0:0,0:0:0:0:
244,281,64634,1,0,0:0:0:0:
319,334,64868,2,0,P|374:343|453:271,1,154.000004699707,4|8,0:2|0:0,0:0:0:0:
488,105,65806,1,4,0:0:0:0:
405,63,66040,1,0,0:0:0:0:
325,109,66274,2,0,P|278:103|239:77,1,77.0000023498536,8|0,0:0|0:0,0:0:0:0:
188,22,66743,5,4,0:2:0:0:
141,200,67212,1,12,0:0:0:0:
83,329,75181,6,0,P|63:297|75:249,1,70,4|0,0:0|2:0,0:0:0:0:
129,211,75650,2,0,L|281:196,2,140,8|0|8,0:0|0:0|0:0,0:0:0:0:
55,170,76822,1,0,0:0:0:0:
97,98,77056,1,4,0:0:0:0:
242,13,77525,1,8,0:0:0:0:
367,125,77994,2,0,P|387:217|358:270,1,140,0|8,0:0|0:0,0:0:0:0:
301,305,78697,1,0,0:0:0:0:
228,263,78931,2,0,P|186:257|144:273,1,70,4|0,0:0|2:0,0:0:0:0:
109,332,79400,6,0,L|110:173,1,140,8|0,0:0|0:0,0:0:0:0:
214,60,80338,1,8,0:0:0:0:
285,15,80572,1,0,0:0:0:0:
359,53,80806,2,0,L|372:136,1,70,4|0,0:0|2:0,0:0:0:0:
433,177,81275,2,0,L|422:246,1,70,8|0,0:0|0:0,0:0:0:0:
400,327,81744,2,0,B|365:317|348:286|348:286|313:283|261:318,1,140,0|8,0:0|0:0,0:0:0:0:
214,359,82447,1,0,0:0:0:0:
144,312,82681,6,0,L|131:155,1,140,4|8,0:3|0:0,0:0:0:0:
271,77,83619,2,0,L|282:216,1,140,4|8,0:3|0:0,0:0:0:0:
317,293,84322,1,0,0:0:0:0:
369,358,84556,1,4,0:3:0:0:
504,258,85025,2,0,L|492:111,2,140,8|4|8,0:0|0:3|0:0,0:0:0:0:
433,304,86197,1,0,0:0:0:0:
367,250,86432,1,4,0:3:0:0:
225,340,86900,5,8,0:0:0:0:
124,205,87369,2,0,P|111:138|153:80,1,140,4|8,0:3|0:0,0:0:0:0:
225,44,88072,1,0,0:0:0:0:
292,93,88307,2,0,L|364:97,2,70,4|0|8,0:3|2:0|0:0,0:0:0:0:
230,150,89010,1,8,0:0:0:0:
180,217,89244,2,0,P|176:295|237:344,1,140,8|8,0:0|0:0,0:0:0:0:
297,358,89947,1,0,0:0:0:0:
366,310,90182,6,0,B|373:261|373:261|361:217|361:217|370:169,1,140,4|8,0:0|0:0,0:0:0:0:
426,14,91119,1,0,0:0:0:0:
270,77,91588,2,0,P|236:86|201:83,1,70,8|0,0:0|2:0,0:0:0:0:
136,29,92057,2,0,P|116:82|162:159,2,140,4|8|0,0:0|0:0|0:0,0:0:0:0:
275,122,93463,2,0,P|282:158|274:192,1,70,8|0,0:0|0:0,0:0:0:0:
229,260,93932,1,4,0:0:0:0:
61,276,94401,6,0,P|44:232|89:148,2,140,8|0|8,0:0|0:0|0:0,0:0:0:0:
215,341,95807,2,0,P|249:339|290:321,1,70,4|0,0:0|0:0,0:0:0:0:
338,266,96276,2,0,P|370:252|405:251,1,70,8|0,0:0|0:0,0:0:0:0:
473,202,96745,2,0,P|497:146|441:77,1,140,8|8,0:0|0:0,0:0:0:0:
277,121,97682,6,0,B|240:153|205:127|201:132|155:101|108:150,2,154.000004699707,4|8|0,0:2|0:0|0:0,0:0:0:0:
439,32,99088,1,8,0:0:0:0:
490,210,99557,2,0,B|492:264|492:264|447:304|399:278,1,154.000004699707,4|8,0:0|0:0,0:0:0:0:
265,150,100495,1,0,0:0:0:0:
97,227,100963,2,0,P|81:274|95:316,1,77.0000023498536,8|0,0:0|0:0,0:0:0:0:
153,363,101432,5,4,0:0:0:0:
228,309,101667,2,0,L|322:303,1,77.0000023498536,0|8,2:0|0:0,0:0:0:0:
388,343,102135,1,0,2:0:0:0:
453,277,102370,2,0,P|474:196|442:123,1,154.000004699707,4|8,0:2|0:0,0:0:0:0:
284,49,103307,2,0,L|208:33,2,77.0000023498536,4|0|8,0:0|2:0|0:0,0:0:0:0:
332,127,104010,1,0,2:0:0:0:
383,203,104245,2,0,L|459:219,2,77.0000023498536,4|0|8,0:2|0:0|0:0,0:0:0:0:
309,258,104948,1,0,0:0:0:0:
231,308,105182,6,0,P|171:296|189:217,1,154.000004699707,4|8,0:0|0:0,0:0:0:0:
338,118,106120,2,0,P|357:50|290:29,1,154.000004699707,0|8,0:0|0:0,0:0:0:0:
206,68,106823,1,0,2:0:0:0:
127,116,107058,2,0,P|43:98|18:14,1,154.000004699707,4|8,0:0|0:0,0:0:0:0:
22,226,107995,1,0,0:0:0:0:
156,352,108464,1,8,0:0:0:0:
232,300,108698,1,0,0:0:0:0:
314,341,108933,6,0,P|357:336|401:318,1,77.0000023498536,4|0,0:0|2:0,0:0:0:0:
454,261,109401,1,8,0:0:0:0:
411,178,109636,1,0,2:0:0:0:
477,114,109870,2,0,P|425:87|326:142,1,154.000004699707,4|8,0:2|0:0,0:0:0:0:
308,301,110808,2,0,P|348:310|387:298,2,77.0000023498536,4|0|4,0:0|2:0|0:0,0:0:0:0:
251,227,111511,1,0,0:0:0:0:
213,142,111745,2,0,P|169:92|84:94,1,154.000004699707,0|4,0:0|0:0,0:0:0:0:
8,142,112448,1,0,0:0:0:0:
30,231,112683,6,0,P|74:281|159:279,2,154.000004699707,4|8|4,0:0|0:0|0:0,0:0:0:0:
140,82,114089,1,8,0:0:0:0:
280,202,114558,1,0,0:0:0:0:
448,126,115027,2,0,B|438:87|407:61|407:61|366:86|312:57,1,154.000004699707,8|0,0:0|0:0,0:0:0:0:
169,150,115964,2,0,P|121:139|107:118,1,77.0000023498536,8|0,0:0|0:0,0:0:0:0:
48,45,116433,6,0,L|64:213,1,154.000004699707,4|8,0:0|0:0,0:0:0:0:
172,347,117370,2,0,P|251:346|325:288,1,154.000004699707,0|8,0:0|0:0,0:0:0:0:
441,174,118308,2,0,P|362:173|288:115,1,154.000004699707,4|8,0:0|0:0,0:0:0:0:
140,40,119246,2,0,P|165:124|147:215,1,154.000004699707,0|8,0:0|0:0,0:0:0:0:
9,299,120183,5,4,0:0:0:0:
180,368,120652,1,8,0:0:0:0:
305,222,121121,1,0,0:0:0:0:
489,217,121589,2,0,L|496:134,1,77.0000023498536,8|0,0:0|0:0,0:0:0:0:
507,48,122058,2,0,P|471:98|380:59,1,154.000004699707,4|8,0:0|0:0,0:0:0:0:
212,27,122996,2,0,P|173:34|129:72,1,77.0000023498536,0|0,0:0|0:0,0:0:0:0:
95,133,123465,2,0,P|102:172|140:216,1,77.0000023498536,8|0,0:0|0:0,0:0:0:0:
195,259,123933,6,0,L|272:265,1,77.0000023498536,4|0,0:0|0:0,0:0:0:0:
351,217,124402,1,8,0:0:0:0:
425,271,124636,1,0,0:0:0:0:
490,205,124871,2,0,B|507:145|507:145|483:50,1,154.000004699707,4|8,0:2|0:0,0:0:0:0:
300,77,125808,1,4,0:0:0:0:
220,31,126043,1,0,0:0:0:0:
151,92,126277,2,0,L|144:168,1,77.0000023498536,8|0,0:0|0:0,0:0:0:0:
98,248,126746,5,4,0:2:0:0:
279,283,127215,1,4,0:0:0:0:
443,223,135184,6,0,L|453:132,1,70,12|0,0:0|2:0,0:0:0:0:
429,71,135653,1,8,0:0:0:0:
358,25,135887,1,0,2:0:0:0:
297,83,136121,2,0,P|252:88|222:76,1,70,0|8,2:0|0:0,0:0:0:0:
170,20,136590,1,8,0:0:0:0:
136,184,137059,6,0,P|147:234|170:259,1,70,8|0,0:0|0:0,0:0:0:0:
155,331,137528,2,0,P|122:323|95:301,1,70,8|0,0:0|0:0,0:0:0:0:
41,238,137996,2,0,P|13:318|57:375,1,140,8|8,0:0|0:0,0:0:0:0:
204,360,138934,6,0,L|293:338,1,70,12|0,0:0|2:0,0:0:0:0:
335,287,139403,2,0,P|345:222|333:195,1,70,8|0,0:0|2:0,0:0:0:0:
290,154,139872,2,0,P|225:144|198:156,1,70,0|0,0:0|2:0,0:0:0:0:
146,180,140340,2,0,B|118:182|118:182|94:167|94:167|62:175|62:175|38:157|38:157|-10:149,1,140,0|12,0:0|0:0,0:0:0:0:
16,115,142684,6,0,L|28:208,1,70,4|0,0:0|0:0,0:0:0:0:
101,219,143153,2,0,L|109:149,1,70,4|0,0:3|0:0,0:0:0:0:
170,91,143622,1,8,0:0:0:0:
313,176,144090,2,0,P|348:182|380:171,1,70,4|0,0:3|0:0,0:0:0:0:
350,92,144559,2,0,P|414:93|465:167,1,140,4|4,0:0|0:3,0:0:0:0:
442,227,145262,1,0,0:0:0:0:
381,286,145497,2,0,B|347:304|312:288|312:288|270:268|220:304,1,140,8|4,0:0|0:3,0:0:0:0:
84,334,146434,5,4,0:3:0:0:
31,175,146903,2,0,P|31:122|44:91,1,70,4|0,0:3|0:0,0:0:0:0:
115,78,147372,2,0,P|115:131|102:162,2,70,8|0|4,0:0|0:0|0:3,0:0:0:0:
275,119,148309,1,4,0:0:0:0:
334,59,148544,1,0,0:0:0:0:
399,111,148778,2,0,P|408:167|400:194,1,70,0|8,0:0|0:0,0:0:0:0:
335,224,149247,2,0,P|397:263|468:237,1,140,8|8,0:0|0:0,0:0:0:0:
506,177,149950,1,0,0:0:0:0:
475,98,150185,5,4,0:0:0:0:
311,62,150653,2,0,L|219:48,2,70,4|0|8,0:3|0:0|0:0,0:0:0:0:
423,187,151591,2,0,P|432:218|416:268,1,70,4|0,0:3|0:0,0:0:0:0:
353,298,152060,2,0,L|186:301,1,140,4|4,0:0|0:3,0:0:0:0:
143,347,152763,1,0,0:0:0:0:
75,296,152997,2,0,P|46:236|68:147,1,140,8|4,0:0|0:3,0:0:0:0:
178,49,153935,6,0,B|216:32|251:53|251:53|264:91|320:99,1,140,4|4,0:0|0:3,0:0:0:0:
380,99,154638,1,0,0:0:0:0:
423,170,154872,2,0,B|423:222|423:222|403:255|403:255|403:308,1,140,8|4,0:0|0:3,0:0:0:0:
256,192,155810,12,0,158622,2:0:0:0:
332,262,159560,6,0,B|366:284|405:268|405:268|445:247|490:270,2,154.000004699707,4|8|0,0:0|0:0|0:0,0:0:0:0:
256,93,160966,1,8,0:0:0:0:
180,262,161435,2,0,B|146:284|107:268|107:268|67:247|22:270,2,154.000004699707,4|8|0,0:0|0:0|0:0,0:0:0:0:
329,152,162841,2,0,P|385:147|414:159,1,77.0000023498536,8|0,0:0|0:0,0:0:0:0:
473,214,163310,6,0,P|481:251|474:288,1,77.0000023498536,4|0,0:0|2:0,0:0:0:0:
398,341,163779,2,0,L|236:335,1,154.000004699707,8|4,0:0|0:2,0:0:0:0:
63,374,164716,1,8,0:0:0:0:
18,194,165185,2,0,B|5:116|5:116|46:42,2,154.000004699707,4|8|4,0:0|0:0|0:0,0:0:0:0:
86,256,166357,1,0,0:0:0:0:
158,198,166592,2,0,P|205:195|239:209,1,77.0000023498536,8|0,0:0|0:0,0:0:0:0:
309,256,167060,6,0,P|376:276|327:130,1,308.000009399414,4|0,0:0|0:0,0:0:0:0:
176,160,168467,2,0,P|163:216|188:244,1,77.0000023498536,8|0,0:0|2:0,0:0:0:0:
157,321,168935,2,0,P|75:198|159:71,1,308.000009399414,4|0,0:0|0:0,0:0:0:0:
329,113,170342,2,0,P|376:125|418:109,1,77.0000023498536,8|0,0:0|0:0,0:0:0:0:
466,185,170810,6,0,L|467:278,1,77.0000023498536,4|0,0:0|2:0,0:0:0:0:
409,335,171279,2,0,P|334:354|260:305,2,154.000004699707,8|4|8,0:0|0:2|0:0,0:0:0:0:
473,161,172686,2,0,L|449:77,1,77.0000023498536,0|0,0:0|2:0,0:0:0:0:
372,40,173154,2,0,L|350:114,1,77.0000023498536,8|0,0:0|0:0,0:0:0:0:
270,160,173623,2,0,P|170:153|138:89,1,154.000004699707,0|8,0:0|0:0,0:0:0:0:
100,32,174326,1,0,0:0:0:0:
27,90,174561,6,0,B|36:264,1,154.000004699707,4|8,0:0|0:0,0:0:0:0:
183,353,175498,2,0,B|175:199,1,154.000004699707,4|8,0:0|0:0,0:0:0:0:
211,114,176201,1,0,2:0:0:0:
295,150,176436,2,0,B|346:163|377:129|377:129|414:115|466:135,2,154.000004699707,4|8|0,0:0|0:0|0:0,0:0:0:0:
128,67,177842,2,0,P|116:102|121:140,1,77.0000023498536,8|0,0:0|2:0,0:0:0:0:
178,216,178311,6,0,P|118:235|34:177,2,154.000004699707,4|12|4,0:0|0:0|0:0,0:0:0:0:
256,48,179717,1,8,0:0:0:0:
396,166,180186,2,0,P|406:224|323:236,1,154.000004699707,4|8,0:0|0:0,0:0:0:0:
256,182,180889,1,0,0:0:0:0:
183,241,181123,2,0,P|113:235|116:166,1,154.000004699707,4|8,0:0|0:0,0:0:0:0:
265,57,182061,6,0,B|309:40|346:58|346:58|391:76|431:55,2,154.000004699707,4|8|0,0:0|0:0|0:0,0:0:0:0:
132,185,183467,2,0,P|130:239|146:272,1,77.0000023498536,8|0,0:0|0:0,0:0:0:0:
218,304,183936,2,0,L|373:295,1,154.000004699707,4|8,0:0|0:0,0:0:0:0:
481,146,184874,2,0,P|457:97|430:77,1,77.0000023498536,0|0,0:0|0:0,0:0:0:0:
353,50,185342,2,0,L|270:57,1,77.0000023498536,8|0,0:0|0:0,0:0:0:0:
210,121,185811,5,4,0:0:0:0:
119,101,186046,1,0,0:0:0:0:
58,170,186280,2,0,L|55:257,1,77.0000023498536,8|0,0:0|0:0,0:0:0:0:
108,322,186749,2,0,P|163:344|264:306,1,154.000004699707,4|8,0:2|0:0,0:0:0:0:
432,284,187686,2,0,L|428:366,2,77.0000023498536,4|0|8,0:0|0:0|0:0,0:0:0:0:
443,192,188389,1,0,0:0:0:0:
490,112,188624,5,8,0:0:0:0:
309,71,189093,1,8,0:0:0:0:
