osu file format v12

[General]
AudioFilename: Gospel.mp3
AudioLeadIn: 0
PreviewTime: 112566
Countdown: 0
SampleSet: Soft
StackLeniency: 0.7
Mode: 0
LetterboxInBreaks: 0
WidescreenStoryboard: 0

[Editor]
DistanceSpacing: 0.8
BeatDivisor: 4
GridSize: 4
TimelineZoom: 1

[Metadata]
Title:This is Gospel
TitleUnicode:This is Gospel
Artist:Panic! at the Disco
ArtistUnicode:Panic! at the Disco
Creator:mancuso_JM_
Version:Panic!
Source:
Tags:Too weird to live too rare to die synthrock alternative patd mancusojuanmattos
BeatmapID:389653
BeatmapSetID:159506

[Difficulty]
HPDrainRate:6
CircleSize:4
OverallDifficulty:7
ApproachRate:8
SliderMultiplier:1.69999990463257
SliderTickRate:1

[Events]
//Background and Video events
Video,-1920,"Video.avi"
0,0,"patd.jpg",0,0
//Break Periods
2,102389,111824
//Storyboard Layer 0 (Background)
//Storyboard Layer 1 (Fail)
//Storyboard Layer 2 (Pass)
//Storyboard Layer 3 (Foreground)
//Storyboard Sound Samples
//Background Colour Transformations
3,100,163,162,255

[TimingPoints]
651,384.615384615385,4,2,0,40,1,0
4112,-125,4,2,0,40,0,0
16035,-100,4,2,0,50,0,0
40651,-80,4,2,0,75,0,1
65170,-80,4,2,0,75,0,0
65266,-80,4,2,0,75,0,1
65362,-80,4,2,0,75,0,0
77574,-100,4,2,0,60,0,0
102189,-100,4,2,0,25,0,0
102285,-100,4,2,0,60,0,0
114497,-80,4,2,0,75,0,1
139016,-80,4,2,0,75,0,0
139112,-80,4,2,0,75,0,1
139208,-80,4,2,0,75,0,0
176035,-80,4,2,0,50,0,0
176227,-80,4,2,0,35,0,0
176804,-80,4,2,0,20,0,0
177574,-80,4,2,0,15,0,0
178343,-80,4,2,0,10,0,0
178535,-80,4,2,0,5,0,0

[Colours]
Combo1 : 255,62,62
Combo2 : 0,94,138
Combo3 : 0,108,54
SliderBorder : 30,30,30

[HitObjects]
104,83,4112,6,0,P|137:82|166:99,1,67.9999961853028,2|4,0:0|0:3,0:0:0:0:
204,171,4497,2,0,P|266:194|330:175,2,135.999992370606,4|0|4,0:3|0:0|0:3,0:0:0:0:
44,211,5651,2,0,P|51:243|49:277,1,67.9999961853028,2|4,0:0|0:3,0:0:0:0:
104,335,6035,2,0,P|136:327|170:329,1,67.9999961853028,4|0,0:3|0:0,0:0:0:0:
252,340,6420,2,0,B|292:333|320:352|344:368|384:353,1,135.999992370606,2|4,0:0|0:3,0:0:0:0:
484,227,7189,5,2,0:0:0:0:
500,147,7381,1,4,0:3:0:0:
440,92,7574,2,0,P|378:116|314:97,1,135.999992370606,4|2,0:3|0:0,0:0:0:0:
236,68,8151,1,4,0:3:0:0:
163,34,8343,2,0,P|117:16|67:25,2,101.999994277954,4|2|4,0:3|0:0|0:3,0:0:0:0:
171,116,9112,2,0,P|108:136|49:105,2,135.999992370606,4|2|4,0:3|0:0|0:3,0:0:0:0:
416,84,10458,5,4,0:3:0:0:
467,148,10651,2,0,P|443:210|463:274,1,135.999992370606,4|2,0:3|0:0,0:0:0:0:
484,352,11227,1,4,0:3:0:0:
408,324,11420,2,0,P|375:314|341:318,1,67.9999961853028,4|2,0:3|0:0,0:0:0:0:
272,356,11804,1,0,0:0:0:0:
216,296,11997,2,0,L|204:228,1,67.9999961853028,4|4,0:3|0:3,0:0:0:0:
136,184,12381,1,0,0:0:0:0:
136,182,12574,2,0,P|191:146|255:163,1,135.999992370606,2|4,0:0|0:3,0:0:0:0:
492,256,13535,5,4,0:3:0:0:
492,256,13727,2,0,L|480:152,2,101.999994277954,2|2|4,0:0|0:0|0:3,0:0:0:0:
432,312,14497,2,0,P|373:280|308:295,1,135.999992370606,4|0,0:3|0:0,0:0:0:0:
236,332,15074,1,4,0:3:0:0:
166,376,15266,2,0,P|156:344|155:310,2,67.9999961853028,4|0|2,0:3|0:0|0:0,0:0:0:0:
256,224,16035,5,8,0:0:0:0:
340,76,16420,1,8,0:0:0:0:
172,76,16804,1,8,0:0:0:0:
39,192,17189,2,0,P|35:233|52:272,1,84.9999952316285,8|2,0:0|0:0,0:0:0:0:
108,335,17574,2,0,P|182:300|262:324,1,169.999990463257,8|8,0:0|0:0,0:0:0:0:
432,315,18343,2,0,P|456:236|423:159,1,169.999990463257,8|8,0:0|0:0,0:0:0:0:
338,159,18920,2,0,P|305:235|329:315,1,169.999990463257,2|2,0:0|0:0,0:0:0:0:
268,372,19497,6,0,L|183:368,1,84.9999952316285,8|2,0:0|0:0,0:0:0:0:
128,304,19881,2,0,P|135:262|126:221,1,84.9999952316285,8|2,0:0|0:0,0:0:0:0:
68,160,20266,1,8,0:0:0:0:
176,28,20651,1,4,0:3:0:0:
251,67,20843,2,0,P|292:80|334:76,1,84.9999952316285,2|8,0:0|0:0,0:0:0:0:
408,116,21227,2,0,L|404:200,1,84.9999952316285,0|8,0:0|0:0,0:0:0:0:
328,236,21612,1,2,0:0:0:0:
256,284,21804,1,8,0:0:0:0:
236,304,22189,5,4,0:3:0:0:
216,328,22574,1,8,0:0:0:0:
196,352,22958,1,8,0:0:0:0:
28,344,23343,2,0,P|19:302|26:260,1,84.9999952316285,8|2,0:0|0:0,0:0:0:0:
96,216,23727,2,0,P|113:133|89:53,2,169.999990463257,8|8|8,0:0|0:0|0:0,0:0:0:0:
188,360,24881,1,8,0:0:0:0:
188,360,25074,2,0,B|236:344|256:312|256:312|276:344|324:360,1,169.999990463257,2|2,0:0|0:0,0:0:0:0:
348,280,25651,6,0,P|315:253|300:214,1,84.9999952316285,8|2,0:0|0:0,0:0:0:0:
211,214,26035,2,0,P|196:253|164:280,2,84.9999952316285,8|2|8,0:0|0:0|0:0,0:0:0:0:
256,48,26804,1,4,0:3:0:0:
336,80,26997,2,0,P|376:67|418:71,1,84.9999952316285,2|8,0:0|0:0,0:0:0:0:
432,156,27381,2,0,P|391:168|349:164,1,84.9999952316285,2|8,0:0|0:0,0:0:0:0:
272,132,27766,1,2,0:0:0:0:
196,92,27958,1,0,0:0:0:0:
192,112,28054,1,0,0:0:0:0:
188,132,28151,1,0,0:0:0:0:
184,152,28247,1,0,0:0:0:0:
180,172,28343,6,0,P|123:229|43:214,1,169.999990463257,2|8,0:0|0:3,0:0:0:0:
97,144,28920,1,0,0:0:0:0:
97,144,29112,2,0,L|141:308,1,169.999990463257,2|4,0:0|0:3,0:0:0:0:
208,360,29689,2,0,P|248:344|289:348,1,84.9999952316285,4|0,0:3|0:3,0:0:0:0:
376,352,30074,2,0,P|417:356|456:340,1,84.9999952316285,8|0,0:3|0:0,0:0:0:0:
500,268,30458,1,0,0:0:0:0:
500,268,30651,2,0,P|512:185|481:108,1,169.999990463257,8|0,0:3|0:0,0:0:0:0:
400,76,31227,1,0,0:0:0:0:
380,72,31324,1,0,0:0:0:0:
359,67,31420,6,0,P|281:92|208:51,1,169.999990463257,2|8,0:0|0:3,0:0:0:0:
136,0,31997,1,0,0:0:0:0:
112,80,32189,2,0,B|96:128|120:159|120:159|148:196|130:242,1,169.999990463257,2|2,0:0|0:0,0:0:0:0:
60,288,32766,2,0,P|130:244|209:266,1,169.999990463257,8|8,0:1|0:1,0:0:0:0:
268,328,33343,1,0,0:0:0:0:
436,360,33727,1,8,0:1:0:0:
488,196,34112,1,8,0:3:0:0:
500,112,34304,1,0,0:0:0:0:
456,40,34497,6,0,B|408:28|376:56|376:56|340:88|297:68,1,169.999990463257,2|8,0:0|0:3,0:0:0:0:
56,40,35266,2,0,B|104:28|136:56|136:56|172:88|214:68,1,169.999990463257,2|8,0:0|0:3,0:0:0:0:
256,144,35843,1,8,0:1:0:0:
300,216,36035,1,0,0:0:0:0:
212,216,36227,1,8,0:1:0:0:
186,296,36420,2,0,P|256:337|326:296,2,169.999990463257,0|8|0,0:0|0:1|0:0,0:0:0:0:
132,228,37381,1,0,0:0:0:0:
132,228,37477,1,0,0:0:0:0:
132,228,37574,5,4,0:0:0:0:
200,72,37958,2,0,B|240:88|256:132|256:132|272:88|312:72,1,169.999990463257,4|4,0:3|0:3,0:0:0:0:
480,108,38727,2,0,L|492:192,1,84.9999952316285,2|0,0:0|0:0,0:0:0:0:
496,280,39112,5,0,0:0:0:0:
468,276,39497,1,2,0:0:0:0:
436,276,39881,1,0,0:0:0:0:
408,280,40266,1,2,0:0:0:0:
408,280,40651,6,0,B|396:384|284:452|60:264|76:116|256:-16|436:116|452:264|228:452|116:384|104:280,2,849.999952316285,4|2|4,0:0|0:0|0:0,0:0:0:0:
448,203,43920,2,0,P|455:151|442:100,1,106.249994039536,0|2,0:0|0:0,0:0:0:0:
368,60,44304,1,0,0:0:0:0:
367,60,44497,2,0,P|278:112|178:85,1,212.499988079071,0|2,1:0|0:0,0:0:0:0:
96,52,45074,1,0,0:0:0:0:
80,136,45266,5,0,0:0:0:0:
88,164,45651,1,2,0:0:0:0:
96,200,46035,1,0,1:0:0:0:
104,232,46420,1,2,0:0:0:0:
104,232,46804,6,0,B|116:128|228:60|452:248|436:396|256:528|76:396|60:248|284:60|396:128|408:232,2,849.999952316285,4|2|4,0:0|0:0|0:0,0:0:0:0:
20,219,50074,2,0,P|35:169|65:126,1,106.249994039536,0|2,0:0|0:0,0:0:0:0:
128,68,50458,1,0,0:0:0:0:
128,68,50651,2,0,P|176:88|226:73,1,106.249994039536,0|2,1:0|0:0,0:0:0:0:
388,100,51227,5,2,0:0:0:0:
464,136,51420,1,2,0:0:0:0:
495,216,51612,2,0,P|500:268|475:313,1,106.249994039536,0|2,0:0|0:0,0:0:0:0:
392,328,51997,1,0,0:0:0:0:
392,328,52189,2,0,P|298:283|201:319,1,212.499988079071,0|2,1:0|0:0,0:0:0:0:
128,364,52766,1,2,0:0:0:0:
44,360,52958,6,0,B|72:308|36:260|36:260|4:216|27:158,1,212.499988079071,4|0,0:0|0:0,0:0:0:0:
96,108,53535,1,0,0:0:0:0:
96,108,53727,2,0,B|116:36|216:36|216:36|276:36,1,212.499988079071,2|2,1:2|0:0,0:0:0:0:
372,48,54304,2,0,B|356:120|256:120|256:120|192:120,1,212.499988079071,2|2,0:0|0:0,0:0:0:0:
96,108,54881,1,2,0:0:0:0:
44,268,55266,1,0,1:0:0:0:
196,340,55651,1,4,0:3:0:0:
256,280,55843,1,4,0:3:0:0:
316,340,56035,5,4,0:0:0:0:
468,268,56420,1,2,0:0:0:0:
444,188,56612,1,0,0:0:0:0:
368,228,56804,2,0,B|300:164|300:164|300:44,1,212.499988079071,0|0,1:0|0:0,0:0:0:0:
212,44,57381,2,0,B|212:164|212:164|144:228,1,212.499988079071,2|2,0:0|0:0,0:0:0:0:
164,312,57958,2,0,B|212:308|240:336|256:356|256:356|272:336|300:308|348:312,2,212.499988079071,8|0|0,0:3|1:0|0:0,0:0:0:0:
92,268,58920,1,8,0:3:0:0:
73,249,59016,1,8,0:3:0:0:
54,230,59112,5,4,0:0:0:0:
16,64,59497,1,2,0:0:0:0:
92,28,59689,1,0,0:0:0:0:
83,115,59881,2,0,P|182:121|211:27,1,212.499988079071,0|2,1:0|0:0,0:0:0:0:
300,27,60458,2,0,P|329:121|428:115,1,212.499988079071,2|2,0:0|0:0,0:0:0:0:
504,152,61035,2,0,L|496:257,1,106.249994039536,8|0,0:3|0:0,0:0:0:0:
436,320,61420,2,0,B|381:296|337:328|337:328|285:368|237:336,1,212.499988079071,0|8,1:0|0:3,0:0:0:0:
176,276,61997,1,8,0:3:0:0:
104,232,62189,5,4,0:0:0:0:
20,84,62574,2,0,P|71:95|120:77,1,106.249994039536,0|2,0:0|0:0,0:0:0:0:
200,47,62958,2,0,P|299:16|397:52,1,212.499988079071,0|2,1:0|0:0,0:0:0:0:
400,136,63535,2,0,P|300:167|202:131,1,212.499988079071,8|8,0:3|0:3,0:0:0:0:
124,160,64112,2,0,P|136:211|124:262,1,106.249994039536,2|0,0:0|0:0,0:0:0:0:
48,300,64497,1,0,1:0:0:0:
208,356,64881,1,8,0:3:0:0:
256,284,65074,1,8,0:3:0:0:
332,236,65266,6,0,P|356:134|320:35,1,212.499988079071,4|2,0:0|0:0,0:0:0:0:
256,100,65843,1,0,0:0:0:0:
191,35,66035,2,0,P|155:134|180:236,1,212.499988079071,0|0,1:0|0:3,0:0:0:0:
192,320,66612,2,0,B|248:308|256:244|256:244|264:308|320:320,1,212.499988079071,2|2,0:0|0:0,0:0:0:0:
404,300,67189,2,0,B|429:256|405:208|385:208|361:208|337:160|367:109,1,212.499988079071,8|0,0:3|1:0,0:0:0:0:
328,36,67766,2,0,P|278:52|228:36,1,106.249994039536,0|2,0:0|0:0,0:0:0:0:
144,16,68151,1,0,0:0:0:0:
60,36,68343,5,4,0:0:0:0:
20,112,68535,2,0,P|16:164|32:216,1,106.249994039536,2|0,0:0|0:0,0:0:0:0:
88,279,68920,2,0,P|136:259|188:266,1,106.249994039536,2|0,0:3|1:0,0:0:0:0:
256,320,69304,1,0,0:0:0:0:
256,320,69497,2,2,P|355:348|442:293,1,212.499988079071,2|0,0:0|0:0,0:0:0:0:
456,208,70074,6,0,L|459:101,1,106.249994039536,2|0,0:0|0:0,0:0:0:0:
360,32,70458,2,0,L|356:138,1,106.249994039536,2|0,0:3|1:0,0:0:0:0:
288,192,70843,1,0,0:0:0:0:
236,260,71035,1,8,0:3:0:0:
152,232,71227,1,8,0:3:0:0:
96,171,71420,6,0,P|82:270|172:311,1,212.499988079071,4|2,0:0|0:0,0:0:0:0:
236,260,71997,1,8,0:3:0:0:
304,312,72189,2,0,P|389:252|477:302,1,212.499988079071,0|0,1:0|0:0,0:0:0:0:
393,353,72766,2,0,P|375:250|408:150,1,212.499988079071,2|2,0:0|0:0,0:0:0:0:
360,80,73343,2,0,P|256:98|156:65,1,212.499988079071,8|0,0:3|1:0,0:0:0:0:
88,112,73920,2,0,P|103:162|94:213,1,106.249994039536,0|2,0:0|0:0,0:0:0:0:
40,280,74304,1,0,0:0:0:0:
4,360,74497,5,4,0:0:0:0:
88,359,74689,2,0,P|135:336|187:341,1,106.249994039536,2|0,0:0|0:0,0:0:0:0:
256,292,75074,1,2,0:3:0:0:
320,348,75266,2,0,P|372:353|419:329,2,106.249994039536,0|0|2,1:0|0:0|0:0,0:0:0:0:
256,292,75843,1,8,0:3:0:0:
328,136,76227,6,0,P|377:120|427:136,2,106.249994039536,2|0|2,0:0|0:0|0:3,0:0:0:0:
256,184,76804,2,0,P|206:199|156:183,1,106.249994039536,0|0,1:0|0:0,0:0:0:0:
72,164,77189,1,0,1:0:0:0:
8,108,77381,1,0,1:0:0:0:
48,32,77574,5,4,0:0:0:0:
216,48,77958,2,0,L|300:40,1,84.9999952316285,2|0,0:0|0:0,0:0:0:0:
383,64,78343,2,0,P|367:146|399:223,1,169.999990463257,8|0,0:0|0:0,0:0:0:0:
360,300,78920,2,0,B|312:280|280:308|280:308|248:336|200:313,1,169.999990463257,8|0,0:3|0:0,0:0:0:0:
123,275,79497,2,0,P|112:235|119:193,1,84.9999952316285,2|0,0:0|0:0,0:0:0:0:
160,116,79881,2,0,P|167:74|155:33,2,84.9999952316285,8|0|0,0:3|0:0|0:0,0:0:0:0:
84,152,80458,1,8,0:3:0:0:
32,220,80651,5,4,0:0:0:0:
144,348,81035,2,0,P|185:361|226:353,1,84.9999952316285,2|0,0:0|0:0,0:0:0:0:
272,280,81420,2,0,P|351:304|428:271,1,169.999990463257,8|0,0:3|0:0,0:0:0:0:
400,188,81997,1,0,0:0:0:0:
400,188,82189,2,8,P|340:172|281:192,2,127.499992847443,8|2|0,0:0|0:0|0:0,0:0:0:0:
396,272,82958,2,0,L|411:102,1,169.999990463257,8|0,0:3|0:0,0:0:0:0:
348,44,83535,1,4,0:3:0:0:
280,96,83727,6,0,B|228:96|228:96|168:64|168:64|118:64,1,169.999990463257,4|0,0:3|0:0,0:0:0:0:
60,128,84304,1,0,0:0:0:0:
60,128,84401,1,0,0:0:0:0:
60,128,84497,2,0,B|84:180|52:224|52:224|62:291,1,169.999990463257,8|0,0:3|0:0,0:0:0:0:
4,352,85074,2,0,P|61:292|143:299,1,169.999990463257,4|0,0:3|0:0,0:0:0:0:
212,348,85651,2,0,B|260:328|294:348|294:348|332:368|375:346,1,169.999990463257,2|8,0:0|0:3,0:0:0:0:
444,296,86227,2,0,L|448:212,1,84.9999952316285,0|2,0:0|0:0,0:0:0:0:
384,152,86612,1,4,0:3:0:0:
320,96,86804,5,8,0:0:0:0:
156,48,87189,2,0,L|168:132,1,84.9999952316285,2|0,0:0|0:0,0:0:0:0:
136,211,87574,2,0,P|123:273|154:327,2,127.499992847443,8|2|0,0:3|0:0|0:0,0:0:0:0:
208,260,88343,2,0,P|269:272|323:241,2,127.499992847443,8|2|0,0:0|0:0|0:0,0:0:0:0:
256,188,89112,2,0,L|264:104,1,84.9999952316285,8|0,0:3|0:0,0:0:0:0:
348,124,89497,2,0,L|398:56,1,84.9999952316285,8|8,0:3|0:3,0:0:0:0:
468,104,89881,5,4,0:0:0:0:
508,268,90266,1,2,0:0:0:0:
352,336,90651,1,8,0:3:0:0:
184,320,91035,1,2,0:0:0:0:
104,348,91227,1,0,0:0:0:0:
35,295,91420,6,0,P|16:213|27:130,1,169.999990463257,2|2,0:0|0:0,0:0:0:0:
159,21,92189,2,0,B|180:56|164:104|164:104|204:116|214:167,1,169.999990463257,8|0,0:3|0:0,0:0:0:0:
298,167,92766,2,0,B|308:116|348:104|348:104|332:56|352:21,1,169.999990463257,2|0,0:0|0:0,0:0:0:0:
435,23,93343,2,0,P|444:65|434:106,1,84.9999952316285,2|0,0:0|0:0,0:0:0:0:
444,192,93727,2,0,P|434:233|442:274,1,84.9999952316285,8|0,0:3|0:0,0:0:0:0:
484,348,94112,2,2,P|446:276|365:280,1,169.999990463257,2|0,0:0|0:0,0:0:0:0:
288,316,94689,5,2,0:0:0:0:
208,348,94881,1,2,0:0:0:0:
124,356,95074,1,0,0:0:0:0:
48,316,95266,2,0,L|29:233,1,84.9999952316285,8|0,0:3|0:0,0:0:0:0:
100,184,95651,2,0,L|122:101,1,84.9999952316285,8|8,0:3|0:3,0:0:0:0:
200,64,96035,5,4,0:0:0:0:
368,48,96420,1,4,0:3:0:0:
384,132,96612,1,4,0:3:0:0:
460,92,96804,1,8,0:3:0:0:
444,260,97189,2,0,L|428:344,1,84.9999952316285,0|0,0:0|0:0,0:0:0:0:
344,360,97574,2,0,L|375:193,1,169.999990463257,2|0,0:0|0:0,0:0:0:0:
256,72,98343,2,0,L|224:238,1,169.999990463257,8|0,0:3|0:0,0:0:0:0:
144,268,98920,6,0,P|207:319|286:297,1,169.999990463257,2|0,0:0|0:0,0:0:0:0:
347,235,99497,2,0,L|366:153,1,84.9999952316285,2|0,0:0|0:0,0:0:0:0:
296,56,99881,2,0,L|277:138,1,84.9999952316285,8|0,0:3|0:0,0:0:0:0:
170,190,100266,2,0,L|188:107,1,84.9999952316285,2|0,0:0|0:0,0:0:0:0:
172,288,100843,6,0,P|201:318|212:358,1,84.9999952316285,2|2,0:0|0:0,0:0:0:0:
299,358,101227,2,0,P|310:318|340:288,1,84.9999952316285,0|8,0:0|0:3,0:0:0:0:
360,204,101612,1,8,0:3:0:0:
300,144,101804,1,8,0:3:0:0:
212,144,101997,1,8,0:3:0:0:
152,204,102189,1,2,0:0:0:0:
8,252,112574,6,0,L|0:164,1,84.9999952316285,2|0,0:0|0:0,0:0:0:0:
4,136,112958,5,0,0:0:0:0:
16,100,113343,1,2,0:0:0:0:
24,72,113727,1,0,0:0:0:0:
32,48,114112,1,2,0:0:0:0:
32,48,114497,6,0,B|88:12|164:72|120:136|120:136|240:104|216:212|256:296|256:296|296:212|272:104|392:136|392:136|348:72|424:12|480:48,2,849.999952316285,4|2|4,0:0|0:0|0:0,0:0:0:0:
11,151,117766,2,0,P|29:201|72:232,1,106.249994039536,0|2,0:0|0:0,0:0:0:0:
144,276,118151,1,0,0:0:0:0:
143,276,118343,2,0,P|240:235|338:268,1,212.499988079071,0|2,1:0|0:0,0:0:0:0:
404,320,118920,1,0,0:0:0:0:
488,300,119112,5,0,0:0:0:0:
468,272,119497,1,2,0:0:0:0:
448,244,119881,1,0,1:0:0:0:
428,216,120266,1,2,0:0:0:0:
428,216,120651,6,0,B|492:176|468:76|444:20|376:0|316:-4|272:32|256:124|256:124|240:32|196:-4|136:0|68:20|44:76|20:176|84:216,2,849.999952316285,4|2|4,0:0|0:0|0:0,0:0:0:0:
396,295,123920,2,0,P|350:322|298:318,1,106.249994039536,0|2,0:0|0:0,0:0:0:0:
256,248,124304,1,0,0:0:0:0:
213,318,124497,2,0,P|161:322|115:295,1,106.249994039536,0|2,1:0|0:0,0:0:0:0:
164,132,125074,5,2,0:0:0:0:
212,60,125266,1,2,0:0:0:0:
300,60,125458,1,0,0:0:0:0:
348,132,125651,1,2,0:0:0:0:
408,292,126035,1,0,1:0:0:0:
332,328,126227,1,0,0:0:0:0:
256,292,126420,1,2,0:0:0:0:
180,260,126612,1,0,0:0:0:0:
104,292,126804,6,0,P|75:190|96:87,1,212.499988079071,4|2,0:0|0:0,0:0:0:0:
176,56,127381,1,0,0:0:0:0:
176,56,127574,2,0,B|224:88|276:48|276:48|320:16|375:40,1,212.499988079071,0|2,1:0|0:0,0:0:0:0:
444,92,128151,2,0,L|416:302,1,212.499988079071,8|0,0:3|0:0,0:0:0:0:
336,332,128727,1,2,0:0:0:0:
176,280,129112,1,0,1:0:0:0:
128,352,129304,1,0,0:0:0:0:
46,324,129497,1,0,0:0:0:0:
44,240,129689,1,0,0:0:0:0:
124,213,129881,5,4,0:0:0:0:
232,84,130266,2,0,P|282:100|333:89,1,106.249994039536,2|0,0:0|0:0,0:0:0:0:
408,48,130651,2,0,B|430:104|398:148|398:148|362:196|390:248,1,212.499988079071,0|0,1:0|0:0,0:0:0:0:
468,315,131227,2,0,P|389:251|296:291,1,212.499988079071,2|2,0:0|0:0,0:0:0:0:
216,320,131804,2,0,P|123:359|44:296,1,212.499988079071,8|0,0:3|1:0,0:0:0:0:
40,212,132381,1,0,0:0:0:0:
68,132,132574,1,0,0:0:0:0:
84,116,132670,1,0,0:0:0:0:
100,100,132766,1,0,0:0:0:0:
116,84,132862,1,0,0:0:0:0:
132,72,132958,6,0,L|210:143,1,106.249994039536,4|0,0:0|0:0,0:0:0:0:
301,143,133343,2,0,L|380:72,1,106.249994039536,0|2,0:0|0:0,0:0:0:0:
456,108,133727,2,0,P|428:208|459:308,1,212.499988079071,0|0,1:0|0:0,0:0:0:0:
404,376,134304,2,0,P|304:344|203:372,1,212.499988079071,2|2,0:0|0:0,0:0:0:0:
120,356,134881,2,0,P|104:305|111:253,1,106.249994039536,8|0,0:3|0:0,0:0:0:0:
195,235,135266,2,0,P|118:172|31:220,1,212.499988079071,0|8,1:0|0:3,0:0:0:0:
32,312,135843,1,8,0:3:0:0:
120,356,136035,5,4,0:0:0:0:
292,344,136420,2,0,P|340:364|392:356,1,106.249994039536,2|0,0:0|0:0,0:0:0:0:
464,312,136804,2,0,P|487:209|459:108,1,212.499988079071,0|0,1:0|0:0,0:0:0:0:
408,39,137381,2,0,P|331:109|229:96,1,212.499988079071,8|8,0:3|0:3,0:0:0:0:
148,72,137958,1,2,0:0:0:0:
68,40,138151,1,0,0:0:0:0:
4,96,138343,1,0,1:0:0:0:
48,260,138727,1,8,0:3:0:0:
104,324,138920,1,8,0:3:0:0:
172,280,139112,6,0,B|220:284|244:308|256:336|256:336|268:308|292:284|340:280,2,212.499988079071,4|2|0,0:0|0:0|1:0,0:0:0:0:
172,108,140266,1,0,0:0:0:0:
172,108,140458,2,0,P|256:53|340:108,1,212.499988079071,2|2,0:0|0:0,0:0:0:0:
340,192,141035,2,0,B|292:188|268:164|256:136|256:136|244:164|220:188|172:192,1,212.499988079071,8|0,0:3|1:0,0:0:0:0:
168,276,141612,1,0,0:0:0:0:
212,348,141804,1,8,0:3:0:0:
300,348,141997,1,8,0:3:0:0:
344,276,142189,5,4,0:0:0:0:
488,188,142574,2,0,L|464:84,1,106.249994039536,2|8,0:0|0:3,0:0:0:0:
388,48,142958,2,0,B|333:24|289:56|289:56|237:96|189:64,1,212.499988079071,0|0,1:0|0:0,0:0:0:0:
116,104,143535,1,2,0:0:0:0:
256,276,143920,1,2,0:0:0:0:
172,248,144112,2,0,P|256:193|340:248,1,212.499988079071,8|0,0:3|1:0,0:0:0:0:
256,276,144689,1,0,0:0:0:0:
216,344,144881,5,0,0:0:0:0:
236,356,144977,1,0,0:0:0:0:
256,364,145074,1,0,0:0:0:0:
276,356,145170,1,0,0:0:0:0:
296,344,145266,1,4,0:0:0:0:
460,292,145651,6,0,P|448:240|455:188,1,106.249994039536,2|0,0:0|0:0,0:0:0:0:
388,140,146035,2,0,P|292:179|195:143,1,212.499988079071,0|0,1:0|0:0,0:0:0:0:
192,60,146612,2,0,P|287:20|384:56,1,212.499988079071,2|2,0:0|0:0,0:0:0:0:
456,96,147189,1,8,0:3:0:0:
460,292,147574,2,0,P|412:315|360:311,1,106.249994039536,0|0,1:0|0:0,0:0:0:0:
288,268,147958,1,8,0:3:0:0:
208,240,148151,1,8,0:3:0:0:
144,292,148343,5,4,0:0:0:0:
24,172,148727,2,0,L|60:72,1,106.249994039536,0|2,0:0|0:0,0:0:0:0:
136,36,149112,2,0,P|202:113|303:98,1,212.499988079071,0|8,1:0|0:3,0:0:0:0:
372,48,149689,1,8,0:3:0:0:
476,228,150074,1,0,0:0:0:0:
444,308,150266,2,0,P|397:332|345:328,1,106.249994039536,2|0,0:0|0:0,0:0:0:0:
280,272,150651,2,0,P|236:299|184:294,1,106.249994039536,0|0,1:0|0:0,0:0:0:0:
100,280,151035,1,8,0:3:0:0:
28,232,151227,1,8,0:3:0:0:
56,152,151420,6,0,B|112:116|128:48|128:48|207:24,1,212.499988079071,4|2,0:0|0:0,0:0:0:0:
256,96,151997,1,0,0:0:0:0:
304,24,152189,2,0,B|384:48|384:48|400:116|456:152,1,212.499988079071,0|0,1:0|0:0,0:0:0:0:
456,232,152766,2,0,B|400:268|384:336|384:336|304:359,1,212.499988079071,2|2,0:0|0:0,0:0:0:0:
224,332,153343,2,0,P|214:280|186:235,1,106.249994039536,8|0,0:3|0:0,0:0:0:0:
124,176,153727,2,0,P|96:131|86:79,2,106.249994039536,0|0|0,1:0|0:0|0:0,0:0:0:0:
208,152,154304,1,8,0:3:0:0:
256,80,154497,5,4,0:0:0:0:
335,47,154689,2,0,P|386:63|438:54,1,106.249994039536,2|0,0:0|0:0,0:0:0:0:
500,112,155074,2,0,P|484:162|493:214,1,106.249994039536,2|0,0:3|1:0,0:0:0:0:
496,300,155458,1,0,0:0:0:0:
452,372,155651,6,2,L|240:352,1,212.499988079071,2|0,0:0|0:0,0:0:0:0:
164,315,156227,2,0,P|172:263|164:211,1,106.249994039536,2|0,0:0|0:0,0:0:0:0:
104,148,156612,2,0,P|95:95|103:43,2,106.249994039536,2|0|0,0:3|1:0|0:0,0:0:0:0:
164,212,157189,5,0,0:0:0:0:
188,204,157285,1,0,0:0:0:0:
212,196,157381,1,0,0:0:0:0:
236,188,157477,1,0,0:0:0:0:
260,180,157574,1,4,0:0:0:0:
412,108,157958,6,0,L|435:211,1,106.249994039536,2|0,0:0|0:0,0:0:0:0:
463,293,158343,2,0,P|387:357|300:308,1,212.499988079071,0|0,1:0|0:0,0:0:0:0:
212,308,158920,2,0,P|124:357|48:292,1,212.499988079071,2|2,0:0|0:0,0:0:0:0:
132,272,159497,2,0,P|150:173|249:156,1,212.499988079071,8|0,0:3|1:0,0:0:0:0:
332,148,160074,2,0,P|363:105|369:53,2,106.249994039536,0|8|8,0:0|0:3|0:3,0:0:0:0:
248,156,160651,5,4,0:0:0:0:
200,88,160843,2,0,L|94:72,1,106.249994039536,2|0,0:0|0:0,0:0:0:0:
60,168,161227,2,0,L|165:183,1,106.249994039536,2|0,0:3|1:0,0:0:0:0:
212,272,161612,1,0,0:0:0:0:
280,344,161804,2,0,B|344:328|400:364|400:364|479:329,1,212.499988079071,2|0,0:0|0:0,0:0:0:0:
487,243,162381,2,0,P|476:192|482:140,1,106.249994039536,2|0,0:0|0:0,0:0:0:0:
479,54,162766,2,2,B|400:20|400:20|344:56|280:40,1,212.499988079071,2|2,0:0|0:0,0:0:0:0:
196,12,163343,1,8,0:3:0:0:
112,32,163535,1,8,0:3:0:0:
39,76,163727,6,0,P|15:178|50:277,1,212.499988079071,4|2,0:0|0:0,0:0:0:0:
92,352,164304,1,0,0:0:0:0:
91,352,164497,2,0,P|174:289|275:307,1,212.499988079071,0|0,1:0|0:0,0:0:0:0:
348,352,165074,1,2,0:0:0:0:
500,272,165458,1,2,0:0:0:0:
500,272,165651,2,0,L|488:59,1,212.499988079071,8|0,0:3|1:0,0:0:0:0:
415,20,166227,2,0,P|367:39|314:33,1,106.249994039536,0|8,0:0|0:3,0:0:0:0:
232,20,166612,1,8,0:3:0:0:
148,40,166804,5,4,0:0:0:0:
112,116,166997,2,0,P|100:167|115:217,1,106.249994039536,2|0,0:0|0:0,0:0:0:0:
196,248,167381,2,0,P|244:227|296:236,2,106.249994039536,2|0|0,0:3|1:0|0:0,0:0:0:0:
156,324,167958,2,0,P|108:345|56:336,1,106.249994039536,2|8,0:0|0:3,0:0:0:0:
12,264,168343,2,0,P|-15:162|14:62,1,212.499988079071,2|0,0:0|0:0,0:0:0:0:
92,28,168920,2,2,B|152:32|196:56|196:56|228:28|292:20,1,212.499988079071,2|2,0:0|0:0,0:0:0:0:
376,12,169497,1,8,0:3:0:0:
432,76,169689,1,8,0:3:0:0:
416,160,169881,5,4,0:0:0:0:
368,328,170266,2,0,B|319:347|319:347|265:338,1,106.249994039536,2|0,0:0|0:0,0:0:0:0:
216,264,170651,2,0,P|120:304|25:264,1,212.499988079071,0|0,1:0|0:0,0:0:0:0:
24,180,171227,2,0,P|119:139|214:179,1,212.499988079071,8|0,0:3|0:0,0:0:0:0:
297,179,171804,2,0,P|392:139|488:180,1,212.499988079071,8|0,0:3|1:0,0:0:0:0:
508,264,172381,2,0,L|480:368,1,106.249994039536,0|8,0:0|0:3,0:0:0:0:
396,368,172766,1,8,0:3:0:0:
312,376,172958,5,4,0:0:0:0:
228,384,173151,2,0,L|122:372,1,106.249994039536,2|0,0:0|0:0,0:0:0:0:
56,319,173535,2,0,P|67:268|59:216,1,106.249994039536,2|0,0:3|1:0,0:0:0:0:
103,143,173920,1,0,0:0:0:0:
104,144,174112,2,2,B|159:120|203:152|203:152|255:192|303:160,1,212.499988079071,2|0,0:0|0:0,0:0:0:0:
388,144,174689,2,0,P|404:92|400:40,2,106.249994039536,2|0|2,0:0|0:0|0:3,0:0:0:0:
396,312,175266,6,0,P|349:288|297:293,1,106.249994039536,0|0,1:0|0:0,0:0:0:0:
116,308,175651,2,0,P|162:331|214:326,1,106.249994039536,0|0,1:0|1:0,0:0:0:0:
256,192,176035,1,2,0:0:0:0:
256,192,176227,12,0,178535,0:0:0:0:
