osu file format v12

[General]
AudioFilename: Gospel.mp3
AudioLeadIn: 0
PreviewTime: 112566
Countdown: 0
SampleSet: Soft
StackLeniency: 0.7
Mode: 0
LetterboxInBreaks: 0
WidescreenStoryboard: 0

[Editor]
DistanceSpacing: 1
BeatDivisor: 4
GridSize: 4
TimelineZoom: 1

[Metadata]
Title:This is Gospel
TitleUnicode:This is Gospel
Artist:Panic! at the Disco
ArtistUnicode:Panic! at the Disco
Creator:mancuso_JM_
Version:Nervous!
Source:
Tags:Too weird to live too rare to die synthrock alternative patd mancusojuanmattos
BeatmapID:389652
BeatmapSetID:159506

[Difficulty]
HPDrainRate:4
CircleSize:3
OverallDifficulty:4
ApproachRate:5
SliderMultiplier:1.29999990463257
SliderTickRate:1

[Events]
//Background and Video events
Video,-1920,"Video.avi"
0,0,"patd.jpg",0,0
//Break Periods
2,102389,111374
//Storyboard Layer 0 (Background)
//Storyboard Layer 1 (Fail)
//Storyboard Layer 2 (Pass)
//Storyboard Layer 3 (Foreground)
//Storyboard Sound Samples
//Background Colour Transformations
3,100,163,162,255

[TimingPoints]
651,384.615384615385,4,2,0,40,1,0
4112,-125,4,2,0,40,0,0
16035,-100,4,2,0,50,0,0
40651,-100,4,2,0,75,0,1
65170,-100,4,2,0,75,0,0
65266,-100,4,2,0,75,0,1
65362,-100,4,2,0,75,0,0
77574,-100,4,2,0,60,0,0
102189,-100,4,2,0,25,0,0
102285,-100,4,2,0,60,0,0
114497,-100,4,2,0,75,0,1
139016,-100,4,2,0,75,0,0
139112,-100,4,2,0,75,0,1
139208,-100,4,2,0,75,0,0
176035,-100,4,2,0,50,0,0
176227,-100,4,2,0,35,0,0
176804,-100,4,2,0,20,0,0
177574,-100,4,2,0,15,0,0
178343,-100,4,2,0,10,0,0
178535,-100,4,2,0,5,0,0

[Colours]
Combo1 : 255,62,62
Combo2 : 0,94,138
Combo3 : 0,108,54
SliderBorder : 30,30,30

[HitObjects]
256,76,4112,5,2,0:0:0:0:
306,166,4497,2,0,P|256:179|206:166,2,103.999992370606,4|0|4,0:3|0:0|0:3,0:0:0:0:
408,192,5651,2,0,L|399:243,1,51.9999961853028,2|4,0:0|0:3,0:0:0:0:
420,292,6035,1,4,0:3:0:0:
328,344,6420,2,0,B|276:344|256:280|256:280|236:344|184:344,1,207.999984741211,2|2,0:0|0:0,0:0:0:0:
104,276,7574,6,0,L|89:172,1,103.999992370606,4|2,0:3|0:0,0:0:0:0:
104,68,8343,2,0,P|152:83|203:72,1,103.999992370606,4|2,0:3|0:0,0:0:0:0:
308,72,9112,2,0,P|359:83|408:67,1,103.999992370606,4|2,0:3|0:0,0:0:0:0:
504,32,9881,1,4,0:3:0:0:
492,188,10458,6,0,L|488:239,1,51.9999961853028,4|4,0:3|0:3,0:0:0:0:
411,308,11035,2,0,P|326:360|233:321,1,207.999984741211,2|0,0:0|0:0,0:0:0:0:
316,256,12189,1,4,0:3:0:0:
340,156,12574,2,0,P|288:156|245:184,1,103.999992370606,2|4,0:0|0:3,0:0:0:0:
92,164,13535,5,4,0:3:0:0:
92,164,13727,2,0,L|69:62,2,103.999992370606,4|2|0,0:3|0:0|0:0,0:0:0:0:
72,268,14881,1,2,0:0:0:0:
148,336,15266,1,4,0:3:0:0:
252,356,15651,2,0,L|304:348,1,51.9999961853028,4|4,0:3|0:3,0:0:0:0:
368,336,16035,6,0,P|351:273|359:209,1,129.999990463257,8|8,0:0|0:0,0:0:0:0:
244,148,16804,2,0,P|251:83|235:21,1,129.999990463257,8|8,0:0|0:0,0:0:0:0:
105,21,17574,2,0,P|97:85|113:147,1,129.999990463257,8|8,0:0|0:0,0:0:0:0:
136,276,18343,2,0,P|193:248|256:259,1,129.999990463257,8|8,0:0|0:0,0:0:0:0:
295,312,18920,6,0,P|214:360|122:337,1,194.999985694886,2|8,0:0|0:0,0:0:0:0:
20,256,19881,2,0,P|9:193|20:129,1,129.999990463257,8|8,0:0|0:0,0:0:0:0:
112,36,20651,2,0,P|174:52|235:32,1,129.999990463257,8|8,0:0|0:0,0:0:0:0:
360,60,21420,2,0,P|401:109|423:170,1,129.999990463257,8|8,0:0|0:0,0:0:0:0:
348,276,22189,5,4,0:3:0:0:
256,184,22574,1,8,0:0:0:0:
164,276,22958,1,8,0:0:0:0:
56,356,23343,2,0,L|48:291,1,64.9999952316285,8|0,0:0|0:0,0:0:0:0:
28,228,23727,2,0,P|15:164|29:101,1,129.999990463257,8|8,0:0|0:0,0:0:0:0:
144,40,24497,2,0,L|273:32,1,129.999990463257,8|8,0:0|0:0,0:0:0:0:
340,28,25074,6,0,P|319:122|352:212,1,194.999985694886,2|8,0:0|0:0,0:0:0:0:
444,304,26035,2,0,P|393:342|330:337,1,129.999990463257,8|8,0:0|0:0,0:0:0:0:
232,248,26804,2,0,B|188:240|173:266|156:292|113:286,1,129.999990463257,8|8,0:0|0:0,0:0:0:0:
67,160,27574,2,0,P|124:128|188:132,1,129.999990463257,8|8,0:0|0:0,0:0:0:0:
320,140,28343,6,0,P|360:90|372:27,2,129.999990463257,4|8|2,0:0|0:3|0:0,0:0:0:0:
192,132,29497,1,2,0:0:0:0:
156,160,29689,1,4,0:3:0:0:
128,196,29881,2,0,P|86:245|75:308,1,129.999990463257,8|0,0:3|0:0,0:0:0:0:
124,352,30458,2,0,B|192:364|236:300|236:300|299:312,1,194.999985694886,2|8,0:0|0:3,0:0:0:0:
424,280,31420,6,0,L|406:151,1,129.999990463257,2|8,0:0|0:3,0:0:0:0:
280,112,32189,2,0,L|297:240,1,129.999990463257,8|2,0:3|0:0,0:0:0:0:
308,304,32766,2,0,B|244:316|188:280|188:280|127:313,1,194.999985694886,8|0,0:1|0:0,0:0:0:0:
8,260,33727,1,8,0:1:0:0:
84,151,34112,2,0,P|107:129|123:101,1,64.9999952316285,8|0,0:3|0:0,0:0:0:0:
108,36,34497,6,0,P|163:67|227:61,1,129.999990463257,2|4,0:0|0:3,0:0:0:0:
356,52,35266,2,0,P|324:107|330:171,1,129.999990463257,8|0,0:3|0:0,0:0:0:0:
375,219,35843,2,0,P|369:305|285:285,1,194.999985694886,8|2,0:1|0:0,0:0:0:0:
204,184,36804,2,0,P|169:129|113:98,1,129.999990463257,8|0,0:1|0:0,0:0:0:0:
24,196,37574,2,0,P|58:250|114:281,1,129.999990463257,4|0,0:0|0:0,0:0:0:0:
240,308,38343,1,4,0:3:0:0:
367,304,38727,6,0,P|396:288|428:287,1,64.9999952316285,2|0,0:0|0:0,0:0:0:0:
488,316,39112,2,0,L|468:187,1,129.999990463257,0|2,0:0|0:0,0:0:0:0:
440,56,39881,1,0,0:0:0:0:
440,56,40266,1,2,0:0:0:0:
452,184,40651,6,0,B|388:216|340:192|324:116|324:116|256:204|188:116|188:116|172:192|124:216|60:184,2,519.999961853028,4|2|4,0:0|0:0|0:0,0:0:0:0:
496,307,44112,2,0,P|437:335|373:330,1,129.999990463257,2|0,0:0|1:0,0:0:0:0:
256,276,44881,2,0,P|226:261|194:260,1,64.9999952316285,2|0,0:0|0:0,0:0:0:0:
156,312,45266,2,0,L|121:186,1,129.999990463257,0|2,0:0|0:0,0:0:0:0:
20,104,46035,1,0,1:0:0:0:
20,104,46420,1,2,0:0:0:0:
136,38,46804,6,0,B|112:126|144:190|232:190|256:242|256:242|280:190|368:190|400:126|376:38,2,519.999961853028,4|2|4,0:0|0:0|0:0,0:0:0:0:
8,28,50266,6,0,P|4:92|15:156,1,129.999990463257,2|0,0:0|1:0,0:0:0:0:
48,188,50843,1,2,0:0:0:0:
76,316,51227,1,2,0:0:0:0:
104,352,51420,2,0,L|167:337,1,64.9999952316285,2|0,0:0|0:0,0:0:0:0:
232,328,51804,2,0,B|276:316|296:332|316:348|360:336,1,129.999990463257,2|0,0:0|1:0,0:0:0:0:
456,248,52574,1,2,0:0:0:0:
400,132,52958,6,0,B|336:116|336:116|322:53,1,129.999990463257,4|2,0:0|0:0,0:0:0:0:
189,53,53727,2,0,B|176:116|176:116|112:132,1,129.999990463257,0|0,1:0|0:0,0:0:0:0:
52,108,54304,2,0,L|74:236,1,129.999990463257,4|0,0:3|0:0,0:0:0:0:
96,296,54881,2,0,P|153:324|217:317,1,129.999990463257,2|0,0:0|1:0,0:0:0:0:
344,275,55651,2,0,P|373:262|405:258,1,64.9999952316285,4|4,0:3|0:3,0:0:0:0:
464,232,56035,6,0,P|471:167|456:105,1,129.999990463257,4|2,0:0|0:0,0:0:0:0:
343,36,56804,2,0,P|284:60|221:49,1,129.999990463257,0|0,1:0|0:0,0:0:0:0:
164,16,57381,2,0,L|160:145,1,129.999990463257,4|2,0:3|0:0,0:0:0:0:
128,180,57958,1,0,0:0:0:0:
196,292,58343,2,0,P|255:270|316:292,1,129.999990463257,0|2,1:0|0:0,0:0:0:0:
443,299,59112,6,0,P|429:236|441:173,1,129.999990463257,4|2,0:0|0:0,0:0:0:0:
412,48,59881,2,0,P|348:62|285:50,1,129.999990463257,0|2,1:0|0:0,0:0:0:0:
224,28,60458,2,0,P|160:16|97:30,1,129.999990463257,4|0,0:3|0:0,0:0:0:0:
68,64,61035,1,8,0:3:0:0:
96,192,61420,2,0,P|160:204|223:190,1,129.999990463257,0|0,1:0|0:0,0:0:0:0:
344,140,62189,6,0,P|407:126|470:138,1,129.999990463257,4|0,0:0|0:0,0:0:0:0:
480,268,62958,2,0,P|416:280|353:266,1,129.999990463257,0|0,1:0|0:0,0:0:0:0:
228,240,63727,2,0,B|184:228|164:248|144:268|101:258,1,129.999990463257,2|0,0:0|0:0,0:0:0:0:
36,264,64304,2,0,L|32:134,1,129.999990463257,2|2,0:0|0:0,0:0:0:0:
64,100,64881,1,8,0:3:0:0:
180,40,65266,5,4,0:0:0:0:
256,144,65651,2,0,P|319:155|381:137,1,129.999990463257,2|0,0:0|1:0,0:0:0:0:
504,168,66420,1,0,0:0:0:0:
504,168,66612,2,0,P|522:229|510:293,1,129.999990463257,2|2,0:0|0:0,0:0:0:0:
451,323,67189,2,0,P|390:303|327:314,1,129.999990463257,8|0,0:3|1:0,0:0:0:0:
200,344,67958,1,8,0:3:0:0:
72,324,68343,5,4,0:0:0:0:
36,200,68727,2,0,L|25:135,2,64.9999952316285,2|0|0,0:0|0:0|1:0,0:0:0:0:
164,228,69497,2,0,P|246:181|335:214,1,194.999985694886,2|2,0:0|0:0,0:0:0:0:
360,252,70266,1,8,0:3:0:0:
488,224,70651,2,0,L|495:159,1,64.9999952316285,0|0,1:0|0:0,0:0:0:0:
436,136,71035,2,0,L|414:74,1,64.9999952316285,0|0,1:0|1:0,0:0:0:0:
348,64,71420,5,4,0:0:0:0:
220,56,71804,2,0,P|157:40|94:52,1,129.999990463257,2|0,0:0|1:0,0:0:0:0:
96,184,72574,1,8,0:3:0:0:
96,184,72766,2,0,P|159:196|221:180,1,129.999990463257,2|2,0:0|0:0,0:0:0:0:
284,156,73343,2,0,P|346:140|409:152,1,129.999990463257,8|0,0:3|1:0,0:0:0:0:
464,272,74112,1,0,1:0:0:0:
352,336,74497,5,4,0:0:0:0:
223,319,74881,2,0,P|193:308|161:310,1,64.9999952316285,2|0,0:0|0:0,0:0:0:0:
112,352,75266,2,0,L|96:222,1,129.999990463257,0|2,1:0|0:0,0:0:0:0:
56,200,75843,1,8,0:3:0:0:
156,120,76227,2,0,P|187:124|218:113,1,64.9999952316285,2|8,0:0|0:3,0:0:0:0:
356,59,76804,2,0,P|356:124|380:184,1,129.999990463257,0|0,1:0|1:0,0:0:0:0:
452,296,77574,5,4,0:0:0:0:
328,324,77958,2,0,P|296:316|264:320,1,64.9999952316285,2|0,0:0|0:0,0:0:0:0:
200,336,78343,2,0,P|137:352|75:336,2,129.999990463257,8|0|8,0:3|0:0|0:0,0:0:0:0:
256,220,79497,2,0,B|236:152|272:152|256:91,2,129.999990463257,2|8|0,0:0|0:3|0:0,0:0:0:0:
368,288,80651,5,4,0:0:0:0:
244,332,81035,2,0,L|179:339,1,64.9999952316285,2|0,0:0|0:0,0:0:0:0:
120,368,81420,2,0,P|123:304|114:239,1,129.999990463257,8|0,0:3|0:0,0:0:0:0:
8,160,82189,2,0,P|-2:95|2:30,2,129.999990463257,8|0|8,0:0|0:0|0:3,0:0:0:0:
132,200,83343,1,0,0:0:0:0:
240,128,83727,5,8,0:0:0:0:
436,144,84304,1,2,0:0:0:0:
436,144,84497,2,0,P|443:208|436:271,1,129.999990463257,8|0,0:3|0:0,0:0:0:0:
388,316,85074,2,0,P|327:294|264:307,1,129.999990463257,4|0,0:3|0:0,0:0:0:0:
228,336,85651,1,0,0:0:0:0:
99,335,86035,2,0,B|112:272|112:272|101:207,1,129.999990463257,8|0,0:3|0:0,0:0:0:0:
32,100,86804,5,8,0:0:0:0:
156,60,87189,2,0,P|186:70|218:70,1,64.9999952316285,2|0,0:0|0:0,0:0:0:0:
276,40,87574,2,0,P|268:104|282:167,1,129.999990463257,8|2,0:3|0:0,0:0:0:0:
328,292,88343,2,0,P|241:252|154:288,1,194.999985694886,8|0,0:0|0:0,0:0:0:0:
124,324,89112,1,8,0:3:0:0:
12,256,89497,1,8,0:3:0:0:
68,140,89881,6,0,B|104:128|132:143|164:160|196:144,2,129.999990463257,4|2|8,0:0|0:0|0:3,0:0:0:0:
12,256,91035,2,0,L|24:324,1,64.9999952316285,2|4,0:0|0:3,0:0:0:0:
80,352,91420,2,0,P|126:308|189:295,1,129.999990463257,2|2,0:0|0:0,0:0:0:0:
322,295,92189,2,0,P|385:308|432:352,1,129.999990463257,8|0,0:3|0:0,0:0:0:0:
505,325,92766,6,0,P|442:253|352:218,1,194.999985694886,2|0,0:0|0:0,0:0:0:0:
224,232,93727,2,0,P|132:210|95:123,1,194.999985694886,8|4,0:3|0:3,0:0:0:0:
180,24,94689,2,0,P|271:45|308:132,1,194.999985694886,2|8,0:0|0:3,0:0:0:0:
400,224,95651,2,0,L|408:292,1,64.9999952316285,8|8,0:3|0:3,0:0:0:0:
364,336,96035,6,0,B|300:316|300:356|236:336,2,129.999990463257,4|2|4,0:0|0:0|0:3,0:0:0:0:
484,284,97189,2,0,L|476:219,1,64.9999952316285,8|0,0:3|0:0,0:0:0:0:
431,171,97574,2,0,P|408:112|356:74,1,129.999990463257,2|0,0:0|0:0,0:0:0:0:
236,28,98343,2,0,P|229:91|189:142,1,129.999990463257,8|4,0:3|0:3,0:0:0:0:
112,119,98920,6,0,P|140:206|231:207,1,194.999985694886,2|2,0:0|0:0,0:0:0:0:
344,136,99881,1,8,0:3:0:0:
396,256,100266,2,0,P|400:288|389:320,1,64.9999952316285,8|0,0:3|0:0,0:0:0:0:
264,348,100843,2,0,P|233:337|201:341,1,64.9999952316285,2|0,0:0|0:0,0:0:0:0:
68,352,101420,2,0,L|60:272,1,64.9999952316285,8|0,0:3|0:0,0:0:0:0:
116,252,101804,2,0,L|135:189,1,64.9999952316285,8|8,0:3|0:3,0:0:0:0:
192,156,102189,1,2,0:0:0:0:
95,113,112574,6,0,L|105:177,1,64.9999952316285,2|0,0:0|0:0,0:0:0:0:
111,241,112958,2,0,P|160:283|190:339,1,129.999990463257,0|2,0:0|0:0,0:0:0:0:
320,340,113727,2,0,P|350:283|399:241,1,129.999990463257,0|2,0:0|0:0,0:0:0:0:
464,128,114497,6,0,B|384:52|324:204|256:33|256:33|188:204|128:52|48:128,2,519.999961853028,4|2|4,0:0|0:0|0:0,0:0:0:0:
496,256,117958,6,0,P|465:313|416:355,1,129.999990463257,2|0,0:0|1:0,0:0:0:0:
287,363,118727,2,0,P|258:351|226:345,1,64.9999952316285,2|0,0:0|0:0,0:0:0:0:
159,348,119112,2,0,P|161:283|140:222,1,129.999990463257,0|2,0:0|0:0,0:0:0:0:
20,176,119881,1,0,1:0:0:0:
48,48,120266,1,2,0:0:0:0:
176,40,120651,6,0,B|240:24|372:164|348:208|256:282|164:208|140:164|272:24|336:40,2,519.999961853028,4|2|4,0:0|0:0|0:0,0:0:0:0:
127,156,124112,2,0,P|139:219|180:269,1,129.999990463257,2|0,0:0|1:0,0:0:0:0:
188,316,124689,1,2,0:0:0:0:
324,316,125074,1,2,0:0:0:0:
331,268,125266,2,0,P|371:219|384:156,1,129.999990463257,2|2,0:0|0:0,0:0:0:0:
316,48,126035,2,0,B|256:72|256:72|196:48,1,129.999990463257,0|2,1:0|0:0,0:0:0:0:
64,48,126804,6,0,P|80:110|70:173,1,129.999990463257,4|2,0:0|0:0,0:0:0:0:
12,292,127574,2,0,B|74:275|74:275|138:286,1,129.999990463257,0|2,1:0|0:0,0:0:0:0:
200,308,128151,2,0,P|259:332|321:317,1,129.999990463257,4|0,0:3|0:0,0:0:0:0:
360,296,128727,1,2,0:0:0:0:
484,255,129112,2,0,P|496:192|481:130,1,129.999990463257,0|0,1:0|0:0,0:0:0:0:
384,44,129881,5,4,0:0:0:0:
254,72,130266,2,0,P|193:91|131:77,2,129.999990463257,2|0|0,0:0|1:0|0:0,0:0:0:0:
300,27,131227,2,0,P|285:90|304:152,1,129.999990463257,4|2,0:3|0:0,0:0:0:0:
348,200,131804,2,0,P|366:261|352:324,2,129.999990463257,4|0|0,0:3|1:0|0:0,0:0:0:0:
220,172,132958,6,0,L|90:157,1,129.999990463257,4|2,0:0|0:0,0:0:0:0:
48,280,133727,2,0,L|177:294,1,129.999990463257,0|0,1:0|0:0,0:0:0:0:
232,331,134304,2,0,P|289:303|351:318,1,129.999990463257,4|2,0:3|0:0,0:0:0:0:
396,364,134881,2,0,L|388:234,1,129.999990463257,4|0,0:3|1:0,0:0:0:0:
348,112,135651,2,0,P|315:107|286:93,1,64.9999952316285,4|4,0:3|0:3,0:0:0:0:
248,72,136035,5,4,0:0:0:0:
123,112,136420,2,0,P|112:175|127:238,1,129.999990463257,2|0,0:0|1:0,0:0:0:0:
184,356,137189,1,0,0:0:0:0:
312,340,137574,2,0,P|360:299|424:300,1,129.999990463257,2|0,0:0|0:0,0:0:0:0:
488,287,138151,2,0,P|491:223|469:162,1,129.999990463257,2|2,0:0|0:0,0:0:0:0:
408,140,138727,2,0,P|400:108|402:76,1,64.9999952316285,4|4,0:3|0:3,0:0:0:0:
440,24,139112,6,0,P|378:45|314:39,1,129.999990463257,4|2,0:0|0:0,0:0:0:0:
188,16,139881,2,0,P|142:60|79:68,1,129.999990463257,0|0,1:0|0:0,0:0:0:0:
15,80,140458,2,0,P|4:143|23:204,1,129.999990463257,8|2,0:3|0:0,0:0:0:0:
40,267,141035,2,0,P|97:239|160:250,1,129.999990463257,8|0,0:3|1:0,0:0:0:0:
256,339,141804,2,0,P|286:328|318:330,1,64.9999952316285,8|8,0:3|0:3,0:0:0:0:
360,352,142189,5,4,0:0:0:0:
460,268,142574,2,0,L|436:136,1,129.999990463257,2|0,0:0|1:0,0:0:0:0:
312,100,143343,1,0,0:0:0:0:
312,100,143535,2,0,L|335:227,1,129.999990463257,2|2,0:0|0:0,0:0:0:0:
328,272,144112,1,8,0:3:0:0:
232,360,144497,2,0,P|168:347|106:363,1,129.999990463257,0|0,1:0|0:0,0:0:0:0:
4,284,145266,6,0,P|16:220|0:158,2,129.999990463257,4|2|0,0:0|0:0|1:0,0:0:0:0:
120,347,146420,2,0,P|148:332|180:334,1,64.9999952316285,2|8,0:0|0:3,0:0:0:0:
312,344,146997,2,0,P|344:345|372:330,1,64.9999952316285,2|8,0:0|0:3,0:0:0:0:
468,243,147574,2,0,P|479:180|459:119,1,129.999990463257,0|2,1:0|0:0,0:0:0:0:
348,56,148343,5,4,0:0:0:0:
256,152,148727,2,0,L|256:282,2,129.999990463257,2|0|0,0:0|1:0|0:0,0:0:0:0:
174,55,149881,2,0,P|256:10|338:55,2,194.999985694886,2|2|0,0:0|0:0|1:0,0:0:0:0:
55,112,151420,6,0,P|47:175|63:238,1,129.999990463257,4|2,0:0|0:0,0:0:0:0:
132,351,152189,2,0,P|179:308|242:301,1,129.999990463257,0|0,1:0|0:0,0:0:0:0:
307,296,152766,2,0,P|328:202|290:114,1,194.999985694886,8|8,0:3|0:3,0:0:0:0:
171,60,153727,2,0,P|111:81|48:68,2,129.999990463257,0|8|4,1:0|0:3|0:0,0:0:0:0:
300,40,154881,6,0,P|300:72|311:102,1,64.9999952316285,2|0,0:0|0:0,0:0:0:0:
340,164,155266,2,0,P|395:132|458:140,1,129.999990463257,0|2,1:0|0:0,0:0:0:0:
480,268,156035,2,0,P|424:299|361:291,1,129.999990463257,2|8,0:0|0:3,0:0:0:0:
248,232,156804,2,0,P|192:263|129:255,1,129.999990463257,0|0,1:0|0:0,0:0:0:0:
104,128,157574,6,0,P|159:96|222:104,2,129.999990463257,4|2|0,0:0|0:0|1:0,0:0:0:0:
24,232,158727,2,0,P|28:264|38:294,1,64.9999952316285,2|8,0:0|0:3,0:0:0:0:
152,356,159304,1,2,0:0:0:0:
152,355,159497,2,0,P|209:327|272:336,2,129.999990463257,8|0|0,0:3|1:0|0:0,0:0:0:0:
20,356,160651,5,4,0:0:0:0:
4,228,161035,2,0,P|-3:196|0:164,1,64.9999952316285,2|0,0:0|0:0,0:0:0:0:
24,104,161420,2,0,P|82:132|145:121,1,129.999990463257,0|0,1:0|0:0,0:0:0:0:
256,56,162189,1,2,0:0:0:0:
371,116,162574,2,0,P|434:127|492:99,2,129.999990463257,0|0|2,0:0|1:0|0:0,0:0:0:0:
256,56,163727,6,0,B|276:120|232:120|255:182,2,129.999990463257,4|2|0,0:0|0:0|1:0,0:0:0:0:
127,40,164881,2,0,P|97:51|65:49,1,64.9999952316285,2|8,0:0|0:3,0:0:0:0:
12,168,165458,2,0,P|42:179|74:177,1,64.9999952316285,2|8,0:0|0:3,0:0:0:0:
75,308,166035,2,0,P|106:319|138:316,1,64.9999952316285,0|0,1:0|0:0,0:0:0:0:
204,312,166420,2,0,P|235:301|267:304,1,64.9999952316285,8|8,0:3|0:3,0:0:0:0:
324,332,166804,6,0,L|298:204,1,129.999990463257,4|2,0:0|0:0,0:0:0:0:
412,144,167574,2,0,L|438:272,1,129.999990463257,0|2,1:0|0:0,0:0:0:0:
456,312,168151,1,8,0:3:0:0:
324,332,168535,1,8,0:3:0:0:
324,332,168727,2,0,P|263:309|201:324,1,129.999990463257,2|0,0:0|1:0,0:0:0:0:
71,299,169497,2,0,P|64:268|67:236,1,64.9999952316285,0|0,1:0|1:0,0:0:0:0:
80,172,169881,6,0,P|141:188|202:167,1,129.999990463257,4|2,0:0|0:0,0:0:0:0:
316,100,170651,2,0,P|376:78|438:95,1,129.999990463257,0|0,1:0|0:0,0:0:0:0:
464,156,171227,2,0,P|378:196|289:161,1,194.999985694886,8|8,0:3|0:3,0:0:0:0:
164,120,172189,2,0,L|175:249,1,129.999990463257,0|0,1:0|0:0,0:0:0:0:
256,352,172958,5,4,0:0:0:0:
364,275,173343,2,0,P|390:257|422:253,1,64.9999952316285,2|0,0:0|0:0,0:0:0:0:
484,276,173727,2,0,P|456:217|451:153,1,129.999990463257,0|2,1:0|0:0,0:0:0:0:
475,92,174304,2,0,P|397:144|304:123,1,194.999985694886,8|0,0:3|0:0,0:0:0:0:
176,108,175266,6,0,P|180:140|176:172,1,64.9999952316285,0|0,1:0|0:0,0:0:0:0:
200,232,175651,2,0,P|231:222|263:224,1,64.9999952316285,0|0,1:0|1:0,0:0:0:0:
308,272,176035,1,2,0:0:0:0:
256,192,176227,12,0,178535,0:0:0:0:
