osu file format v12

[General]
AudioFilename: Gospel.mp3
AudioLeadIn: 0
PreviewTime: 112566
Countdown: 0
SampleSet: Soft
StackLeniency: 0.7
Mode: 0
LetterboxInBreaks: 0
WidescreenStoryboard: 0

[Editor]
DistanceSpacing: 1.1
BeatDivisor: 4
GridSize: 4
TimelineZoom: 1

[Metadata]
Title:This is Gospel
TitleUnicode:This is Gospel
Artist:Panic! at the Disco
ArtistUnicode:Panic! at the Disco
Creator:mancuso_JM_
Version:Calm!
Source:
Tags:Too weird to live too rare to die synthrock alternative patd mancusojuanmattos
BeatmapID:389651
BeatmapSetID:159506

[Difficulty]
HPDrainRate:2
CircleSize:3
OverallDifficulty:2
ApproachRate:3
SliderMultiplier:0.89999990463257
SliderTickRate:1

[Events]
//Background and Video events
Video,-1920,"Video.avi"
0,0,"patd.jpg",0,0
//Break Periods
2,102388,111134
//Storyboard Layer 0 (Background)
//Storyboard Layer 1 (Fail)
//Storyboard Layer 2 (Pass)
//Storyboard Layer 3 (Foreground)
//Storyboard Sound Samples
//Background Colour Transformations
3,100,163,162,255

[TimingPoints]
651,384.615384615385,4,2,0,40,1,0
16035,-100,4,2,0,50,0,0
40651,-100,4,2,0,75,0,1
65170,-100,4,2,0,75,0,0
65266,-100,4,2,0,75,0,1
65362,-100,4,2,0,75,0,0
77574,-100,4,2,0,60,0,0
102189,-100,4,2,0,25,0,0
102285,-100,4,2,0,60,0,0
114497,-100,4,2,0,75,0,1
139016,-100,4,2,0,75,0,0
139112,-100,4,2,0,75,0,1
139208,-100,4,2,0,75,0,0
176035,-100,4,2,0,50,0,0
176227,-100,4,2,0,35,0,0
176804,-100,4,2,0,20,0,0
177574,-100,4,2,0,15,0,0
178343,-100,4,2,0,10,0,0
178535,-100,4,2,0,5,0,0

[Colours]
Combo1 : 255,62,62
Combo2 : 0,94,138
Combo3 : 0,108,54
SliderBorder : 30,30,30

[HitObjects]
32,240,4112,5,2,0:0:0:0:
64,332,4497,2,0,P|143:368|224:335,1,179.999980926514,2|0,0:0|0:0,0:0:0:0:
256,240,5651,2,0,B|232:184|256:152|280:120|258:64,1,179.999980926514,2|2,0:0|0:0,0:0:0:0:
352,32,6804,5,4,0:3:0:0:
492,176,7574,2,0,P|420:225|338:200,1,179.999980926514,2|0,0:0|0:0,0:0:0:0:
404,128,8727,2,0,P|384:92|348:60,1,89.999990463257,2|0,0:0|0:0,0:0:0:0:
256,24,9497,1,2,0:0:0:0:
160,40,9881,5,4,0:3:0:0:
136,236,10651,1,0,0:0:0:0:
232,264,11035,2,0,P|291:232|356:245,2,134.999985694885,2|2|0,0:0|0:0|0:0,0:0:0:0:
188,352,12574,1,2,0:0:0:0:
92,336,12958,5,4,0:3:0:0:
131,144,13727,2,0,P|193:118|228:62,2,134.999985694885,2|2|0,0:0|0:0|0:0,0:0:0:0:
44,188,15266,2,0,L|55:277,1,89.999990463257,2|0,0:0|0:0,0:0:0:0:
128,344,16035,6,0,P|165:319|211:312,1,89.999990463257,8|8,0:0|0:0,0:0:0:0:
302,311,16804,2,0,P|346:319|384:344,1,89.999990463257,8|8,0:0|0:0,0:0:0:0:
464,284,17574,2,0,P|440:197|454:109,1,179.999980926514,8|8,0:0|0:0,0:0:0:0:
472,12,18727,1,8,0:0:0:0:
384,56,19112,6,0,P|348:82|304:90,1,89.999990463257,8|8,0:0|0:0,0:0:0:0:
220,40,19881,2,0,P|176:47|139:73,1,89.999990463257,8|8,0:0|0:0,0:0:0:0:
60,132,20651,1,8,0:0:0:0:
12,220,21035,2,0,L|1:309,2,89.999990463257,8|8|8,0:0|0:0|0:0,0:0:0:0:
111,220,22189,6,0,L|122:309,2,89.999990463257,8|8|8,0:0|0:0|0:0,0:0:0:0:
60,136,23343,1,8,0:0:0:0:
140,76,23727,2,0,B|192:124|216:72|256:200|256:200|296:72|320:124|372:76,1,359.999961853028,8|8,0:0|0:0,0:0:0:0:
467,100,25651,6,0,P|464:144|477:187,1,89.999990463257,8|8,0:0|0:0,0:0:0:0:
444,280,26420,1,8,0:0:0:0:
444,280,26804,2,0,L|355:265,1,89.999990463257,8|8,0:0|0:0,0:0:0:0:
280,200,27574,2,0,P|283:155|270:112,1,89.999990463257,8|8,0:0|0:0,0:0:0:0:
188,56,28343,6,0,P|145:70|101:68,2,89.999990463257,4|8|2,0:0|0:3|0:0,0:0:0:0:
284,24,29497,1,4,0:3:0:0:
284,24,29881,2,0,B|328:44|340:80|340:80|392:73,2,134.999985694885,8|2|0,0:3|0:0|0:0,0:0:0:0:
248,116,31420,6,0,P|259:159|257:203,1,89.999990463257,4|2,0:0|0:0,0:0:0:0:
340,256,32189,2,0,P|392:214|459:215,2,134.999985694885,8|8|0,0:1|0:1|0:0,0:0:0:0:
252,300,33727,2,0,B|212:324|212:324|168:324,1,89.999990463257,8|0,0:1|0:0,0:0:0:0:
72,300,34497,6,0,L|64:210,1,89.999990463257,4|4,0:0|0:3,0:0:0:0:
100,116,35266,2,0,P|163:135|224:111,1,134.999985694885,8|8,0:3|0:1,0:0:0:0:
352,36,36420,2,0,P|324:120|348:206,1,179.999980926514,8|0,0:1|0:0,0:0:0:0:
304,296,37574,2,0,L|214:288,1,89.999990463257,4|0,0:0|0:0,0:0:0:0:
128,340,38343,1,4,0:3:0:0:
52,276,38727,6,0,L|38:232,2,44.9999952316285,2|0|0,0:0|0:0|0:0,0:0:0:0:
128,339,39497,2,0,P|171:347|214:336,1,89.999990463257,2|0,0:0|0:0,0:0:0:0:
280,264,40266,1,2,0:0:0:0:
377,254,40651,6,0,P|507:192|377:130,2,359.999961853028,4|2|4,0:0|0:0|0:0,0:0:0:0:
296,192,44112,2,0,L|206:192,1,89.999990463257,2|0,0:0|1:0,0:0:0:0:
116,156,44881,2,0,L|105:112,2,44.9999952316285,2|0|0,0:0|0:0|0:0,0:0:0:0:
56,236,45651,1,2,0:0:0:0:
32,332,46035,2,0,P|76:332|116:313,1,89.999990463257,0|2,1:0|0:0,0:0:0:0:
202,267,46804,6,0,P|256:136|312:267,2,359.999961853028,4|2|4,0:0|0:0|0:0,0:0:0:0:
260,349,50266,2,0,P|323:366|381:336,1,134.999985694885,2|2,0:0|0:0,0:0:0:0:
447,260,51227,2,0,P|457:239|462:217,1,44.9999952316285,2|2,0:0|0:0,0:0:0:0:
476,120,51804,2,0,B|420:120|392:156|392:156|313:121,1,179.999980926514,2|2,0:0|0:0,0:0:0:0:
247,48,52958,6,0,P|210:71|165:72,1,89.999990463257,4|0,0:0|0:0,0:0:0:0:
68,80,53727,2,0,L|87:213,2,134.999985694885,0|2|4,1:0|0:0|0:3,0:0:0:0:
156,32,55266,2,0,B|196:32|204:64|240:64,1,89.999990463257,0|0,1:0|0:0,0:0:0:0:
332,36,56035,5,4,0:0:0:0:
420,80,56420,1,2,0:0:0:0:
472,164,56804,2,0,P|492:227|481:293,2,134.999985694885,0|2|4,1:0|0:0|0:3,0:0:0:0:
376,148,58343,2,0,P|348:182|306:199,1,89.999990463257,0|0,1:0|0:0,0:0:0:0:
205,199,59112,6,0,P|163:182|136:148,1,89.999990463257,4|2,0:0|0:0,0:0:0:0:
68,76,59881,2,0,P|46:139|0:187,2,134.999985694885,0|2|4,1:0|0:0|0:3,0:0:0:0:
140,8,61420,2,0,P|175:35|218:43,1,89.999990463257,0|0,1:0|0:0,0:0:0:0:
316,12,62189,5,4,0:0:0:0:
408,48,62574,2,0,P|419:91|413:135,1,89.999990463257,2|0,0:0|1:0,0:0:0:0:
372,224,63343,1,0,0:0:0:0:
316,304,63727,2,0,P|380:320|439:292,2,134.999985694885,2|2|0,0:0|0:0|1:0,0:0:0:0:
235,247,65266,6,0,P|169:191|82:201,2,179.999980926514,4|0|0,0:0|1:0|0:0,0:0:0:0:
332,228,67189,2,0,L|338:138,2,89.999990463257,2|0|0,0:0|1:0|0:0,0:0:0:0:
428,248,68343,6,0,L|435:113,2,134.999985694885,4|8|2,0:0|0:3|0:0,0:0:0:0:
303,331,70074,2,0,P|283:322|261:317,1,44.9999952316285,2|0,0:0|0:0,0:0:0:0:
180,260,70651,2,0,B|164:288|164:312|164:312|129:312,1,89.999990463257,0|8,1:0|0:3,0:0:0:0:
36,279,71420,6,0,P|44:235|37:191,1,89.999990463257,4|2,0:0|0:0,0:0:0:0:
108,120,72189,2,0,P|169:145|231:124,2,134.999985694885,0|8|0,1:0|0:3|0:0,0:0:0:0:
172,44,73727,1,0,1:0:0:0:
368,68,74497,6,0,P|478:60|423:156,2,269.999971389771,4|2|0,0:0|0:0|1:0,0:0:0:0:
320,156,77189,1,0,1:0:0:0:
256,228,77574,6,0,P|223:257|181:272,2,89.999990463257,4|2|0,0:0|0:0|1:0,0:0:0:0:
260,128,78727,1,2,0:0:0:0:
260,128,79112,2,0,B|312:132|340:164|340:164|380:144|426:137,1,179.999980926514,8|8,0:0|0:3,0:0:0:0:
508,192,80266,1,0,0:0:0:0:
476,284,80651,5,8,0:0:0:0:
388,332,81035,2,0,P|343:327|303:307,1,89.999990463257,2|8,0:0|0:3,0:0:0:0:
256,220,81804,1,0,0:0:0:0:
208,307,82189,2,0,P|168:327|124:332,2,89.999990463257,8|2|8,0:0|0:0|0:3,0:0:0:0:
256,220,83343,1,0,0:0:0:0:
178,163,83727,6,0,P|256:125|334:163,1,179.999980926514,4|8,0:0|0:3,0:0:0:0:
334,267,84881,2,0,P|255:305|177:267,1,179.999980926514,2|0,0:0|0:0,0:0:0:0:
124,184,86035,2,0,P|105:144|73:113,2,89.999990463257,8|0|4,0:3|0:0|0:3,0:0:0:0:
148,280,87189,6,0,P|223:233|309:251,1,179.999980926514,2|2,0:0|0:0,0:0:0:0:
404,224,88343,2,0,L|388:89,2,134.999985694885,8|2|0,0:0|0:0|0:0,0:0:0:0:
364,316,89881,6,0,P|327:340|283:344,1,89.999990463257,4|2,0:0|0:0,0:0:0:0:
200,287,90651,2,0,B|152:296|128:312|128:312|74:287,2,134.999985694885,8|4|4,0:3|0:3|0:3,0:0:0:0:
256,204,92189,1,8,0:3:0:0:
436,124,92958,6,0,P|444:168|439:212,2,89.999990463257,0|2|8,0:0|0:0|0:3,0:0:0:0:
368,52,94112,2,0,B|348:110|272:126|215:89,1,179.999980926514,2|2,0:0|0:0,0:0:0:0:
124,124,95266,2,0,P|131:168|125:212,1,89.999990463257,8|8,0:3|0:3,0:0:0:0:
172,300,96035,6,0,P|216:292|260:298,1,89.999990463257,4|2,0:0|0:0,0:0:0:0:
360,292,96804,2,0,P|376:227|362:161,2,134.999985694885,8|4|4,0:3|0:3|0:3,0:0:0:0:
268,332,98343,1,8,0:3:0:0:
72,296,99112,6,0,P|63:251|70:207,1,89.999990463257,0|2,0:0|0:0,0:0:0:0:
160,168,99881,2,0,P|166:123|158:79,1,89.999990463257,8|2,0:3|0:0,0:0:0:0:
353,79,101035,2,0,P|345:123|352:168,1,89.999990463257,2|8,0:0|0:3,0:0:0:0:
441,207,101804,2,0,P|448:251|440:296,1,89.999990463257,8|2,0:3|0:0,0:0:0:0:
36,268,112574,6,0,L|25:224,2,44.9999952316285,2|0|0,0:0|0:0|0:0,0:0:0:0:
96,348,113343,1,2,0:0:0:0:
136,260,113727,2,0,L|116:160,1,89.999990463257,0|2,0:0|0:0,0:0:0:0:
151,78,114497,6,0,B|199:74|219:114|219:114|243:82|256:25|256:25|269:82|293:114|293:114|313:74|361:78,2,359.999961853028,4|2|4,0:0|0:0|0:0,0:0:0:0:
56,108,117958,2,0,P|52:152|59:197,1,89.999990463257,2|0,0:0|1:0,0:0:0:0:
132,263,118727,2,0,P|152:255|175:255,2,44.9999952316285,2|0|0,0:0|0:0|0:0,0:0:0:0:
44,312,119497,1,2,0:0:0:0:
132,356,119881,2,0,P|176:344|220:347,1,89.999990463257,0|2,1:0|0:0,0:0:0:0:
315,323,120651,6,0,P|357:188|235:257,2,359.999961853028,4|2|4,0:0|0:0|0:0,0:0:0:0:
220,351,124112,2,0,P|156:371|92:353,1,134.999985694885,2|2,0:0|0:0,0:0:0:0:
32,271,125074,2,0,P|32:249|29:227,1,44.9999952316285,2|2,0:0|0:0,0:0:0:0:
100,156,125651,2,0,P|88:112|88:67,2,89.999990463257,2|0|2,0:0|1:0|0:0,0:0:0:0:
192,192,126804,6,0,B|232:168|232:168|275:168,1,89.999990463257,4|2,0:0|0:0,0:0:0:0:
355,224,127574,2,0,P|371:159|348:96,2,134.999985694885,0|2|4,1:0|0:0|0:3,0:0:0:0:
448,256,129112,2,0,P|464:167|448:79,1,179.999980926514,0|4,1:0|0:0,0:0:0:0:
372,16,130266,5,0,0:0:0:0:
292,76,130651,2,0,B|252:84|228:60|204:36|164:44,2,134.999985694885,0|2|4,1:0|0:0|0:3,0:0:0:0:
383,116,132189,2,0,P|375:160|379:204,1,89.999990463257,0|0,1:0|0:0,0:0:0:0:
456,264,132958,6,0,P|459:308|451:352,2,89.999990463257,4|2|0,0:0|0:0|1:0,0:0:0:0:
380,200,134112,1,0,0:0:0:0:
331,115,134497,2,0,P|256:74|180:116,2,179.999980926514,2|0|4,0:0|1:0|0:0,0:0:0:0:
364,212,136420,6,0,P|360:252|364:304,2,89.999990463257,2|0|0,0:0|1:0|0:0,0:0:0:0:
276,167,137574,2,0,P|229:215|163:219,2,134.999985694885,2|2|0,0:0|0:0|1:0,0:0:0:0:
188,124,139112,5,4,0:0:0:0:
188,24,139497,2,0,P|145:35|110:62,1,89.999990463257,2|0,0:0|1:0,0:0:0:0:
60,148,140266,2,0,P|42:213|55:279,2,134.999985694885,2|8|0,0:0|0:3|1:0,0:0:0:0:
136,80,141804,1,8,0:3:0:0:
232,56,142189,5,4,0:0:0:0:
328,83,142574,2,0,P|354:47|369:5,2,89.999990463257,2|0|0,0:0|1:0|0:0,0:0:0:0:
244,136,143727,2,0,B|216:96|160:96|160:96|77:96,1,179.999980926514,2|0,0:0|1:0,0:0:0:0:
8,280,145266,6,0,B|36:320|92:320|92:320|175:320,1,179.999980926514,4|0,0:0|1:0,0:0:0:0:
256,264,146420,1,8,0:3:0:0:
337,320,146804,2,0,B|420:320|420:320|476:320|504:280,2,179.999980926514,2|0|4,0:0|1:0|0:0,0:0:0:0:
336,220,148727,6,0,L|426:220,2,89.999990463257,2|0|0,0:0|1:0|0:0,0:0:0:0:
272,140,149881,2,0,B|218:120|186:152|154:184|99:162,2,179.999980926514,2|0|4,0:0|1:0|0:0,0:0:0:0:
372,131,151804,6,0,P|390:91|398:47,2,89.999990463257,2|0|0,0:0|1:0|0:0,0:0:0:0:
284,172,152958,2,0,P|265:212|257:256,1,89.999990463257,2|0,0:0|0:0,0:0:0:0:
192,332,153727,2,0,L|103:317,1,89.999990463257,0|8,1:0|0:3,0:0:0:0:
20,264,154497,5,4,0:0:0:0:
20,264,154881,2,0,L|12:174,1,89.999990463257,2|0,0:0|1:0,0:0:0:0:
80,100,155651,2,0,P|165:120|239:73,1,179.999980926514,2|8,0:0|0:3,0:0:0:0:
332,104,156804,2,0,P|328:148|334:193,1,89.999990463257,0|0,1:0|0:0,0:0:0:0:
412,256,157574,6,0,P|336:211|254:240,2,179.999980926514,4|0|2,0:0|1:0|0:0,0:0:0:0:
508,232,159497,2,0,L|497:142,1,89.999990463257,8|0,0:3|1:0,0:0:0:0:
448,56,160266,1,0,0:0:0:0:
347,72,160651,6,0,P|269:111|183:91,1,179.999980926514,4|0,0:0|1:0,0:0:0:0:
88,120,161804,2,0,P|75:208|93:296,2,179.999980926514,2|2|8,0:0|0:0|0:3,0:0:0:0:
152,44,163727,6,0,P|190:67|234:72,1,89.999990463257,4|2,0:0|0:0,0:0:0:0:
332,92,164497,2,0,P|354:154|338:219,2,134.999985694885,0|2|8,1:0|0:0|0:3,0:0:0:0:
264,20,166035,2,0,B|228:44|228:44|182:44,1,89.999990463257,0|0,1:0|0:0,0:0:0:0:
84,20,166804,5,4,0:0:0:0:
11,88,167189,2,0,P|0:176|18:264,1,179.999980926514,2|8,0:0|0:3,0:0:0:0:
83,340,168343,2,0,P|155:289|242:302,1,179.999980926514,2|0,0:0|1:0,0:0:0:0:
328,356,169497,1,8,0:3:0:0:
423,336,169881,6,0,P|419:291|423:246,1,89.999990463257,4|2,0:0|0:0,0:0:0:0:
444,148,170651,2,0,P|451:81|439:15,2,134.999985694885,0|2|8,1:0|0:0|0:3,0:0:0:0:
348,127,172189,2,0,P|356:82|349:38,1,89.999990463257,0|0,1:0|0:0,0:0:0:0:
256,83,172958,5,4,0:0:0:0:
164,127,173343,2,0,P|155:82|162:38,2,89.999990463257,2|0|2,0:0|1:0|0:0,0:0:0:0:
228,204,174497,2,0,B|268:180|268:180|311:180,1,89.999990463257,2|0,0:0|0:0,0:0:0:0:
388,244,175266,2,0,B|348:268|348:268|304:268,1,89.999990463257,0|0,1:0|1:0,0:0:0:0:
228,204,176035,5,2,0:0:0:0:
256,192,176227,12,0,178535,0:0:0:0:
