osu file format v9

[General]
AudioFilename: 01 The Ballad of Mona Lisa.mp3
AudioLeadIn: 0
PreviewTime: 176478
Countdown: 0
SampleSet: Normal
StackLeniency: 0.7
Mode: 0
LetterboxInBreaks: 1

[Editor]
Bookmarks: 61575,69614,75047,81046,111288,169462,177431,192549
DistanceSpacing: 1.04
BeatDivisor: 8
GridSize: 4

[Metadata]
Title:The Ballad of Mona Lisa
Artist:Panic! at the Disco
Creator:Gonzvlo
Version:Nervous!
Source:
Tags:Krisom vices and virtues

[Difficulty]
HPDrainRate:5
CircleSize:3
OverallDifficulty:5
ApproachRate:4
SliderMultiplier:1.5
SliderTickRate:2

[Events]
//Background and Video events
0,0,"open.jpg"
//Break Periods
2,77372,79726
2,131187,137416
//Storyboard Layer 0 (Background)
Sprite,Background,Centre,"open.jpg",320,240 M,0,0,,368,242 F,0,0,,0
//Storyboard Layer 1 (Fail)
//Storyboard Layer 2 (Pass)
//Storyboard Layer 3 (Foreground)
Sprite,Foreground,Centre,"SB\art.png",320,240 F,0,135,1102,0,1 F,0,3038,3522,1,0
Sprite,Foreground,Centre,"SB\L-PanicG.png",320,276 F,0,3038,3522,0,1 F,0,3522,9812,1
Sprite,Foreground,Centre,"SB\bottom.png",320,280 F,0,14651,130988,1 F,0,130988,207677,1 F,0,207677,213483,1
Sprite,Foreground,Centre,"SB\L-Mona Lisa.png",320,-240 M,0,7876,9812,320,-240,320,240 F,0,7876,15618,1 M,0,14651,15618,320,240,320,-240
Sprite,Foreground,Centre,"SB\topeff.png",320,240 L,61815,1 M,0,0,240,315,55,315,100 C,0,0,7799,236,54,54 C,0,7799,77417,255,216,0 F,0,77176,77417,1,0
Sprite,Foreground,Centre,"SB\topeff.png",320,240 L,115630,1 M,0,0,240,315,55,315,100 C,0,0,7799,255,216,0 C,0,7799,77417,236,54,54 F,0,115630,,1 F,0,130995,131236,1,0
Sprite,Foreground,Centre,"SB\topeff.png",320,240 L,177204,1 M,0,0,240,315,55,315,100 C,0,0,7799,255,216,0 C,0,7799,77417,236,54,54 F,0,177204,,1 F,0,207676,207918,1,0
Sprite,Foreground,Centre,"SB\Blight.png",320,240 L,177431,16 C,0,0,,234,218,40 M,0,0,944,170,235,250,310 R,0,0,944,0,0.6 M,0,944,1888,250,310,170,235 R,0,944,1888,0.6,0 F,0,177204,177446,0,1 S,0,177431,,0.8 F,0,177446,207677,1 F,0,207677,207918,1,0
Sprite,Foreground,Centre,"SB\Blight.png",320,240 L,62055,8 M,0,0,944,170,235,250,310 R,0,0,944,0,0.6 M,0,944,1888,250,310,170,235 R,0,944,1888,0.6,0 L,115870,8 M,0,0,944,170,235,250,310 R,0,0,944,0,0.6 M,0,944,1888,250,310,170,235 R,0,944,1888,0.6,0 F,0,61815,62055,0,1 S,0,62055,,0.8 F,0,62055,77173,1 F,0,77173,77417,1,0 F,0,115630,115870,0,1 F,0,115870,130988,1 F,0,130988,130995,1 F,0,130995,131236,1,0.02531648
Sprite,Foreground,Centre,"SB\antibugBlight.png",320,240 L,62055,8 M,0,0,944,470,235,400,310 R,0,0,944,0,-0.6 M,0,944,1888,400,310,470,235 R,0,944,1888,-0.6,0 L,115870,8 M,0,0,944,470,235,400,310 R,0,0,944,0,-0.6 M,0,944,1888,400,310,470,235 R,0,944,1888,-0.6,0 P,0,61815,,H F,0,61815,62055,0,1 S,0,62055,,0.8 F,0,62055,77173,1 F,0,77173,77417,1,0 F,0,115630,115870,0,1 F,0,115870,130988,1 F,0,130988,131236,1,0
Sprite,Foreground,Centre,"SB\antibugBlight.png",320,240 L,177431,16 C,0,0,,234,218,40 M,0,0,944,470,235,400,310 R,0,0,944,0,-0.6 M,0,944,1888,400,310,470,235 R,0,944,1888,-0.6,0 F,0,177204,177446,0,1 S,0,177431,,0.8 P,0,177431,,H F,0,177446,207676,1 F,0,207676,207918,1,0
Sprite,Foreground,Centre,"SB\spotlight.png",590,425 F,0,15376,15618,0,1 S,0,15618,,0.6 P,0,15618,,H F,0,15618,207440,1 F,0,207440,213483,1 F,0,207440,213483,1
Sprite,Foreground,Centre,"SB\spotlight.png",55,425 F,0,15376,15618,0,1 S,0,15618,,0.6 F,0,15618,207440,1 F,0,207440,213483,1 F,0,207440,213483,1
Sprite,Foreground,Centre,"SB\L-PanicR.png",320,240 M,0,207676,213483,320,-240,320,276 F,0,207676,221225,1 F,0,221225,223160,1,0
Sprite,Foreground,Centre,"SB\sides.png",320,190 L,206022,1 C,0,0,,253,255,62 F,0,0,237,0.4,0
Sprite,Foreground,Centre,"SB\sides.png",320,230 L,206259,1 C,0,0,,253,255,62 F,0,0,237,0.5,0
Sprite,Foreground,Centre,"SB\sides.png",320,270 L,206495,1 C,0,0,,253,255,62 F,0,0,237,0.6,0
Sprite,Foreground,Centre,"SB\sides.png",320,310 L,206731,1 C,0,0,,253,255,62 F,0,0,237,0.7,0
Sprite,Foreground,Centre,"SB\sides.png",320,350 L,206967,1 C,0,0,,253,255,62 F,0,0,237,0.8,0
Sprite,Foreground,Centre,"SB\sides.png",320,390 L,207204,1 C,0,0,,253,255,62 F,0,0,237,0.9,0
Sprite,Foreground,Centre,"SB\sides.png",320,445 L,207676,1 C,0,0,,253,255,62 V,0,0,,1,1.7 F,0,0,474,1,0
Sprite,Foreground,Centre,"SB\sides.png",320,240 L,138736,11 M,2,0,1936,320,130,320,500
Sprite,Foreground,Centre,"SB\sides.png",320,240 L,140672,11 M,2,0,1936,320,130,320,500
Sprite,Foreground,Centre,"SB\ENFILLER.png",320,240 L,62055,16 S,0,0,,0.6 M,0,0,944,545,95,95,95 L,115870,16 S,0,0,,0.6 M,0,0,944,545,95,95,95 L,177431,32 S,0,0,,0.6 M,0,0,944,545,95,95,95
Sprite,Foreground,Centre,"SB\ENFILLER.png",320,240 L,62999,15 S,0,0,,0.6 M,0,0,944,545,95,95,95 L,117759,14 S,0,0,,0.6 M,0,0,944,545,95,95,95 L,179320,30 S,0,0,,0.6 M,0,0,944,545,95,95,95
Sprite,Foreground,Centre,"SB\top.png",320,86 F,0,3038,3522,0,1 F,0,3522,9812,1 F,0,9812,62055,1 F,0,62055,130995,1 F,0,130995,207676,1 F,0,207676,207677,1 F,0,207677,221225,1 F,0,221225,223170,1,0
Sprite,Foreground,Centre,"SB\BSpotlight.png",320,240 M,0,130988,,320,240 F,0,130988,130995,1,0 F,0,130995,161962,0,1 F,0,161962,175994,1 F,0,175994,176478,1
Sprite,Foreground,Centre,"SB\light.png",320,240 S,0,8844,,1.27648 M,0,8844,8854,317,234 F,0,8844,9812,0,1 M,0,8854,8864,317,234,317,233 M,0,8864,8874,317,233,317,232 M,0,8874,8895,317,232,317,231 M,0,8895,8905,317,231,317,230 M,0,8905,8915,317,230,317,229 M,0,8915,8925,317,229,317,228 M,0,8925,8945,317,228,317,225 M,0,8945,8955,317,225 M,0,8955,8965,317,225,317,224 M,0,8965,8975,317,224,317,223 M,0,8975,8985,317,223,317,219 M,0,8985,9005,317,219,317,218 M,0,9005,9015,317,218,317,217 M,0,9015,9025,317,217 M,0,9025,9035,317,217,318,214 M,0,9035,9055,318,214,318,212 M,0,9055,9065,318,212,321,209 M,0,9065,9075,321,209 M,0,9075,9085,321,209,322,205 M,0,9085,9105,322,205 M,0,9105,9115,322,205,323,203 M,0,9115,9125,323,203,324,200 M,0,9125,9135,324,200,324,199 M,0,9135,9155,324,199,325,196 M,0,9155,9165,325,196,326,194 M,0,9165,9175,326,194,326,193 M,0,9175,9185,326,193,327,191 M,0,9185,9195,327,191,328,189 M,0,9195,9225,328,189,330,186 M,0,9225,9235,330,186,330,183 M,0,9235,9245,330,183,331,181 M,0,9245,9255,331,181,333,180 M,0,9255,9265,333,180,333,179 M,0,9265,9275,333,179,335,175 M,0,9275,9285,335,175 M,0,9285,9305,335,175,336,173 M,0,9305,9315,336,173 M,0,9315,9325,336,173,338,170 M,0,9325,9335,338,170 M,0,9335,9345,338,170,338,169 M,0,9345,9365,338,169 M,0,9365,9375,338,169,339,168 M,0,9375,9385,339,168,340,167 M,0,9385,9395,340,167,341,165 M,0,9395,9415,341,165 M,0,9415,9425,341,165,343,162 M,0,9425,9435,343,162,344,161 M,0,9435,9455,344,161,346,160 M,0,9455,9465,346,160 M,0,9465,9475,346,160 M,0,9475,9485,346,160,347,159 M,0,9485,9505,347,159,348,159 M,0,9505,9515,348,159,349,157 M,0,9515,9525,349,157 M,0,9525,9535,349,157 M,0,9535,9555,349,157,351,157 M,0,9555,9565,351,157 M,0,9565,9575,351,157 M,0,9575,9595,351,157 M,0,9595,9605,351,157,353,157 M,0,9605,9615,353,157 M,0,9615,9625,353,157,354,157 M,0,9625,9645,354,157,356,155 M,0,9645,9655,356,155,359,155 M,0,9655,9675,359,155,361,152 M,0,9675,9695,361,152,365,152 M,0,9695,9705,365,152 M,0,9705,9715,365,152 M,0,9715,9725,365,152,366,152 M,0,9725,9745,366,152,369,150 M,0,9745,9765,369,150,371,150 M,0,9765,9775,371,150 M,0,9775,9795,371,150,377,150 M,0,9795,9805,377,150 M,0,9805,9815,377,150,380,150 F,0,9812,13051,1,0.75424 M,0,9815,9825,380,150 M,0,9825,9835,380,150,382,150 M,0,9835,9845,382,150,384,150 M,0,9845,9855,384,150,386,148 M,0,9855,9875,386,148 M,0,9875,9885,386,148,389,148 M,0,9885,9895,389,148 M,0,9895,9905,389,148,391,148 M,0,9905,9925,391,148,392,148 M,0,9925,9935,392,148 M,0,9935,9945,392,148,396,148 M,0,9945,9955,396,148,397,148 M,0,9955,9965,397,148 M,0,9965,9975,397,148,398,149 M,0,9975,9985,398,149,399,149 M,0,9985,9995,399,149,400,149 M,0,9995,10015,400,149,403,149 M,0,10015,10025,403,149,406,149 M,0,10025,10035,406,149 M,0,10035,10045,406,149,409,149 M,0,10045,10065,409,149,410,150 M,0,10065,10075,410,150,413,151 M,0,10075,10085,413,151,415,151 M,0,10085,10095,415,151,415,152 M,0,10095,10105,415,152,417,152 M,0,10105,10115,417,152,419,152 M,0,10115,10125,419,152 M,0,10125,10145,419,152,423,152 M,0,10145,10155,423,152,423,153 M,0,10155,10165,423,153,425,153 M,0,10165,10175,425,153,428,155 M,0,10175,10185,428,155 M,0,10185,10215,428,155,430,156 M,0,10215,10225,430,156,432,156 M,0,10225,10245,432,156,433,157 M,0,10245,10255,433,157,436,158 M,0,10255,10265,436,158 M,0,10265,10275,436,158,437,158 M,0,10275,10285,437,158,438,159 M,0,10285,10305,438,159 M,0,10305,10315,438,159 M,0,10315,10325,438,159,441,159 M,0,10325,10335,441,159 M,0,10335,10345,441,159,442,160 M,0,10345,10365,442,160,448,161 M,0,10365,10385,448,161 M,0,10385,10395,448,161,450,162 M,0,10395,10405,450,162,451,162 M,0,10405,10415,451,162,452,163 M,0,10415,10425,452,163,453,163 M,0,10425,10435,453,163,455,164 M,0,10435,10455,455,164,457,164 M,0,10455,10465,457,164,457,165 M,0,10465,10475,457,165,458,165 M,0,10475,10485,458,165 M,0,10485,10495,458,165,460,166 M,0,10495,10505,460,166,461,166 M,0,10505,10525,461,166 M,0,10525,10535,461,166,462,166 M,0,10535,10545,462,166 M,0,10545,10555,462,166,463,167 M,0,10555,10565,463,167,464,167 M,0,10565,10575,464,167,464,169 M,0,10575,10595,464,169,467,169 M,0,10595,10605,467,169,467,171 M,0,10605,10615,467,171 M,0,10615,10625,467,171,468,171 M,0,10625,10635,468,171,469,171 M,0,10635,10645,469,171,469,173 M,0,10645,10655,469,173,470,173 M,0,10655,10675,470,173,471,175 M,0,10675,10685,471,175,471,176 M,0,10685,10695,471,176 M,0,10695,10705,471,176,473,176 M,0,10705,10715,473,176,473,178 M,0,10715,10725,473,178,475,179 M,0,10725,10735,475,179 M,0,10735,10745,475,179,476,181 M,0,10745,10765,476,181,474,184 M,0,10765,10775,474,184 M,0,10775,10785,474,184,475,186 M,0,10785,10795,475,186,476,187 M,0,10795,10805,476,187,476,188 M,0,10805,10815,476,188,477,189 M,0,10815,10835,477,189,479,190 M,0,10835,10845,479,190 M,0,10845,10855,479,190,480,192 M,0,10855,10865,480,192 M,0,10865,10885,480,192 M,0,10885,10895,480,192,481,194 M,0,10895,10905,481,194,482,195 M,0,10905,10915,482,195,482,201 M,0,10915,10925,482,201,483,202 M,0,10925,10945,483,202,483,203 M,0,10945,10955,483,203,483,204 M,0,10955,10965,483,204,483,208 M,0,10965,10975,483,208,483,209 M,0,10975,10995,483,209,484,209 M,0,10995,11005,484,209,484,210 M,0,11005,11015,484,210,484,211 M,0,11015,11025,484,211,484,213 M,0,11025,11035,484,213 M,0,11035,11045,484,213,485,215 M,0,11045,11055,485,215,485,217 M,0,11055,11075,485,217,485,219 M,0,11075,11085,485,219 M,0,11085,11095,485,219,485,221 M,0,11095,11105,485,221 M,0,11105,11115,485,221,486,224 M,0,11115,11125,486,224,486,225 M,0,11125,11145,486,225 M,0,11145,11155,486,225,486,227 M,0,11155,11165,486,227 M,0,11165,11175,486,227 M,0,11175,11185,486,227,486,230 M,0,11185,11205,486,230,484,233 M,0,11205,11215,484,233 M,0,11215,11225,484,233,484,234 M,0,11225,11235,484,234,484,236 M,0,11235,11255,484,236,484,237 M,0,11255,11265,484,237,482,241 M,0,11265,11275,482,241,482,243 M,0,11275,11285,482,243 M,0,11285,11295,482,243 M,0,11295,11315,482,243,482,245 M,0,11315,11325,482,245 M,0,11325,11335,482,245,482,246 M,0,11335,11345,482,246,482,247 M,0,11345,11355,482,247,482,248 M,0,11355,11365,482,248 M,0,11365,11375,482,248,480,251 M,0,11375,11395,480,251 M,0,11395,11405,480,251 M,0,11405,11415,480,251,480,252 M,0,11415,11425,480,252 M,0,11425,11435,480,252 M,0,11435,11445,480,252,478,254 M,0,11445,11465,478,254,477,254 M,0,11465,11475,477,254,477,255 M,0,11475,11485,477,255 M,0,11485,11495,477,255,475,256 M,0,11495,11515,475,256,473,258 M,0,11515,11525,473,258 M,0,11525,11535,473,258 M,0,11535,11545,473,258 M,0,11545,11555,473,258,472,259 M,0,11555,11565,472,259,471,260 M,0,11565,11575,471,260,469,263 M,0,11575,11595,469,263 M,0,11595,11605,469,263 M,0,11605,11615,469,263 M,0,11615,11625,469,263,467,264 M,0,11625,11635,467,264,465,265 M,0,11635,11645,465,265 M,0,11645,11655,465,265,464,266 M,0,11655,11675,464,266,461,269 M,0,11675,11685,461,269 M,0,11685,11695,461,269,460,270 M,0,11695,11725,460,270 M,0,11725,11735,460,270 M,0,11735,11745,460,270 M,0,11745,11755,460,270,459,270 M,0,11755,11765,459,270,458,271 M,0,11765,11775,458,271 M,0,11775,11785,458,271,456,272 M,0,11785,11805,456,272 M,0,11805,11815,456,272,453,275 M,0,11815,11825,453,275 M,0,11825,11835,453,275,452,275 M,0,11835,11855,452,275 M,0,11855,11865,452,275 M,0,11865,11875,452,275,449,276 M,0,11875,11885,449,276,445,277 M,0,11885,11895,445,277 M,0,11895,11915,445,277 M,0,11915,11925,445,277,443,278 M,0,11925,11935,443,278,440,281 M,0,11935,11945,440,281,439,281 M,0,11945,11955,439,281 M,0,11955,11965,439,281,437,283 M,0,11965,11975,437,283,434,284 M,0,11975,11995,434,284,433,284 M,0,11995,12005,433,284,432,285 M,0,12005,12015,432,285,426,286 M,0,12015,12025,426,286 M,0,12025,12035,426,286,424,287 M,0,12035,12045,424,287 M,0,12045,12065,424,287,423,287 M,0,12065,12075,423,287,422,288 M,0,12075,12085,422,288,421,288 M,0,12085,12095,421,288,417,290 M,0,12095,12105,417,290,416,290 M,0,12105,12115,416,290,413,290 M,0,12115,12125,413,290 M,0,12125,12145,413,290,411,291 M,0,12145,12155,411,291 M,0,12155,12165,411,291,406,294 M,0,12165,12175,406,294 M,0,12175,12185,406,294,404,294 M,0,12185,12205,404,294,403,294 M,0,12205,12215,403,294,402,294 M,0,12215,12225,402,294,399,295 M,0,12225,12235,399,295 M,0,12235,12245,399,295,398,295 M,0,12245,12255,398,295,397,295 M,0,12255,12275,397,295,396,295 M,0,12275,12285,396,295,395,296 M,0,12285,12295,395,296 M,0,12295,12315,395,296,393,296 M,0,12315,12325,393,296,391,297 M,0,12325,12335,391,297,390,297 M,0,12335,12345,390,297 M,0,12345,12355,390,297,389,297 M,0,12355,12365,389,297,387,298 M,0,12365,12385,387,298 M,0,12385,12395,387,298,385,298 M,0,12395,12405,385,298,382,298 M,0,12405,12415,382,298,381,298 M,0,12415,12435,381,298,379,299 M,0,12435,12445,379,299,376,300 M,0,12445,12455,376,300 M,0,12455,12465,376,300,374,300 M,0,12465,12475,374,300 M,0,12475,12485,374,300,372,300 M,0,12485,12495,372,300,370,300 M,0,12495,12515,370,300,369,300 M,0,12515,12525,369,300,368,301 M,0,12525,12535,368,301,366,301 M,0,12535,12545,366,301 M,0,12545,12565,366,301,361,302 M,0,12565,12575,361,302,359,302 M,0,12575,12585,359,302,358,302 M,0,12585,12595,358,302,354,302 M,0,12595,12605,354,302,350,303 M,0,12605,12615,350,303,348,303 M,0,12615,12635,348,303,345,303 M,0,12635,12645,345,303,344,304 M,0,12645,12655,344,304,339,304 M,0,12655,12665,339,304 M,0,12665,12675,339,304,336,304 M,0,12675,12685,336,304,335,304 M,0,12685,12695,335,304,333,305 M,0,12695,12715,333,305,330,305 M,0,12715,12725,330,305,328,305 M,0,12725,12735,328,305,324,305 M,0,12735,12745,324,305,322,305 M,0,12745,12755,322,305,317,306 M,0,12755,12765,317,306,314,306 M,0,12765,12785,314,306,312,306 M,0,12785,12795,312,306,309,306 M,0,12795,12805,309,306,307,306 M,0,12805,12815,307,306,306,304 M,0,12815,12825,306,304,303,304 M,0,12825,12845,303,304,301,304 M,0,12845,12855,301,304 M,0,12855,12865,301,304,298,304 M,0,12865,12875,298,304 M,0,12875,12885,298,304,297,304 M,0,12885,12895,297,304 M,0,12895,12905,297,304 M,0,12905,12915,297,304 M,0,12915,12935,297,304 M,0,12935,12945,297,304 M,0,12945,12955,297,304,295,304 M,0,12955,12965,295,304,293,304 M,0,12965,12975,293,304,291,304 M,0,12975,12995,291,304,288,304 M,0,12995,13005,288,304,286,304 M,0,13005,13015,286,304,285,304 M,0,13015,13025,285,304 M,0,13025,13035,285,304,282,302 M,0,13035,13055,282,302 F,0,13051,14893,0.75424,1 M,0,13055,13065,282,302,280,302 M,0,13065,13075,280,302,278,302 M,0,13075,13085,278,302,276,302 M,0,13085,13105,276,302,272,300 M,0,13105,13115,272,300,271,300 M,0,13115,13125,271,300,267,300 M,0,13125,13135,267,300 M,0,13135,13145,267,300 M,0,13145,13165,267,300,267,298 M,0,13165,13175,267,298,264,298 M,0,13175,13185,264,298 M,0,13185,13195,264,298 M,0,13195,13225,264,298,258,298 M,0,13225,13235,258,298 M,0,13235,13245,258,298,258,296 M,0,13245,13255,258,296 M,0,13255,13275,258,296 M,0,13275,13285,258,296,255,296 M,0,13285,13295,255,296,254,296 M,0,13295,13305,254,296,251,294 M,0,13305,13325,251,294,250,294 M,0,13325,13335,250,294,249,294 M,0,13335,13345,249,294,248,294 M,0,13345,13355,248,294,244,292 M,0,13355,13375,244,292,245,290 M,0,13375,13385,245,290,242,289 M,0,13385,13395,242,289 M,0,13395,13405,242,289,239,288 M,0,13405,13415,239,288 M,0,13415,13425,239,288,237,287 M,0,13425,13445,237,287,236,285 M,0,13445,13455,236,285,232,285 M,0,13455,13465,232,285,232,281 M,0,13465,13485,232,281,230,281 M,0,13485,13495,230,281,228,281 M,0,13495,13505,228,281,227,279 M,0,13505,13515,227,279,226,279 M,0,13515,13525,226,279,223,277 M,0,13525,13535,223,277 M,0,13535,13545,223,277,220,276 M,0,13545,13565,220,276 M,0,13565,13575,220,276,220,274 M,0,13575,13585,220,274 M,0,13585,13595,220,274,218,273 M,0,13595,13605,218,273,217,272 M,0,13605,13625,217,272,216,271 M,0,13625,13635,216,271,215,271 M,0,13635,13645,215,271 M,0,13645,13655,215,271,215,269 M,0,13655,13665,215,269,213,269 M,0,13665,13675,213,269,212,267 M,0,13675,13695,212,267 M,0,13695,13705,212,267,211,266 M,0,13705,13715,211,266 M,0,13715,13725,211,266 M,0,13725,13735,211,266,210,265 M,0,13735,13745,210,265 M,0,13745,13765,210,265,208,263 M,0,13765,13775,208,263 M,0,13775,13785,208,263 M,0,13785,13795,208,263 M,0,13795,13805,208,263,208,261 M,0,13805,13825,208,261,206,261 M,0,13825,13835,206,261,205,259 M,0,13835,13855,205,259 M,0,13855,13865,205,259,205,258 M,0,13865,13875,205,258 M,0,13875,13885,205,258,202,258 M,0,13885,13895,202,258,203,254 M,0,13895,13905,203,254 M,0,13905,13915,203,254,203,251 M,0,13915,13935,203,251,203,250 M,0,13935,13945,203,250,203,249 M,0,13945,13955,203,249,203,248 M,0,13955,13965,203,248,201,245 M,0,13965,13975,201,245 M,0,13975,13985,201,245,201,240 M,0,13985,14005,201,240 M,0,14005,14015,201,240,201,237 M,0,14015,14025,201,237,201,233 M,0,14025,14035,201,233,202,230 M,0,14035,14045,202,230 M,0,14045,14055,202,230 M,0,14055,14075,202,230,202,228 M,0,14075,14085,202,228,203,227 M,0,14085,14095,203,227,203,224 M,0,14095,14105,203,224 M,0,14105,14115,203,224,203,222 M,0,14115,14125,203,222,203,221 M,0,14125,14145,203,221,204,219 M,0,14145,14155,204,219 M,0,14155,14165,204,219,204,218 M,0,14165,14175,204,218,204,216 M,0,14175,14185,204,216,204,215 M,0,14185,14205,204,215,205,213 M,0,14205,14215,205,213 M,0,14215,14225,205,213,203,213 M,0,14225,14235,203,213,203,211 M,0,14235,14245,203,211,204,210 M,0,14245,14255,204,210 M,0,14255,14265,204,210,205,208 M,0,14265,14285,205,208 M,0,14285,14295,205,208,205,207 M,0,14295,14305,205,207 M,0,14305,14315,205,207,206,204 M,0,14315,14335,206,204,206,203 M,0,14335,14345,206,203,206,202 M,0,14345,14355,206,202 M,0,14355,14365,206,202,208,201 M,0,14365,14375,208,201,208,200 M,0,14375,14395,208,200,208,196 M,0,14395,14405,208,196 M,0,14405,14415,208,196,209,195 M,0,14415,14425,209,195 M,0,14425,14435,209,195,209,194 M,0,14435,14445,209,194 M,0,14445,14465,209,194,209,193 M,0,14465,14475,209,193,210,192 M,0,14475,14485,210,192,211,190 M,0,14485,14495,211,190 M,0,14495,14515,211,190,212,188 M,0,14515,14525,212,188 M,0,14525,14535,212,188 M,0,14535,14545,212,188,212,187 M,0,14545,14555,212,187,214,186 M,0,14555,14565,214,186 M,0,14565,14575,214,186 M,0,14575,14585,214,186 M,0,14585,14605,214,186 M,0,14605,14615,214,186,215,185 M,0,14615,14625,215,185 M,0,14625,14635,215,185 M,0,14635,14645,215,185,218,184 M,0,14645,14665,218,184,219,182 M,0,14665,14675,219,182 M,0,14675,14685,219,182 M,0,14685,14695,219,182,221,181 M,0,14695,14725,221,181 M,0,14725,14735,221,181 M,0,14735,14745,221,181 M,0,14745,14755,221,181 M,0,14755,14775,221,181,222,181 M,0,14775,14785,222,181,225,178 M,0,14785,14795,225,178 M,0,14795,14805,225,178,226,178 M,0,14805,14825,226,178,227,176 M,0,14825,14835,227,176,229,175 M,0,14835,14845,229,175 M,0,14845,14865,229,175 M,0,14865,14875,229,175,232,174 M,0,14875,14885,232,174,235,173 M,0,14885,14895,235,173,237,173 F,0,14893,15618,1,0 M,0,14895,14905,237,173 M,0,14905,14925,237,173 M,0,14925,14935,237,173 M,0,14935,14945,237,173,238,171 M,0,14945,14955,238,171,239,171 M,0,14955,14965,239,171 M,0,14965,14985,239,171,240,169 M,0,14985,15005,240,169,243,168 M,0,15005,15015,243,168,244,167 M,0,15015,15025,244,167,245,166 M,0,15025,15035,245,166,247,164 M,0,15035,15055,247,164 M,0,15055,15065,247,164,249,162 M,0,15065,15075,249,162 M,0,15075,15085,249,162 M,0,15085,15105,249,162,251,162 M,0,15105,15115,251,162,252,162 M,0,15115,15125,252,162,253,160 M,0,15125,15135,253,160,255,159 M,0,15135,15145,255,159 M,0,15145,15165,255,159 M,0,15165,15175,255,159,258,157 M,0,15175,15185,258,157 M,0,15185,15195,258,157,261,155 M,0,15195,15215,261,155 M,0,15215,15225,261,155 M,0,15225,15235,261,155,263,153 M,0,15235,15245,263,153 M,0,15245,15265,263,153,266,151 M,0,15265,15275,266,151 M,0,15275,15285,266,151,270,149 M,0,15285,15305,270,149 M,0,15305,15315,270,149,272,149 M,0,15315,15325,272,149 M,0,15325,15345,272,149,275,147 M,0,15345,15355,275,147 M,0,15355,15365,275,147,276,147 M,0,15365,15375,276,147,278,145 M,0,15375,15395,278,145 M,0,15395,15405,278,145,279,145 M,0,15405,15415,279,145,280,145 M,0,15415,15425,280,145,283,143 M,0,15425,15445,283,143,284,143 M,0,15445,15455,284,143,287,141 M,0,15455,15465,287,141 M,0,15465,15475,287,141,289,141 M,0,15475,15495,289,141 M,0,15495,15505,289,141 M,0,15505,15515,289,141 M,0,15515,15525,289,141 M,0,15525,15545,289,141,290,141 M,0,15545,15555,290,141 M,0,15555,15565,290,141,292,141 M,0,15565,15618,292,141,293,139 F,0,15739,,0
Sprite,Foreground,Centre,"Lyrics\!.png",220,240 F,0,45860,,1 S,0,45860,,0.8 F,0,46707,,0
Sprite,Foreground,Centre,"Lyrics\!.png",320,240 F,0,46102,,1 S,0,46102,,0.8 F,0,46707,,0
Sprite,Foreground,Centre,"Lyrics\!.png",420,240 F,0,46344,,1 S,0,46344,,0.8 F,0,46707,,0
Sprite,Foreground,Centre,"Lyrics\w-mona.png",320,240 F,0,154220,155188,0,1 S,0,154220,155188,0.52896,1 M,0,154220,155672,318,374,174,286 R,0,154220,157124,0,-6.88128 S,0,155188,,1 M,0,155672,157124,174,286,30,199 S,0,155672,157124,1,0.4675198 F,0,156156,157124,1,0
Sprite,Foreground,Centre,"Lyrics\$.png",220,240 F,0,30376,,1 S,0,30376,,0.6 F,0,31102,,0
Sprite,Foreground,Centre,"Lyrics\$.png",320,240 F,0,30618,,1 S,0,30618,,0.6 F,0,31102,,0
Sprite,Foreground,Centre,"Lyrics\$.png",420,240 F,0,30860,,1 S,0,30860,,0.6 F,0,31102,,0
Sprite,Foreground,Centre,"Lyrics\w-mona.png",320,240 M,0,138736,139583,350,540,415,450 S,0,138736,139704,0.5,0.8 R,0,138736,140672,-0.7,-1.2 M,0,139583,140672,415,450,510,375 F,0,139704,140672,1,0 S,0,139704,140672,0.8,0.6
Sprite,Foreground,Centre,"Lyrics\w-lisa.png",320,240 M,0,140672,141640,350,540,215,450 S,0,140672,141640,0.5,0.8 R,0,140672,142607,0.7,1.2 M,0,141640,142607,215,450,92,373 F,0,141640,142607,1,0 S,0,141640,142607,0.8,0.6
Sprite,Foreground,Centre,"Lyrics\w-wear.png",320,240 M,0,142607,143575,350,540,310,365 S,0,142607,143575,0.5,0.8 R,0,142607,144543,0.7,-0.3542655 M,0,143575,144543,310,365,196,266 F,0,143575,144543,1,0 S,0,143575,144543,0.8,0.6
Sprite,Foreground,Centre,"Lyrics\w-me.png",320,240 M,0,144059,145027,350,540,437,419 S,0,144059,145027,0.5,0.8 R,0,144059,145994,-0.7,-1.2 M,0,145027,145994,437,419,548,320 F,0,145027,145994,1,0 S,0,145027,145994,0.8,0.6
Sprite,Foreground,Centre,"Lyrics\w-out.png",320,240 M,0,144543,145269,350,540,502,461 S,0,144543,145269,0.5,0.8 R,0,144543,145994,-0.8,1.2 M,0,145269,145994,502,461,555,423 F,0,145269,145994,1,0 S,0,145269,145994,0.8,0.6
Sprite,Foreground,Centre,"Lyrics\w-pleased.png",320,240 M,0,147446,148414,324,459,196,353 S,0,147446,148414,0.5,0.8 R,0,147446,149382,-0.2,-0.9 M,0,148414,149382,196,353,120,219 S,0,148414,149382,0.8,0.6 F,0,148656,149382,1,0
Sprite,Foreground,Centre,"Lyrics\w-to.png",320,240 M,0,147446,148414,324,459,397,376 S,0,147446,148414,0.5,0.8 R,0,147446,149382,-0.2,1.4 M,0,148414,149382,397,376,484,350 F,0,148414,149382,1,0 S,0,148414,149382,0.8,0.6
Sprite,Foreground,Centre,"Lyrics\w-please.png",320,240 M,0,148414,149140,333,419,473,422 S,0,148414,149140,0.5,0.8 R,0,148414,149140,-0.2,0.5167993 M,0,149140,149865,473,422,561,374 F,0,149140,149865,1,0 S,0,149140,149865,0.8,0.6 R,0,149140,149865,0.5167993,0.9878389 M,0,149865,149875,561,374 M,0,149875,149885,561,374 M,0,149885,149906,561,374 M,0,149906,149916,561,374,558,374
Sprite,Foreground,Centre,"Lyrics\w-ya.png",320,240 M,0,149382,150349,326,392,328,265 S,0,149382,150349,0.5,0.8 R,0,149382,151317,0,4.6 M,0,150349,151317,328,265,286,185 F,0,150349,151317,1,0 S,0,150349,151317,0.8,0.6
Sprite,Foreground,Centre,"Lyrics\w-lisa.png",320,240 S,0,156156,156640,0.4879999,1 M,0,156156,157124,323,303,432,214 R,0,156156,158091,0,5 M,0,157124,158091,432,214,520,119 F,0,157365,158091,1,0 S,0,157365,158091,1,0.4
Sprite,Foreground,Centre,"Lyrics\w-wear.png",320,240 S,0,158091,158938,0.6723197,0.9999995 M,0,158091,160027,314,271,163,127 R,0,158091,160027,0,4 S,0,159301,160027,1,0.6 F,0,159543,160027,1,0
Sprite,Foreground,Centre,"Lyrics\w-me.png",320,240 S,0,159301,160027,0.66208,1 M,0,159301,160148,323,253,429,199 R,0,159301,160994,0,3.4 M,0,160148,160994,429,199,485,146 F,0,160390,160994,1,0 S,0,160390,160994,1
Sprite,Foreground,Centre,"Lyrics\w-out.png",320,240 F,0,160027,,1 S,0,160027,160753,0.78496,1 M,0,160027,160994,320,240,184,161 R,0,160027,161962,0,4.6 M,0,160994,161962,184,161,109,82 S,0,160994,161962,1,0.5 F,0,161236,161962,1,0
Sprite,Foreground,Centre,"SB\Brendon.png",320,240 F,0,138736,,1 S,0,138736,,0.6 M,0,138736,161962,305,640,305,320 F,0,173575,,1 F,0,173575,176478,1,0.5 F,0,176478,177431,0.5 F,0,177431,177446,0.5 F,0,177446,,0.5 F,0,177446,,0.5
Sprite,Foreground,Centre,"Lyrics\w-say what you mean.png",320,240 M,0,162930,163898,335,301,442,218 S,0,162930,163898,0.2115201,0.66208 R,0,162930,164624,0,-0.5939202 M,0,163898,164624,442,218,527,168 F,0,163898,164624,1,0 S,0,163898,164624,0.66208,0.3753601
Sprite,Foreground,Centre,"Lyrics\w-tell me i'm right.png",320,240 M,0,164865,165833,325,299,202,255 F,0,164865,165833,1 S,0,164865,165833,0.1808002,1 R,0,164865,166801,0,-1.024 M,0,165833,166801,202,255,47,185 F,0,165833,166801,1,0 S,0,165833,166801,1,0.5904001
Sprite,Foreground,Centre,"Lyrics\w-and let the sun.png",320,240 S,0,166801,168253,0.2217599,0.9304572 M,0,166801,170188,-52,140,317,33 R,0,166801,170188,0.2457601,5.781651E-08 F,0,168736,170188,1,0 S,0,168736,170188,0.9304572,0.5874858
Sprite,Foreground,Centre,"Lyrics\w-give me a sign.png",320,240 M,0,170672,171640,305,307,176,242 S,0,170672,171640,0.2217599,1 R,0,170672,171640,0,-0.8806397 M,0,171640,172607,176,242,115,180 F,0,171640,172607,1,0 S,0,171640,172607,1 R,0,171640,172607,-0.8806397,-2.29376
Sprite,Foreground,Centre,"Lyrics\w-rain down on me.png",320,240 S,0,166801,168253,0.2217599,0.9304572 M,0,166801,170188,699,147,318,66 R,0,166801,170188,-0.08191995,6.020069E-08 F,0,168736,170188,1,0 S,0,168736,170188,0.9304572,0.5874858
Sprite,Foreground,Centre,"Lyrics\w-i wanna believe.png",320,240 M,0,172365,173454,328,298,444,234 S,0,172365,173454,0.1500803,1 R,0,172365,173454,0,-1.35168 F,0,172365,173575,1 M,0,173454,174543,444,234,511,124 S,0,173454,174543,1 R,0,173454,174543,-1.35168,-2.56 F,0,173575,174543,1,0
Sprite,Foreground,Centre,"SB\Black.png",320,240 F,0,175511,176478,0,1 F,0,176478,177446,1 F,0,177446,177667,1,0
Sprite,Foreground,Centre,"SB\drop.png",320,240 F,2,176478,,0,1 M,0,176478,177431,320,10,320,240 F,2,177446,,0
Sprite,Foreground,Centre,"Lyrics\and takes a moment to assess the sin.png",320,240 L,23360,1 M,0,0,242,320,500,320,460 F,0,0,242,0,1 F,0,242,3387,1 F,0,3387,3629,1,0
Sprite,Foreground,Centre,"Lyrics\she paints her finger with a close presicion.png",320,500 L,15618,1 M,0,0,242,320,500,320,460 F,0,0,242,0,1 F,0,242,3387,1 F,0,3387,3629,1,0
Sprite,Foreground,Centre,"Lyrics\he starts to notice empty bottles of gin.png",320,240 L,19489,1 M,0,0,242,320,500,320,460 F,0,0,242,0,1 F,0,242,3387,1 F,0,3387,3629,1,0
Sprite,Foreground,Centre,"Lyrics\she's paid for.png",320,240 L,26747,1 M,0,0,242,320,500,320,460 F,0,0,242,0,1 F,0,242,3387,1 F,0,3387,3629,1,0
Sprite,Foreground,Centre,"Lyrics\a lonely speaker in a conversation.png",320,240 L,31102,1 M,0,0,242,320,500,320,460 F,0,0,242,0,1 F,0,242,3387,1 F,0,3387,3629,1,0
Sprite,Foreground,Centre,"Lyrics\her words are swimming through his ears again.png",320,240 L,34973,1 S,0,0,,0.92 M,0,0,242,320,500,320,460 F,0,0,242,0,1 F,0,242,3387,1 F,0,3387,3629,1,0
Sprite,Foreground,Centre,"Lyrics\there's nothing wrong with just a taste.png",320,240 L,38844,1 S,0,0,,0.95 M,0,0,242,320,500,320,430 F,0,0,242,0,1 F,0,242,3387,1 F,0,3387,3629,1,0
Sprite,Foreground,Centre,"Lyrics\of what you've paid for.png",320,240 L,41022,1 S,0,0,,0.95 M,0,0,242,320,500,320,460 F,0,0,242,0,1 F,0,242,3387,1 F,0,3387,3629,1,0
Sprite,Foreground,Centre,"Lyrics\say what you mean.png",320,240 L,47312,1 M,0,0,242,320,500,320,460 F,0,0,242,0,1 F,0,242,1693,1 F,0,1693,1935,1,0 L,101127,1 M,0,0,242,320,500,320,460 F,0,0,242,0,1 F,0,242,1693,1 F,0,1693,1935,1,0
Sprite,Foreground,Centre,"Lyrics\c-say what you mean.png",320,240 L,193257,1 M,0,0,242,320,500,320,460 F,0,0,242,0,1 F,0,242,1693,1 F,0,1693,1935,1,0
Sprite,Foreground,Centre,"Lyrics\tell me i'm right.png",320,240 L,49247,1 M,0,0,242,320,500,320,460 F,0,0,242,0,1 F,0,242,1693,1 F,0,1693,1935,1,0 L,103063,1 M,0,0,242,320,500,320,460 F,0,0,242,0,1 F,0,242,1693,1 F,0,1693,1935,1,0
Sprite,Foreground,Centre,"Lyrics\c-tell me i'm right.png",320,240 L,195147,1 M,0,0,242,320,500,320,460 F,0,0,242,0,1 F,0,242,1693,1 F,0,1693,1935,1,0
Sprite,Foreground,Centre,"Lyrics\and let the sun rain down on me.png",320,240 L,51183,1 M,0,0,242,320,500,320,460 F,0,0,242,0,1 F,0,242,3387,1 F,0,3387,3629,1,0 L,104998,1 M,0,0,242,320,500,320,460 F,0,0,242,0,1 F,0,242,3387,1 F,0,3387,3629,1,0
Sprite,Foreground,Centre,"Lyrics\c-and let the sun rain down on me.png",320,240 L,197037,1 M,0,0,242,320,500,320,460 F,0,0,242,0,1 F,0,242,3387,1 F,0,3387,3629,1,0
Sprite,Foreground,Centre,"Lyrics\give me a sign.png",320,240 L,55054,1 M,0,0,242,320,500,320,460 F,0,0,242,0,1 F,0,242,1693,1 F,0,1693,1935,1,0 L,108869,1 M,0,0,242,320,500,320,460 F,0,0,242,0,1 F,0,242,1693,1 F,0,1693,1935,1,0
Sprite,Foreground,Centre,"Lyrics\c-give me a sign.png",320,240 L,200816,1 M,0,0,242,320,500,320,460 F,0,0,242,0,1 F,0,242,1693,1 F,0,1693,1935,1,0
Sprite,Foreground,Centre,"Lyrics\i wanna believe.png",320,240 L,56747,1 M,0,0,242,320,500,320,460 F,0,0,242,0,1 F,0,242,1693,1 F,0,1693,2935,1,0 L,110563,1 M,0,0,242,320,500,320,460 F,0,0,242,0,1 F,0,242,1693,1 F,0,1693,2935,1,0
Sprite,Foreground,Centre,"Lyrics\c-i wanna believe.png",320,240 L,202470,1 M,0,0,242,320,500,320,460 F,0,0,242,0,1 F,0,242,1693,1 F,0,1693,2935,1,0
Sprite,Foreground,Centre,"Lyrics\whoa.png",320,240 L,61815,1 M,0,0,242,320,500,320,460 F,0,0,242,0,1 S,0,0,480,1,1.2 F,0,242,2129,1 S,0,480,960,1.2,1 S,0,960,1440,1,1.2 S,0,1440,1920,1.2,1 S,0,1920,2400,1,1.2 F,0,2129,2365,1,0 L,69377,1 M,0,0,242,320,500,320,460 F,0,0,242,0,1 S,0,0,480,1,1.2 F,0,242,2129,1 S,0,480,960,1.2,1 S,0,960,1440,1,1.2 S,0,1440,1920,1.2,1 S,0,1920,2400,1,1.2 F,0,2129,2365,1,0 L,115630,1 M,0,0,242,320,500,320,460 F,0,0,242,0,1 S,0,0,480,1,1.2 F,0,242,2129,1 S,0,480,960,1.2,1 S,0,960,1440,1,1.2 S,0,1440,1920,1.2,1 S,0,1920,2400,1,1.2 F,0,2129,2365,1,0 L,123192,1 M,0,0,242,320,500,320,460 F,0,0,242,0,1 S,0,0,480,1,1.2 F,0,242,2129,1 S,0,480,960,1.2,1 S,0,960,1440,1,1.2 S,0,1440,1920,1.2,1 S,0,1920,2400,1,1.2 F,0,2129,2365,1,0 L,177204,1 M,0,0,242,320,500,320,460 F,0,0,242,0,1 S,0,0,480,1,1.2 F,0,242,2129,1 S,0,480,960,1.2,1 S,0,960,1440,1,1.2 S,0,1440,1920,1.2,1 S,0,1920,2400,1,1.2 F,0,2129,2365,1,0 L,184753,1 M,0,0,242,320,500,320,460 F,0,0,242,0,1 S,0,0,480,1,1.2 F,0,242,2129,1 S,0,480,960,1.2,1 S,0,960,1440,1,1.2 S,0,1440,1920,1.2,1 S,0,1920,2400,1,1.2 F,0,2129,2365,1,0
Sprite,Foreground,Centre,"Lyrics\you're guaranteed to run this town.png",320,240 L,65834,1 M,0,0,242,320,500,320,460 F,0,0,242,0,1 F,0,241,3387,1 F,0,3387,3629,1,0 L,119649,1 M,0,0,242,320,500,320,460 F,0,0,242,0,1 F,0,241,3387,1 F,0,3387,3629,1,0 L,181210,1 M,0,0,242,320,500,320,460 F,0,0,242,0,1 F,0,241,3387,1 F,0,3387,3629,1,0
Sprite,Foreground,Centre,"Lyrics\mona.png",320,240 L,64180,1 S,0,0,,1.3 M,0,0,242,200,500,200,450 F,0,0,242,0,1 F,0,242,480,1 F,0,480,960,1,0 L,71740,1 S,0,0,,1.3 M,0,0,242,200,500,200,450 F,0,0,242,0,1 F,0,242,480,1 F,0,480,960,1,0 L,117995,1 S,0,0,,1.3 M,0,0,242,200,500,200,450 F,0,0,242,0,1 F,0,242,480,1 F,0,480,960,1,0 L,125555,1 S,0,0,,1.3 M,0,0,242,200,500,200,450 F,0,0,242,0,1 F,0,242,480,1 F,0,480,960,1,0 L,179556,1 S,0,0,,1.3 M,0,0,242,200,500,200,450 F,0,0,242,0,1 F,0,242,480,1 F,0,480,960,1,0 L,187116,1 S,0,0,,1.3 M,0,0,242,200,500,200,450 F,0,0,242,0,1 F,0,242,480,1 F,0,480,960,1,0
Sprite,Foreground,Centre,"Lyrics\lisa.png",320,240 L,64653,1 S,0,0,,1.3 M,0,0,242,440,500,440,450 F,0,0,242,0,1 F,0,242,480,1 F,0,480,1200,1,0 L,72212,1 S,0,0,,1.3 M,0,0,242,440,500,440,450 F,0,0,242,0,1 F,0,242,480,1 F,0,480,1200,1,0 L,118468,1 S,0,0,,1.3 M,0,0,242,440,500,440,450 F,0,0,242,0,1 F,0,242,480,1 F,0,480,1200,1,0 L,126027,1 S,0,0,,1.3 M,0,0,242,440,500,440,450 F,0,0,242,0,1 F,0,242,480,1 F,0,480,1200,1,0 L,180029,1 S,0,0,,1.3 M,0,0,242,440,500,440,450 F,0,0,242,0,1 F,0,242,480,1 F,0,480,1200,1,0 L,187588,1 S,0,0,,1.3 M,0,0,242,440,500,440,450 F,0,0,242,0,1 F,0,242,480,1 F,0,480,1200,1,0
Sprite,Foreground,Centre,"Lyrics\i'd paid to see you frown.png",320,240 L,73393,1 M,0,0,242,320,500,320,460 F,0,0,242,0,1 F,0,241,3387,1 F,0,3387,3629,1,0 L,127208,1 M,0,0,242,320,500,320,460 F,0,0,242,0,1 F,0,241,3387,1 F,0,3387,3629,1,0 L,188769,1 M,0,0,242,320,500,320,460 F,0,0,242,0,1 F,0,241,3387,1 F,0,3387,3629,1,0
Sprite,Foreground,Centre,"Lyrics\he senses something call it desperation.png",320,240 L,81046,1 M,0,0,242,320,500,320,460 F,0,0,242,0,1 F,0,242,3387,1 F,0,3387,3629,1,0
Sprite,Foreground,Centre,"Lyrics\another dollar another day.png",320,240 L,84917,1 M,0,0,242,320,500,320,460 F,0,0,242,0,1 F,0,242,3387,1 F,0,3387,3629,1,0
Sprite,Foreground,Centre,"Lyrics\and if she had the proper words to say.png",320,240 L,88788,1 M,0,0,242,320,500,320,460 F,0,0,242,0,1 F,0,242,3000,1 F,0,3000,3329,1,0
Sprite,Foreground,Centre,"Lyrics\she would tell him.png",320,240 L,91934,1 M,0,0,242,320,500,320,460 F,0,0,242,0,1 F,0,242,1693,1 F,0,1693,1935,1,0
Sprite,Foreground,Centre,"Lyrics\but she had nothing left to sell him.png",320,240 L,93869,1 M,0,0,242,320,500,320,460 F,0,0,242,0,1 F,0,242,1693,1 F,0,1693,2175,1,0
Sprite,Foreground,Centre,"SB\end.png",320,240 S,0,215418,,0.9 R,0,215418,,0.1 F,0,215418,215902,0,0.8 M,0,215418,223160,320,240,318,393 F,0,219289,219531,0.8,0.4 F,0,219531,219773,0.4,0.8 F,0,220257,220499,0.8,0.4 F,0,220499,220741,0.4,0.8 F,0,221225,223160,1,0
//Storyboard Sound Samples
//Background Colour Transformations
3,100,163,162,255

[TimingPoints]
135,483.870967741935,4,1,1,90,1,0
30437,-100,4,1,1,30,0,0
30558,-100,4,1,1,90,0,0
30679,-100,4,1,1,30,0,0
30800,-100,4,1,1,90,0,0
30921,-100,4,1,1,30,0,0
31042,-100,4,1,1,90,0,0
45921,-100,4,1,1,30,0,0
46526,-100,4,1,1,90,0,0
58562,-100,4,1,1,50,0,0
59409,-100,4,1,1,60,0,0
60135,480,4,1,1,90,1,0
60375,-100,4,1,1,70,0,0
60855,-100,4,1,1,80,0,0
61335,-100,4,1,1,90,0,0
62055,472.44094488189,4,1,1,90,1,1
77176,483.870967741935,4,1,1,90,1,0
80986,-100,4,2,1,90,0,0
81107,-100,4,1,1,90,0,0
81712,-100,4,2,1,90,0,0
81833,-100,4,1,1,90,0,0
83829,-100,4,2,1,100,0,0
84071,-100,4,1,1,90,0,0
84313,-100,4,2,1,70,0,0
84555,-100,4,1,1,90,0,0
84796,-100,4,2,1,100,0,0
85038,-100,4,1,1,90,0,0
87700,-100,4,2,1,100,0,0
87942,-100,4,2,1,90,0,0
88184,-100,4,2,1,70,0,0
88425,-100,4,2,1,90,0,0
88667,-100,4,2,1,100,0,0
88909,-100,4,1,1,90,0,0
91571,-100,4,2,1,100,0,0
91813,-100,4,1,1,90,0,0
92055,-100,4,2,1,70,0,0
92296,-100,4,1,1,90,0,0
92538,-100,4,2,1,100,0,0
92780,-100,4,1,1,90,0,0
94474,-100,4,2,1,100,0,0
94716,-100,4,1,1,90,0,0
96409,-116.279069767442,4,1,1,90,0,0
100038,-100,4,1,1,90,0,0
113950,480,4,1,1,90,1,0
115870,472.44094488189,4,1,1,90,1,1
130751,-100,4,1,1,90,0,1
130995,483.870967741935,4,1,1,90,1,0
138495,-133.333333333333,4,2,1,80,0,0
139644,-133.333333333333,4,1,1,60,0,0
139765,-133.333333333333,4,2,1,80,0,0
141579,-133.333333333333,4,1,1,60,0,0
141700,-133.333333333333,4,2,1,80,0,0
147446,-133.333333333333,4,1,1,60,0,0
147567,-133.333333333333,4,2,1,80,0,0
149321,-133.333333333333,4,1,1,60,0,0
149442,-133.333333333333,4,2,1,80,0,0
153192,-133.333333333333,4,1,1,60,0,0
153313,-133.333333333333,4,2,1,80,0,0
155128,-133.333333333333,4,1,1,60,0,0
155249,-133.333333333333,4,2,1,80,0,0
157063,-133.333333333333,4,1,1,60,0,0
157184,-133.333333333333,4,2,1,80,0,0
161902,-133.333333333333,4,2,1,30,0,0
162023,-133.333333333333,4,2,1,80,0,0
162204,-133.333333333333,4,2,1,90,0,0
174543,-133.333333333333,4,2,1,80,0,0
174785,-133.333333333333,4,2,1,55,0,0
175027,-133.333333333333,4,2,1,40,0,0
175269,-133.333333333333,4,2,1,30,0,0
175511,-133.333333333333,4,2,1,20,0,0
175753,-133.333333333333,4,2,1,15,0,0
175994,-133.333333333333,4,2,1,10,0,0
176236,-133.333333333333,4,2,1,5,0,0
176478,-133.333333333333,4,2,1,10,0,0
177431,472.44094488189,4,1,1,90,1,1
203897,472.44094488189,4,1,1,90,1,1
207440,-100,4,1,1,90,0,1
207677,483.870967741935,4,1,1,90,1,0

[Colours]
Combo1 : 137,104,61
Combo2 : 243,218,71
Combo3 : 202,4,4
SliderBorder : 30,30,30

[HitObjects]
104,232,15618,6,8,B|92:276|112:312|144:336|184:332,1,150,4|8
184,252,16344,2,0,B|256:232|256:232|328:252,1,150
329,332,17070,2,8,B|368:336|400:312|420:276|408:232,1,150,8|0
344,88,18038,6,0,B|300:88|272:80|232:60|256:52|256:52|280:60|240:80|212:88|168:88,2,225,8|0|0
344,244,19973,2,0,B|300:244|272:252|232:272|256:280|256:280|280:272|240:252|212:244|168:244,1,225,8|0
164,324,20941,6,0,B|196:376|256:384|256:384|316:376|348:324,1,225,8|0
416,280,21909,1,8
348,236,22151,2,0,B|316:184|256:176|256:176|196:184|164:236,1,225,8|8
48,132,23360,6,0,B|32:92|44:48|84:24|120:24,1,150,0|8
180,72,24086,2,0,B|240:80|256:140|256:140|272:212|336:216,1,225,8|8
464,132,25296,6,0,B|480:92|468:48|428:24|392:24,1,150,0|8
332,72,26022,2,0,B|272:80|256:140|256:140|240:212|176:216,2,225,8|8|0
408,68,27715,5,8
408,68,27957,1,8
256,244,28683,1,8
104,68,29651,1,8
104,68,29893,1,8
256,108,30376,6,2,B|256:28,3,75,0|0|0|4
256,188,31586,1,10
332,200,31828,2,0,B|324:268|256:292|188:268|180:200,1,225,0|8
192,40,33038,2,0,B|212:8|256:-4|300:8|320:40,1,150,0|8
364,104,33764,2,0,B|320:128|256:140|192:128|148:104,1,225,8|8
148,260,34973,6,0,B|192:236|256:224|320:236|364:260,2,225,2|2|8
56,132,36909,1,0
184,40,37393,2,0,B|256:20|256:20|328:40,1,150,8|0
456,132,38360,1,8
444,288,38844,6,0,B|408:344|328:344|328:344|232:344,1,225,2|2
256,188,40054,2,0,B|328:152|348:76,1,150,2|2
275,40,40780,2,0,B|184:40|184:40|104:40|68:96,1,225,2|2
112,244,41989,1,2
256,304,42473,1,0
400,244,42957,1,2
472,212,43199,2,0,B|476:132,1,75,8|10
256,56,44167,5,8
36,137,45134,2,0,B|40:212,1,75,8|8
152,104,45860,6,2,B|224:96|248:68|256:64|256:64|264:68|288:96|360:104,1,225,0|4
476,208,47070,1,8
324,236,47554,6,0,B|296:264|256:272|216:264|188:236,1,150,2|8
152,308,48280,2,0,B|196:344|256:356|316:344|360:308,1,225,2|8
324,148,49489,2,0,B|296:120|256:112|216:120|188:148,1,150,2|8
152,76,50215,2,0,B|196:40|256:28|316:40|360:76,1,225,2|8
296,232,51425,6,0,B|312:268|296:304,1,75,0|2
216,304,51909,2,0,B|200:268|216:232,1,75,8|2
184,80,52634,2,0,B|220:64|256:56|292:64|328:80,1,150,2|0
256,220,53602,1,2
184,356,54086,2,0,B|220:372|256:380|292:372|328:356,1,150,0|2
392,132,55296,6,0,B|312:108|296:24,1,150,0|8
216,26,56022,2,0,B|200:108|120:132,1,150,2|2
168,280,56989,2,0,B|204:256|216:224,1,75,2|0
295,223,57473,2,0,B|308:256|344:280,1,75,2|8
256,192,57957,12,8,60135
356,116,60615,5,4
256,16,61095,1,0
156,116,61575,1,2
120,248,62055,6,0,B|168:304|256:316|344:304|392:248,2,300,4|0|4
184,120,64417,6,0,B|212:104|256:100|300:104|328:120,2,150,8|0|8
156,192,65598,1,8
184,264,65834,2,0,B|212:280|256:284|300:280|328:264,2,150,0|8|0
132,132,67251,2,0,B|256:88|256:88|380:132,2,262.5,10|2|2
68,180,69141,1,8
28,248,69377,1,8
44,324,69614,6,0,B|84:344|124:320|124:320|172:288|216:316|216:316|256:352|296:316|296:316|340:288|388:320|388:320|428:344|468:324,1,450,4|8
460,184,71503,1,4
328,140,71976,1,8
184,140,72448,1,0
52,184,72921,1,8
64,260,73157,1,8
120,308,73393,6,0,B|240:316|324:260|328:156|328:156|328:64,1,375,4|2
184,71,75047,2,0,B|184:156|184:156|188:260|272:316|392:308,1,375,2|10
456,268,76464,2,0,B|456:192,1,75,0|8
380,188,76936,2,0,B|380:112,1,75,0|4
300,180,81046,6,0,B|300:140|300:140|300:96|256:72|212:96|212:140|212:140|212:180,1,225,2|10
436,96,82498,2,0,B|436:208|436:208|436:324|320:324,1,300,0|8
256,276,83708,1,8
191,324,83950,2,0,B|76:324|76:208|76:208|76:96,1,300,2|2
220,32,85401,6,0,B|304:32,1,75,8|8
356,80,85885,2,0,B|348:100|332:112|304:112|304:112|256:112|208:112|208:112|180:112|164:100|156:80,2,225,0|2|8
404,228,87821,1,2
256,276,88305,1,2
108,228,88788,1,2
148,76,89272,6,0,B|172:32|236:32|236:32|292:32,2,150,8|0|8
256,192,90724,1,0
364,308,91208,2,0,B|340:352|276:352|276:352|220:352,2,150,8|2|2
256,192,92659,1,2
256,36,93143,6,0,B|256:120,1,75,8|8
188,252,93869,2,0,B|216:320,1,75,2|8
295,321,94353,2,0,B|324:252,1,75,0|6
456,152,96530,6,0,B|488:204|456:264|388:280|328:240|320:180|368:132|368:132|280:104|256:24|256:24|232:104|144:132|144:132|192:180|184:240|124:280|56:264|24:204|56:152,1,903.000032293798,4|6
12,300,100401,5,4
12,300,100885,1,8
12,300,101369,2,0,B|36:336|108:348|152:332,1,150,0|8
180,260,102095,2,0,B|288:260|288:260|336:260|372:240|380:200,1,225,2|8
500,300,103305,2,0,B|476:336|404:348|360:332,1,150,0|8
332,260,104030,2,0,B|224:260|224:260|176:260|140:240|132:200,1,225,2|8
172,52,105240,6,0,B|216:112,1,75,0|2
295,112,105724,2,0,B|340:52,1,75,8|2
440,172,106450,2,0,B|420:256|328:260,1,150,2|2
179,259,107417,2,0,B|92:256|72:172,1,150,0|2
256,28,108627,1,8
300,176,109111,6,0,B|336:248|296:320,1,150,0|8
215,319,109837,2,0,B|176:248|212:176,1,150,2|2
148,32,110805,2,0,B|188:40|188:40|220:56,1,75,2|0
293,55,111288,2,0,B|324:40|324:40|364:32,1,75,2|8
256,192,111772,12,8,113950
352,268,114430,5,4
256,164,114910,1,0
160,268,115390,1,2
128,124,115870,6,0,B|172:104|204:64|204:64|308:64|308:64|340:104|384:124,2,300,4|0|4
128,260,118232,6,0,B|172:280|204:320|204:320|308:320|308:320|340:280|384:260,1,300,8|8
392,180,119413,1,8
332,128,119649,2,0,B|180:128,1,150,0|8
256,236,120594,1,0
140,316,121066,2,0,B|180:368|256:384|332:368|372:316,2,262.5,10|2|2
76,272,122956,1,8
36,204,123192,1,8
44,128,123429,6,0,B|84:108|124:132|124:132|172:164|216:136|216:136|256:100|296:136|296:136|340:164|388:132|388:132|428:108|468:128,1,450,4|8
340,68,125318,1,4
172,68,125791,1,0
256,212,126263,1,0
396,212,126736,1,8
440,144,126972,1,8
392,76,127208,6,0,B|272:68|188:124|184:228|184:228|184:320,1,375,4|2
328,312,128862,2,0,B|328:228|328:228|324:124|240:68|120:76,1,375,2|10
56,116,130279,2,0,B|56:192,1,75,0|8
132,196,130751,2,0,B|132:272,1,75,0|4
196,276,138736,6,0,B|156:276|156:276|116:276|96:244,2,112.499996647239,2|2|0
256,192,140188,1,0
316,108,140672,2,0,B|356:108|356:108|396:108|416:140,2,112.499996647239,2|2|0
204,76,142124,1,0
104,128,142607,6,0,B|144:192|260:168|308:232|308:296|308:296|308:356,1,337.499989941716,2|2
204,352,144543,2,0,B|204:296|204:296|204:232|252:168|368:192|408:128,1,337.499989941716,2|2
364,32,146478,5,2
256,36,146962,1,2
148,32,147446,1,2
180,132,147930,2,0,B|180:260,1,112.499996647239,0|2
256,316,148898,1,0
332,244,149382,2,0,B|332:132,1,112.499996647239
256,192,150107,12,2,152285
200,292,153253,6,0,B|312:292,1,112.499996647239,0|2
388,220,154220,6,0,B|396:160|444:128,1,112.499996647239,2|0
392,36,155188,2,0,B|344:68|316:120,1,112.499996647239
195,118,156156,2,0,B|168:68|120:36,1,112.499996647239,2|0
66,127,157124,2,0,B|116:160|124:220,1,112.499996647239
256,192,158091,12,2,159543
256,192,159785,12,2,161962
320,292,162930,6,0,B|428:332,1,112.499996647239,2|0
480,272,163656,2,0,B|322:214,1,168.749994970858,2|0
192,292,164865,6,0,B|84:332,1,112.499996647239,2|0
32,272,165591,2,0,B|190:214,1,168.749994970858,2|0
256,84,166801,6,0,B|256:12,1,56.2499983236194,0|2
332,44,167285,1,0
376,108,167527,2,0,B|340:156|276:168,1,112.499996647239,0|2
136,176,168494,2,0,B|172:224|236:236,1,112.499996647239,0|2
376,244,169462,2,0,B|340:292|276:304,1,112.499996647239,0|2
200,92,170672,6,0,B|320:92,1,112.499996647239
348,160,171398,2,0,B|300:232|260:216|216:252|216:292|216:292|216:324,1,224.999993294478,2|0
296,324,172607,2,0,B|296:292|296:292|296:252|252:216|212:232|164:160,1,224.999993294478,0|2
256,192,173817,12,0,176478
468,256,177431,6,0,B|428:236|388:260|388:260|340:292|296:264|296:264|256:228|216:264|216:264|172:292|124:260|124:260|84:236|44:256,1,450,4|8
56,116,179320,1,4
184,60,179793,6,0,B|216:44|256:40|296:44|328:60,1,150,8|0
456,116,180738,1,8
404,176,180974,1,8
328,168,181210,2,0,B|296:184|256:188|216:184|184:168,2,150,0|8|0
456,116,182627,1,8
460,264,183100,2,0,B|392:340|256:376|120:340|52:264,1,450,0|8
60,188,184753,1,0
124,144,184990,5,4
208,260,185462,1,8
256,128,185934,1,0
304,260,186407,1,8
388,144,186879,1,4
400,4,187352,6,0,B|336:16|304:56|304:184|304:184|304:276,1,300,8|8
256,320,188533,1,8
208,260,188769,2,0,B|208:184|208:184|208:56|176:16|112:4,1,300
124,144,190186,1,8
108,284,190659,5,4
184,284,190895,2,0,B|184:208,2,75,8|8|8
328,284,191840,2,0,B|328:208,2,75,8|8|8
404,284,192549,1,4
388,144,193021,1,4
324,236,193493,6,0,B|296:264|256:272|216:264|188:236,1,150,2|8
152,308,194202,2,0,B|196:344|256:356|316:344|360:308,1,225,2|8
324,148,195383,2,0,B|296:120|256:112|216:120|188:148,1,150,2|8
152,76,196092,2,0,B|196:40|256:28|316:40|360:76,1,225,2|8
296,232,197273,6,0,B|312:268|296:304,1,75,0|2
216,304,197745,2,0,B|200:268|216:232,1,75,8|2
184,80,198454,2,0,B|220:64|256:56|292:64|328:80,1,150,2|0
256,220,199399,1,2
184,356,199871,2,0,B|220:372|256:380|292:372|328:356,1,150,0|2
392,132,201053,6,0,B|312:108|296:24,1,150,0|8
216,26,201761,2,0,B|200:108|120:132,1,150,2|2
168,264,202706,2,0,B|216:320,1,75,2|0
295,320,203179,2,0,B|343:263,1,75,2|8
256,192,203651,12,2,205550
136,196,206022,6,0,B|136:280,1,75,0|8
216,272,206495,2,0,B|216:192,1,75,0|8
296,196,206967,2,0,B|296:272,1,75,0|8
372,268,207440,2,0,B|372:192,1,75,0|4
