osu file format v14

[General]
AudioFilename: Panic! At The Disco - Lying Is The Most Fun... [OFFICIAL VIDEO].mp3
AudioLeadIn: 0
PreviewTime: 50914
Countdown: 1
SampleSet: Normal
StackLeniency: 0.2
Mode: 0
LetterboxInBreaks: 1
WidescreenStoryboard: 1

[Editor]
Bookmarks: 16609,44724,132819
DistanceSpacing: 1.3
BeatDivisor: 4
GridSize: 4
TimelineZoom: 0.9

[Metadata]
Title:Lying Is The Most Fun A Girl Can Have Without Taking Her Clothes Off
TitleUnicode:Lying Is The Most Fun A Girl Can Have Without Taking Her Clothes Off
Artist:Panic! at the Disco
ArtistUnicode:Panic! at the Disco
Creator:SilenltyPL
Version:Easy
Source:
Tags:punk scene 2006 black lifeisbrutal myspaceangle eyeliner fringe
BeatmapID:756480
BeatmapSetID:341079

[Difficulty]
HPDrainRate:2
CircleSize:2.5
OverallDifficulty:2
ApproachRate:4
SliderMultiplier:1.2
SliderTickRate:1

[Events]
//Background and Video events
0,0,"bg.jpg",0,0
//Break Periods
2,125400,131499
//Storyboard Layer 0 (Background)
//Storyboard Layer 1 (Fail)
//Storyboard Layer 2 (Pass)
//Storyboard Layer 3 (Foreground)
//Storyboard Sound Samples

[TimingPoints]
9010,476.190476190476,4,1,0,15,1,0
47105,-133.333333333333,4,1,0,15,0,0
50914,-100,4,1,0,15,0,0
54248,-100,4,1,0,15,0,1
69962,-100,4,1,0,15,0,0
98533,-100,4,1,0,15,0,1
113295,-100,4,1,0,15,0,0
155676,-100,4,1,0,15,0,1
169962,-100,4,1,0,15,0,0
186152,-133.333333333333,4,1,0,15,0,0

[HitObjects]
44,128,16629,6,0,P|128:56|212:128,1,240
128,144,18057,1,0,0:0:0:0:
76,252,18533,2,0,B|172:252|172:252|212:216|212:216|308:216,1,240
240,316,19962,5,0,0:0:0:0:
352,272,20438,1,0,0:0:0:0:
420,172,20914,1,0,0:0:0:0:
344,80,21390,2,0,B|300:36|292:36|248:80,1,120
132,44,22343,5,0,0:0:0:0:
47,128,22819,1,0,0:0:0:0:
47,247,23295,1,0,0:0:0:0:
131,331,23771,1,0,0:0:0:0:
252,332,24248,6,0,P|316:316|396:164,1,240
288,220,25676,1,0,0:0:0:0:
288,100,26152,2,0,B|288:40|288:40|136:40|136:104,1,240
208,200,27581,6,0,B|256:240|256:240|304:200,1,120
304,324,28533,2,0,B|256:364|256:364|208:324,1,120
92,328,29486,2,0,P|104:228|312:96,1,360
420,60,31390,5,0,0:0:0:0:
424,180,31867,2,0,P|396:248|352:252,2,120
364,76,33295,6,0,B|280:76|280:76|240:92,2,120
484,76,34724,1,0,0:0:0:0:
484,196,35200,6,0,B|436:232|436:232|372:232,1,120
280,308,36152,2,0,B|232:344|232:344|168:344,1,120
68,284,37105,5,0,0:0:0:0:
68,164,37581,1,0,0:0:0:0:
68,44,38057,1,0,0:0:0:0:
172,104,38533,1,0,0:0:0:0:
264,184,39009,6,0,P|324:248|472:240,1,240
376,164,40438,1,0,0:0:0:0:
452,72,40914,2,0,B|332:72|332:72|212:88|212:88|92:88,1,360
60,204,42819,6,0,B|60:304|60:304|80:304,1,120
200,304,43771,2,0,P|244:296|276:232,1,120
160,196,44724,6,0,P|180:141|236:125,1,120
356,124,45676,1,0,0:0:0:0:
475,124,46152,1,0,0:0:0:0:
392,292,47105,6,0,B|304:292|304:292|372:196|288:160|256:100|224:160|140:196|208:292|208:292|116:292,1,540.000020599366
68,120,50914,5,0,0:0:0:0:
232,44,51867,1,0,0:0:0:0:
412,52,52819,2,0,P|400:92|368:128,3,89.9999999999999
312,200,54248,5,0,0:0:0:0:
236,292,54724,1,0,0:0:0:0:
116,300,55200,2,0,P|56:288|12:176,1,180
52,76,56390,2,0,B|176:76|176:76|260:160,1,240
128,284,58057,6,0,B|260:284|260:284|316:348|400:348|460:284,1,360
356,220,59962,1,0,0:0:0:0:
428,124,60438,5,0,0:0:0:0:
336,48,60914,1,0,0:0:0:0:
216,48,61390,1,0,0:0:0:0:
120,124,61867,5,0,0:0:0:0:
120,244,62343,2,0,P|120:364|220:364,1,240
336,364,63771,1,0,0:0:0:0:
428,288,64248,6,0,B|428:192|428:192|400:240|400:240|400:152,1,240
284,124,65676,6,0,B|184:232|284:340|284:340|47:340,1,480
52,220,68057,2,0,B|52:68|52:68|144:68|144:68|144:156|196:156,1,360
200,276,69962,1,0,0:0:0:0:
16,188,71867,6,0,B|16:88|120:88|120:88|200:88,1,240
256,192,73295,1,0,0:0:0:0:
320,88,73771,2,0,B|394:88|394:88|498:88|498:188,1,240
456,300,75200,6,0,B|308:348|384:220|384:220|280:316|256:112|256:112|232:316|128:220|128:220|204:348|56:300,1,840
28,64,79486,5,0,0:0:0:0:
148,64,79962,1,0,0:0:0:0:
268,64,80438,2,0,B|268:160|268:160|252:184,1,120
136,176,81390,6,0,P|136:236|184:236,1,120
304,228,82343,1,0,0:0:0:0:
356,336,82819,6,0,B|436:244|436:244|436:124,1,240
315,125,84248,2,0,B|235:217|235:217|235:337,1,240
116,332,85676,2,0,B|24:332|24:332|24:264|68:176,1,240
48,72,87105,5,0,0:0:0:0:
167,72,87581,1,0,0:0:0:0:
288,72,88057,2,0,B|376:72|376:72|396:36,2,120
168,76,89486,2,0,B|168:144|172:140|168:136|164:140|168:140|228:140,1,120
448,48,90914,6,0,B|448:108|448:108|388:108|388:264,1,240
292,336,92343,1,0,0:0:0:0:
172,340,92819,2,0,P|172:280|124:280,1,120
132,160,93771,2,0,L|132:40,1,120
252,52,94724,6,0,L|312:52,1,60
312,112,95200,2,0,L|372:112,1,60
368,172,95676,1,0,0:0:0:0:
368,292,96152,5,0,0:0:0:0:
248,296,96629,2,0,L|156:296,3,90
32,296,98533,6,0,B|32:176|32:176|92:176|92:88,1,240
200,36,99962,1,0,0:0:0:0:
200,156,100438,6,0,P|200:280|296:280,1,240
296,164,101867,6,0,B|360:164|360:164|360:108,1,120
244,72,102819,2,0,B|120:72|120:72|120:128|64:128|64:176,1,240
116,280,104248,2,0,B|272:332|272:332|240:332|240:332|396:280,1,360
476,192,106152,6,0,B|476:36|256:36|256:36|80:36,1,480
88,156,108533,2,0,B|208:156|208:156|208:216|296:216,1,240
416,212,109962,6,0,L|416:272,2,60
296,212,110914,2,0,L|296:152,2,60
175,212,111867,6,0,B|143:184|95:184|63:212,3,120
92,92,113771,5,0,0:0:0:0:
164,256,114486,1,0,0:0:0:0:
236,92,114962,1,0,0:0:0:0:
356,88,115438,2,0,L|436:88,2,60
356,268,116629,2,0,L|436:268,2,60
420,292,117581,5,0,0:0:0:0:
348,128,118296,1,0,0:0:0:0:
276,292,118772,1,0,0:0:0:0:
156,296,119248,2,0,L|76:296,2,60
156,116,120439,2,0,L|76:116,2,60
248,192,121390,5,0,0:0:0:0:
416,132,122105,1,0,0:0:0:0:
416,252,122581,1,0,0:0:0:0:
256,192,123295,12,0,125200,0:0:0:0:
84,56,132819,6,0,B|84:120|116:172|180:192|252:192,1,240
256,72,134248,2,0,B|320:72|320:72|380:88,1,120
436,188,135200,2,0,B|372:188|372:188|312:172,1,120
360,284,136152,6,0,B|236:284|236:284|136:220,1,240
136,100,137581,1,0,0:0:0:0:
255,100,138057,2,0,B|271:60|335:60|351:100,1,120
435,184,139009,1,0,0:0:0:0:
350,268,139486,1,0,0:0:0:0:
248,332,139962,6,0,B|156:332|156:332|128:324,1,120
224,252,140914,2,0,B|316:252|316:252|344:260,1,120
420,192,141867,6,0,B|384:156|336:128|300:124|212:124|176:128|128:156|92:192,1,360
332,164,144248,6,0,L|456:164,1,120
392,268,145200,2,0,L|268:268,1,120
256,148,146152,2,0,B|164:148|164:148|164:208|116:208,1,180
132,328,147343,6,0,L|72:328,2,60
208,328,148057,6,0,L|268:328,1,60
352,243,148771,2,0,L|352:183,1,60
267,98,149486,2,0,L|207:98,1,60
122,182,150200,2,0,L|122:242,1,60
240,216,150914,1,0,0:0:0:0:
60,56,151867,6,0,L|180:56,1,120
116,156,152819,2,0,L|236:156,1,120
355,156,153771,6,0,P|392:140|412:96,3,90
408,308,155676,6,0,B|376:308|376:308|352:296|352:296|340:268|340:268|340:236,1,120
332,116,156629,2,0,B|256:68|256:68|180:116,1,180
96,192,157819,2,0,P|80:228|80:256,2,60
216,328,159009,6,0,P|276:328|332:308,1,120
340,188,159962,1,0,0:0:0:0:
336,68,160438,1,0,0:0:0:0:
216,52,160914,2,0,B|156:52|156:52|156:104|128:104,1,120
132,224,161867,2,0,B|192:224|192:224|192:172|220:172,1,120
288,80,162819,5,0,0:0:0:0:
408,76,163295,2,0,B|408:196|408:196|348:196|348:108,1,240
227,108,164724,1,0,0:0:0:0:
107,108,165200,6,0,B|108:168|108:168|260:168|256:236,1,240
296,348,166629,6,0,P|388:348|388:224,1,240
436,164,168057,2,0,P|344:164|344:288,1,240
224,272,169486,2,0,B|172:240|172:240|172:176,1,120
164,60,170438,6,0,L|224:60,1,60
220,120,170914,2,0,B|312:120|312:120|312:92,1,120
432,100,171867,5,0,0:0:0:0:
328,160,172343,1,0,0:0:0:0:
332,220,172581,2,0,L|332:281,1,60
332,340,173057,2,0,L|272:340,1,60
212,336,173533,6,0,B|212:252|212:252|120:236|120:292|120:292|68:208|68:208|120:124|120:124|120:180|212:164|212:164|212:80,1,600
352,40,178057,6,0,P|372:64|380:92,1,60
404,148,178533,2,0,P|404:240|280:240,1,240
280,180,179724,1,0,0:0:0:0:
212,84,180200,5,0,0:0:0:0:
96,116,180676,2,0,L|96:176,1,60
132,224,181152,2,0,B|220:312|220:312|284:312|284:312|284:200|284:200|344:200|344:200|416:200|416:56|416:56|348:56,1,600
228,192,185200,6,0,L|304:192,3,60
332,192,186152,6,0,B|376:200|452:128|508:144,1,180.000006866455
424,56,187581,2,0,P|404:48|376:60,1,45.0000017166138
336,92,188057,2,0,P|288:120|272:116,3,67.5000025749207
180,192,189962,6,0,B|136:184|60:256|4:240,1,180.000006866455
88,328,191391,2,0,P|108:336|136:324,1,45.0000017166138
176,292,191867,2,0,P|224:264|240:268,1,67.5000025749207
