osu file format v8

[General]
AudioFilename: IWSNT256.mp3
AudioLeadIn: 0
PreviewTime: 31098
Countdown: 0
SampleSet: Normal
StackLeniency: 0.7
Mode: 0
LetterboxInBreaks: 0
StoryFireInFront: 0

[Editor]
DistanceSpacing: 0.8
BeatDivisor: 2
GridSize: 8

[Metadata]
Title:I Write Sins Not Tragedies
Artist:Panic! at the Disco
Creator:Gonzvlo
Version:Calm!
Source:
Tags:A Fever You Can't Sweat Out Krisom

[Difficulty]
HPDrainRate:2
CircleSize:3
OverallDifficulty:2
ApproachRate:3
SliderMultiplier:1
SliderTickRate:2

[Events]
//Background and Video events
0,0,"wallpaper-panic-21-at-the-disco-237081_800_600.jpg"
//Break Periods
2,56950,60957
2,79538,83545
2,85185,86369
2,88009,89192
2,161950,165075
//Storyboard Layer 0 (Background)
//Storyboard Layer 1 (Fail)
//Storyboard Layer 2 (Pass)
//Storyboard Layer 3 (Foreground)
//Storyboard Sound Samples
//Background Colour Transformations
3,100,163,162,255

[TimingPoints]
280,352.941176470588,4,2,0,60,1,0
23044,-100,4,2,1,60,0,0
24103,-100,4,2,0,60,0,0
25162,-100,4,2,1,60,0,0
25515,-100,4,2,0,60,0,0
25868,-100,4,2,1,60,0,0
26221,-100,4,2,0,60,0,0
33985,-100,4,1,0,60,0,0
34162,-100,4,1,0,60,0,1
56750,-100,4,1,0,60,0,0
62044,-100,4,2,0,60,0,0
63985,-100,4,2,1,60,0,0
64338,-100,4,2,0,60,0,0
64338,-100,4,2,0,60,0,0
65397,-100,4,2,1,60,0,0
65750,-100,4,2,0,60,0,0
67868,-100,4,2,0,80,0,0
68221,-100,4,2,0,60,0,0
74574,-100,4,2,1,60,0,0
74927,-100,4,2,0,60,0,0
76691,-100,4,2,1,60,0,0
77044,-100,4,2,0,60,0,0
90279,-100,4,1,0,60,0,0
90632,-100,4,1,0,60,0,1
113221,-100,4,1,0,60,0,0
143750,-100,4,1,0,0,0,0
144103,-100,4,1,0,60,0,0
144279,-100,4,1,0,60,0,1
153712,-100,4,2,0,60,0,1
154338,-100,4,2,1,60,0,0
154691,-100,4,2,0,60,0,0
155750,-100,4,2,1,60,0,0
156103,-100,4,2,0,60,0,0
158574,-100,4,2,1,60,0,0
158927,-100,4,2,0,60,0,0
159270,-100,4,2,1,60,0,0
159623,-100,4,2,0,60,0,0
159985,-100,4,2,1,60,0,0
160338,-100,4,2,0,60,0,0
160682,-100,4,2,1,60,0,0
161035,-100,4,2,0,60,0,0
176397,-100,4,1,0,60,0,0

[Colours]
Combo1 : 240,30,62
Combo2 : 134,53,242
Combo3 : 242,57,71
Combo4 : 117,89,225
SliderTrackOverride : 192,192,192

[HitObjects]
256,344,11574,1,4
304,152,12456,2,0,B|328:96|256:40|184:96|208:152,1,200,0|2
176,344,14044,5,2
336,344,14750,1,2
304,184,15456,2,0,B|320:248|256:288|192:248|208:184,1,200,2|2
384,344,17221,5,0
432,192,17927,1,0
384,40,18632,1,0
128,344,20044,5,0
80,192,20750,1,0
128,40,21455,1,0
376,288,22868,6,0,B|408:345|482:329|501:256|445:221,2,200,0|0|0
136,288,24985,2,0,B|103:345|29:329|10:256|66:221,2,200
208,328,26750,5,2
264,272,27103,1,0
320,216,27456,2,0,B|304:96,1,100,2|0
192,216,28515,2,0,B|208:96,1,100,2|2
256,56,29221,1,0
256,56,29574,1,2
328,224,30279,6,0,B|312:344,2,100,2|0|2
256,184,31338,1,0
184,224,31691,2,0,B|197:323,3,100,2|0|2|4
256,184,34162,5,4
304,120,34515,2,0,B|344:48|400:80|456:112|496:40,2,200,8|8|8
256,184,36279,1,0
208,120,36632,2,0,B|168:48|112:80|56:112|16:40,2,200,8|8|8
336,224,38750,5,8
176,224,39456,1,8
256,360,40162,1,8
336,224,40868,6,0,B|400:144,1,100,8|0
336,96,41574,1,8
176,96,42279,1,8
112,144,42632,2,0,B|174:222,1,100,4|8
256,192,43338,12,4,45103
304,136,45809,6,0,B|320:72|256:32|192:72|208:136,1,200,8|8
344,224,47221,5,8
256,360,47927,1,8
168,224,48632,1,8
136,64,49338,6,0,B|102:7|28:24|11:97|68:131,2,200,8|8|8
256,176,51456,1,8
376,64,52162,6,0,B|409:7|483:24|500:97|443:131,2,200,8|8|8
256,176,54279,1,8
256,192,55162,12,4,56750
256,48,62397,5,4
400,240,63456,6,0,B|392:352|256:384|120:352|112:240,2,400,2|2|2
304,112,66985,2,0,B|200:112,3,100,0|0|0|4
184,280,68750,6,0,B|72:280,1,100,0|2
328,280,70162,2,0,B|440:280,1,100,0|2
336,144,71221,1,2
176,144,71927,1,2
256,280,72632,2,0,B|256:384,2,100,2|0|2
456,152,74397,6,0,B|459:101|411:47|340:53|307:92,1,200,0|0
312,168,75456,1,0
256,224,75809,1,0
200,168,76162,1,0
208,88,76515,2,0,B|179:54|108:48|60:102|64:153,1,200,0|0
256,192,77574,12,4,79338
256,56,84985,5,4
256,328,87809,5,4
168,160,90632,6,0,B|152:128|184:80|216:72,1,100,4|8
256,144,91338,1,0
344,160,91691,2,0,B|360:128|328:80|296:72,1,100,8|0
256,144,92397,2,0,B|200:184|256:232|312:280|256:320,1,200
112,248,93809,1,0
304,96,94868,6,0,B|392:96|416:96,1,100,0|8
408,176,95574,2,0,B|512:176,2,100,0|8|0
328,176,96632,1,0
208,96,97338,6,0,B|120:96|96:96,1,100,8|0
104,176,98044,2,0,B|0:176,2,100,8|0|8
256,232,99456,1,8
256,192,99809,12,4,101574
160,136,102280,6,0,B|160:248,1,100,8|0
216,288,102985,1,8
256,360,103338,1,0
296,288,103691,1,8
352,236,104044,2,0,B|352:136,1,100,0|8
256,8,105103,1,8
344,144,105809,6,0,B|320:112|256:80|192:112|168:144,2,200,8|8|8
416,184,107574,1,0
344,224,107927,2,0,B|319:256|255:288|191:256|167:224,1,200,8|8
104,80,109338,5,8
256,40,110044,1,8
408,80,110750,1,8
256,192,111632,12,4,113221
256,64,114632,5,4
256,192,116044,12,0,119927
200,152,121691,5,4
312,152,122221,1,0
256,344,123103,1,4
256,192,124162,12,0,132280
256,200,132985,5,4
304,264,133338,2,0,B|344:336|400:304|456:272|496:344,2,200,8|8|8
256,200,135103,1,0
208,264,135456,2,0,B|168:336|112:304|56:272|16:344,2,200,8|8|8
336,152,137574,5,8
176,152,138280,1,8
256,16,138985,1,8
256,176,139691,6,0,B|256:384,2,200,8|8|8
256,16,141809,1,8
256,192,142162,12,0,143927
208,248,144632,6,0,B|192:312|256:352|320:312|304:248,1,200,8|8
168,160,146044,1,8
256,24,146750,1,8
344,160,147456,1,8
376,320,148162,6,0,B|410:377|484:360|501:287|444:253,2,200,8|8|8
256,208,150280,1,8
136,320,150985,6,0,B|103:377|29:360|12:287|69:253,2,200,8|8|8
256,208,153103,1,8
392,128,153809,22,0,B|360:32|256:8|152:32|120:128,1,350
256,160,155574,1,4
256,160,156985,1,4
408,240,158397,22,0,B|376:352|256:376|136:352|104:240,2,400,0|0|8
408,160,161574,1,0
408,160,161750,1,4
256,192,166515,12,4,175338
256,24,176750,5,4
256,144,177279,2,0,B|208:176|256:208|304:240|256:272,1,150,4|8
232,344,178162,2,0,B|256:360|280:344,3,50,0|0|8|4
