osu file format v13

[General]
AudioFilename: Panic! At The Disco - Girls - Girls - Boys.mp3
AudioLeadIn: 2000
PreviewTime: 53745
Countdown: 0
SampleSet: Normal
StackLeniency: 0.7
Mode: 0
LetterboxInBreaks: 0
WidescreenStoryboard: 0

[Editor]
DistanceSpacing: 1
BeatDivisor: 4
GridSize: 4
TimelineZoom: 1

[Metadata]
Title:Girls/Girls/Boys
TitleUnicode:Girls/Girls/Boys
Artist:Panic! at the Disco
ArtistUnicode:Panic! at the Disco
Creator:mancuso_JM_
Version:Panic!
Source:
Tags:Too weird to live too rare to die synthrock alternative patd mancusojuanmattos
BeatmapID:416164
BeatmapSetID:172131

[Difficulty]
HPDrainRate:6
CircleSize:4
OverallDifficulty:7
ApproachRate:8
SliderMultiplier:1.8
SliderTickRate:1

[Events]
//Background and Video events
0,0,"patd.png",0,0
//Break Periods
2,80228,82155
2,162986,164642
//Storyboard Layer 0 (Background)
//Storyboard Layer 1 (Fail)
//Storyboard Layer 2 (Pass)
//Storyboard Layer 3 (Foreground)
//Storyboard Sound Samples
//Background Colour Transformations
3,100,163,162,255

[TimingPoints]
768,413.793103448276,4,1,0,60,1,0
53733,-100,4,1,0,60,0,1
80009,-100,4,1,0,35,0,1
80216,-100,4,1,0,60,0,0
123250,-100,4,1,0,60,0,1
148078,-100,4,1,0,60,0,0
162974,-133.333333333333,4,1,0,60,0,0
165768,-133.333333333333,4,1,0,30,0,0
166285,-133.333333333333,4,1,0,60,0,0
169181,-133.333333333333,4,1,0,45,0,0
169285,-133.333333333333,4,1,0,60,0,0
174561,-111.111111111111,4,1,0,60,0,0
176216,-100,4,1,0,60,0,1
202699,-100,4,1,0,45,0,0

[Colours]
Combo1 : 157,60,255
Combo2 : 103,206,0
Combo3 : 151,75,0
Combo4 : 255,141,28
SliderBorder : 55,55,55

[HitObjects]
32,59,147,6,0,P|37:103|54:145,1,90,0|8,0:0|0:0,0:0:0:0:
124,208,561,1,0,0:0:0:0:
124,208,768,2,0,P|198:161|283:180,1,180,4|8,0:0|0:0,0:0:0:0:
300,268,1388,2,0,P|225:314|140:295,1,180,2|2,2:0|0:2,0:0:0:0:
56,260,2009,1,8,0:0:0:0:
8,184,2216,1,0,0:0:0:0:
40,100,2423,5,0,0:0:0:0:
127,107,2630,2,0,P|172:116|216:107,1,90,2|8,2:2|0:0,0:0:0:0:
296,64,3043,2,0,P|292:108|303:151,1,90,2|0,2:3|0:0,0:0:0:0:
348,236,3457,2,0,P|303:228|259:236,1,90,2|8,2:3|0:0,0:0:0:0:
180,280,3871,1,0,0:0:0:0:
96,312,4078,5,4,0:3:0:0:
8,288,4285,2,0,L|1:198,1,90,2|8,2:2|0:0,0:0:0:0:
56,128,4699,2,0,B|100:108|136:144|136:144|176:184|220:160,1,180,2|2,2:3|0:3,0:0:0:0:
300,92,5319,2,0,P|308:47|326:6,1,90,8|0,0:0|0:0,0:0:0:0:
443,32,5733,6,0,P|434:76|416:117,1,90,0|2,0:0|1:2,0:0:0:0:
351,176,6147,2,0,P|323:211|307:253,1,90,8|0,0:0|0:0,0:0:0:0:
160,176,6561,2,0,P|187:211|203:253,1,90,2|2,0:2|0:2,0:0:0:0:
176,340,6974,1,8,0:0:0:0:
256,380,7181,1,0,0:0:0:0:
336,340,7388,1,4,0:0:0:0:
448,196,7802,5,8,0:0:0:0:
448,196,8009,2,0,P|373:149|329:71,1,180,2|2,2:2|0:2,0:0:0:0:
243,36,8630,2,0,P|244:80|257:123,1,90,8|0,0:0|0:0,0:0:0:0:
203,195,9043,2,0,L|114:188,1,90
64,264,9457,1,8,0:0:0:0:
64,264,9664,2,0,L|244:280,1,180,2|2,2:3|0:3,0:0:0:0:
328,312,10285,1,8,0:0:0:0:
408,356,10492,1,0,0:0:0:0:
460,284,10699,5,4,0:3:0:0:
508,112,11112,1,8,0:0:0:0:
507,112,11319,2,0,P|451:46|365:55,1,180,2|2,0:3|0:3,0:0:0:0:
288,104,11940,2,0,P|283:148|293:192,1,90,8|0,0:0|0:0,0:0:0:0:
380,224,12354,6,0,P|390:267|386:312,1,90,0|0,0:0|0:0,0:0:0:0:
308,360,12768,1,8,0:0:0:0:
308,360,12974,1,4,0:3:0:0:
120,340,13388,1,4,0:3:0:0:
36,368,13595,1,8,0:0:0:0:
4,284,13802,1,4,0:3:0:0:
87,247,14009,6,0,P|136:173|130:85,1,180,4|8,0:0|0:0,0:0:0:0:
64,24,14630,2,0,P|126:84|213:75,1,180,2|2,2:3|0:3,0:0:0:0:
287,27,15250,2,0,P|320:58|363:71,1,90,8|0,0:0|0:0,0:0:0:0:
448,40,15664,5,4,0:3:0:0:
479,123,15871,2,0,P|488:168|479:212,1,90,2|8,0:2|0:0,0:0:0:0:
400,252,16285,2,0,L|312:236,2,90,0|2|0,0:0|0:2|0:0,0:0:0:0:
396,344,16905,2,0,L|308:328,1,90,8|0,0:0|0:0,0:0:0:0:
216,308,17319,6,0,P|237:221|217:133,1,180,4|8,0:3|0:0,0:0:0:0:
88,28,18147,2,0,P|67:114|87:202,1,180,2|8,0:2|0:0,0:0:0:0:
228,315,18974,2,0,P|247:229|225:142,1,180,2|8,0:2|0:0,0:0:0:0:
148,99,19595,2,0,B|200:112|225:140|225:140|310:106,1,180,2|2,0:3|0:3,0:0:0:0:
400,100,20216,1,8,0:0:0:0:
444,180,20423,1,0,0:0:0:0:
448,204,20526,1,0,0:0:0:0:
447,227,20630,6,0,P|384:286|300:266,1,180,4|8,0:0|0:0,0:0:0:0:
211,266,21250,2,0,P|127:286|65:227,1,180,2|2,0:3|0:3,0:0:0:0:
64,135,21871,2,0,P|91:100|128:75,1,90,8|0,0:0|0:0,0:0:0:0:
172,156,22285,2,0,P|210:132|253:122,1,90
304,196,22699,1,8,0:0:0:0:
392,175,22905,2,0,P|407:133|412:89,2,90,0|2|0,0:0|0:2|0:0,0:0:0:0:
304,196,23526,2,0,P|288:238|283:282,1,90,8|2,0:0|0:2,0:0:0:0:
359,327,23940,6,0,P|283:284|196:299,1,180,4|8,0:3|0:0,0:0:0:0:
152,376,24561,2,0,B|152:324|196:300|196:300|170:216,1,180,2|2,0:3|0:3,0:0:0:0:
88,180,25181,2,0,P|99:136|92:92,1,90,8|0,0:0|0:0,0:0:0:0:
156,28,25595,2,0,P|199:39|243:32,1,90
332,12,26009,1,8,0:0:0:0:
416,48,26216,1,2,0:3:0:0:
416,48,26630,2,0,L|423:137,1,90,2|8,0:3|0:0,0:0:0:0:
360,200,27043,1,0,0:0:0:0:
307,271,27250,6,0,P|234:224|149:246,2,180,4|8|2,0:0|0:0|0:2,0:0:0:0:
488,288,28492,2,0,L|499:198,1,90,8|0,0:0|0:0,0:0:0:0:
412,176,28905,2,0,L|390:88,1,90,2|2,0:2|0:2,0:0:0:0:
324,28,29319,1,8,0:0:0:0:
240,60,29526,1,2,0:3:0:0:
240,60,29940,2,0,L|261:147,1,90,2|8,0:3|0:0,0:0:0:0:
212,220,30354,1,0,0:0:0:0:
155,291,30561,6,0,P|85:240|0:259,2,180,4|8|2,0:3|0:0|0:2,0:0:0:0:
324,348,31802,2,0,P|368:341|404:315,1,90,8|0,0:0|0:0,0:0:0:0:
452,240,32216,2,2,P|463:151|440:65,1,180,2|8,0:0|0:0,0:0:0:0:
364,15,32836,2,0,P|292:66|205:51,1,180,2|2,0:3|0:3,0:0:0:0:
116,60,33457,1,8,0:0:0:0:
52,124,33664,1,0,0:0:0:0:
88,208,33871,6,0,B|128:156|188:156|188:156|250:156,1,180,4|8,0:0|0:0,0:0:0:0:
336,184,34492,2,0,B|296:236|236:236|236:236|173:236,1,180,2|2,0:3|0:3,0:0:0:0:
87,207,35112,2,0,P|79:164|87:120,1,90,8|0,0:0|0:0,0:0:0:0:
127,39,35526,6,0,P|166:63|210:70,1,90,4|0,0:3|0:0,0:0:0:0:
301,70,35940,2,0,P|345:63|384:39,1,90,8|0,0:0|0:0,0:0:0:0:
424,120,36354,2,0,P|432:164|424:207,1,90,2|0,0:2|0:0,0:0:0:0:
348,256,36768,1,8,0:0:0:0:
268,216,36974,1,0,0:0:0:0:
188,175,37181,6,0,P|152:94|165:6,1,180,4|8,0:3|0:0,0:0:0:0:
346,6,38009,2,0,P|359:94|323:175,1,180,2|8,0:2|0:0,0:0:0:0:
184,296,38836,2,0,B|232:304|256:255|256:255|280:304|328:296,1,180,2|8,0:2|0:0,0:0:0:0:
332,204,39457,2,0,P|256:163|180:204,1,180,2|2,0:3|0:3,0:0:0:0:
92,192,40078,2,0,L|84:102,1,90,8|0,0:0|0:0,0:0:0:0:
124,20,40492,6,0,B|168:28|168:28|210:13,1,90,4|0,0:0|0:0,0:0:0:0:
301,13,40905,2,0,B|344:28|344:28|388:20,1,90,8|0,0:0|0:0,0:0:0:0:
480,20,41319,2,0,P|500:106|480:193,1,180,2|8,0:2|0:0,0:0:0:0:
332,296,42147,2,2,P|256:255|180:296,1,180,2|8,0:0|0:0,0:0:0:0:
256,344,42768,2,0,L|256:164,1,180,2|2,0:3|0:3,0:0:0:0:
298,84,43388,2,0,P|256:71|214:84,1,90,8|0,0:0|0:0,0:0:0:0:
128,108,43802,6,0,P|116:64|89:28,2,90,2|2|8,0:2|0:2|0:0,0:0:0:0:
104,192,44423,1,0,0:0:0:0:
16,180,44630,2,0,B|68:164|104:192|104:192|140:220|186:205,1,180,2|8,0:2|0:0,0:0:0:0:
367,204,45457,2,0,P|383:116|347:35,1,180,2|8,0:2|0:0,0:0:0:0:
256,28,46078,1,0,0:0:0:0:
164,35,46285,2,0,P|128:116|144:204,1,180,2|8,0:2|0:0,0:0:0:0:
214,378,47112,6,0,P|256:364|298:377,2,90,2|0|8,0:2|0:0|0:0,0:0:0:0:
172,301,47733,1,0,0:0:0:0:
172,301,47940,2,0,P|256:273|340:301,1,180,2|8,0:2|0:0,0:0:0:0:
338,124,48768,2,2,P|254:151|170:123,1,180,2|8,0:0|0:0,0:0:0:0:
170,36,49388,2,0,P|253:8|337:35,1,180,2|2,0:3|0:3,0:0:0:0:
416,83,50009,2,0,P|424:128|415:172,1,90,8|0,0:0|0:0,0:0:0:0:
368,248,50423,6,0,B|324:272|292:256|292:256|280:308|256:349|256:349|232:308|220:256|220:256|188:272|144:248,1,360,6|0,0:0|0:0,0:0:0:0:
72,196,51457,1,0,0:0:0:0:
48,108,51664,1,8,0:0:0:0:
136,132,51871,1,0,0:0:0:0:
220,99,52078,6,0,P|243:61|279:36,1,90
448,100,52699,1,0,0:0:0:0:
448,100,53112,2,0,P|424:138|388:163,1,90,0|8,0:0|0:0,0:0:0:0:
332,336,53733,6,2,P|255:294|179:335,1,180,6|8,0:0|0:0,0:0:0:0:
256,384,54354,2,0,L|256:204,1,180,2|2,0:3|0:3,0:0:0:0:
184,151,54974,2,0,P|206:113|215:69,1,90,8|0,0:0|0:0,0:0:0:0:
135,28,55388,6,2,P|215:65|303:56,1,180,6|8,0:0|0:0,0:0:0:0:
394,80,56009,2,0,P|322:132|234:144,1,180,2|2,0:3|0:3,0:0:0:0:
148,128,56630,2,0,P|107:112|62:108,1,90,8|0,0:0|0:0,0:0:0:0:
0,172,57043,5,4,0:0:0:0:
44,252,57250,2,0,P|85:268|130:272,1,90,2|8,0:2|0:0,0:0:0:0:
214,232,57664,2,0,B|256:216|256:216|298:232,1,90,0|2,0:0|0:2,0:0:0:0:
381,271,58078,2,0,P|426:268|468:252,2,90,2|8|0,0:2|0:0|0:0,0:0:0:0:
396,88,58905,6,0,P|355:67|311:59,1,90,2|8,0:2|0:0,0:0:0:0:
296,148,59319,2,0,B|256:168|256:168|216:148,1,90,0|2,0:0|0:2,0:0:0:0:
200,59,59733,2,0,P|156:67|115:88,1,90,2|8,0:2|0:0,0:0:0:0:
56,152,60147,1,0,0:0:0:0:
48,240,60354,6,2,P|131:268|217:244,1,180,6|8,0:0|0:0,0:0:0:0:
296,200,60974,2,0,P|381:176|465:204,1,180,2|2,0:3|0:3,0:0:0:0:
500,288,61595,1,8,0:0:0:0:
428,344,61802,1,0,0:0:0:0:
340,328,62009,6,2,P|259:290|173:308,1,180,6|8,0:0|0:0,0:0:0:0:
104,364,62630,2,0,B|124:324|172:308|172:308|141:223,1,180,2|2,0:3|0:3,0:0:0:0:
64,180,63250,2,0,B|52:136|63:91,1,90,8|0,0:0|0:0,0:0:0:0:
111,15,63664,6,2,P|187:60|276:40,1,180,4|8,0:0|0:0,0:0:0:0:
356,80,64285,2,0,P|347:123|357:167,1,90,0|2,0:0|0:2,0:0:0:0:
308,244,64699,2,0,P|265:229|221:231,1,90,2|8,0:2|0:0,0:0:0:0:
144,280,65112,1,0,0:0:0:0:
104,104,65526,5,2,0:2:0:0:
168,40,65733,1,8,0:0:0:0:
256,20,65940,1,0,0:0:0:0:
344,40,66147,1,2,0:2:0:0:
408,104,66354,1,2,0:2:0:0:
420,192,66561,2,0,P|423:236|410:279,1,90,8|0,0:0|0:0,0:0:0:0:
340,336,66974,6,0,P|300:316|255:313,1,90,4|0,0:0|0:0,0:0:0:0:
208,236,67388,2,0,P|228:196|231:151,2,90,8|0|2,0:0|0:0|0:2,0:0:0:0:
28,228,68216,1,8,0:0:0:0:
120,68,68630,6,2,B|152:100|192:100|216:60|216:60|224:100|256:128|288:100|296:60|296:60|320:100|360:100|392:68,1,360,2|0,0:0|0:0,0:0:0:0:
479,92,69664,2,0,P|471:135|481:179,1,90,0|8,0:0|0:0,0:0:0:0:
448,264,70078,1,0,0:0:0:0:
448,264,70285,2,0,L|358:256,1,90,2|2,0:2|0:2,0:0:0:0:
271,228,70699,2,0,P|280:183|274:139,1,90,8|0,0:0|0:0,0:0:0:0:
195,96,71112,2,0,P|176:184|195:270,1,180,2|8,0:2|0:0,0:0:0:0:
368,316,71940,6,0,P|387:228|367:141,1,180,2|8,0:2|0:0,0:0:0:0:
336,55,72561,2,0,P|259:99|175:74,1,180,2|2,0:3|0:3,0:0:0:0:
96,28,73181,1,8,0:0:0:0:
16,72,73388,1,0,0:0:0:0:
60,148,73595,6,2,B|116:163|122:202|124:242|190:260,1,180,6|8,0:0|0:0,0:0:0:0:
205,167,74216,2,0,B|135:164|121:201|103:236|45:234,1,180,2|2,0:3|0:3,0:0:0:0:
35,323,74836,2,0,P|79:332|122:320,1,90,8|0,0:0|0:0,0:0:0:0:
204,284,75250,6,2,P|276:235|361:255,1,180,6|8,0:0|0:0,0:0:0:0:
452,268,75871,2,0,L|421:90,1,180,2|2,0:3|0:3,0:0:0:0:
336,64,76492,1,8,0:0:0:0:
256,24,76699,1,0,0:0:0:0:
176,64,76905,1,4,0:0:0:0:
180,256,77319,5,8,0:0:0:0:
180,256,77526,2,0,P|256:298|332:256,1,180,2|2,0:3|0:3,0:0:0:0:
331,166,78147,2,0,P|255:125|179:167,1,180,8|0,0:0|0:0,0:0:0:0:
104,212,78768,1,0,0:0:0:0:
28,164,78974,2,0,P|36:119|34:74,1,90,8|0,0:0|0:0,0:0:0:0:
100,16,79388,2,0,P|162:38|227:24,2,135,0|2|0,0:0|2:2|0:0,0:0:0:0:
12,244,82905,5,0,0:0:0:0:
11,243,83112,2,0,P|2:198|8:154,1,90,8|0,0:0|0:0,0:0:0:0:
60,80,83526,2,0,P|141:108|210:56,1,180,4|8,0:0|0:0,0:0:0:0:
301,55,84147,2,0,P|370:107|452:80,1,180,2|2,0:3|0:3,0:0:0:0:
512,148,84768,2,0,L|496:236,1,90,8|0,0:0|0:0,0:0:0:0:
412,272,85181,5,4,0:3:0:0:
324,296,85388,1,0,0:0:0:0:
236,316,85595,2,0,P|193:303|148:306,1,90,8|0,0:0|0:0,0:0:0:0:
84,244,86009,2,0,P|95:200|89:156,1,90,2|2,0:2|0:2,0:0:0:0:
136,80,86423,2,0,P|179:88|223:76,1,90,8|0,0:0|0:0,0:0:0:0:
308,43,86836,6,0,P|388:7|473:31,2,180,4|8|0,0:3|0:0|0:0,0:0:0:0:
240,100,87871,1,0,0:0:0:0:
204,184,88078,1,8,0:0:0:0:
204,184,88492,6,0,L|215:273,2,90,0|0|8,0:0|0:0|0:0,0:0:0:0:
116,156,89112,2,0,L|135:334,1,180,2|2,0:3|0:3,0:0:0:0:
215,372,89733,2,0,B|252:348|252:348|298:348,1,90,8|0,0:0|0:0,0:0:0:0:
368,292,90147,6,0,P|341:207|361:120,1,180,4|8,0:0|0:0,0:0:0:0:
432,63,90768,2,0,P|363:118|276:106,1,180,2|2,0:3|0:3,0:0:0:0:
212,44,91388,1,8,0:0:0:0:
124,20,91595,1,0,0:0:0:0:
84,100,91802,1,4,0:3:0:0:
168,136,92009,6,0,L|182:224,1,90,0|8,0:0|0:0,0:0:0:0:
216,308,92423,2,0,B|256:288|256:288|296:308,1,90,2|0,0:2|0:0,0:0:0:0:
329,224,92836,2,0,L|344:136,1,90,2|8,0:2|0:0,0:0:0:0:
408,72,93250,1,0,0:0:0:0:
328,32,93457,6,0,B|276:44|256:82|256:82|236:44|184:32,2,180,4|8|0,0:3|0:0|0:0,0:0:0:0:
408,72,94492,1,0,0:0:0:0:
448,152,94699,1,8,0:0:0:0:
376,316,95112,1,0,0:0:0:0:
304,368,95319,1,0,0:0:0:0:
240,304,95526,1,8,0:0:0:0:
316,251,95733,2,0,P|332:163|314:76,1,180,2|2,0:3|0:3,0:0:0:0:
264,0,96354,1,8,0:0:0:0:
180,28,96561,1,0,0:0:0:0:
160,40,96664,1,0,0:0:0:0:
140,52,96768,6,0,B|188:88|180:148|180:148|236:189,2,180,4|8|2,0:0|0:0|0:2,0:0:0:0:
96,128,97802,1,0,0:0:0:0:
8,132,98009,2,0,P|20:174|52:205,1,90,8|0,0:0|0:0,0:0:0:0:
116,272,98423,2,0,P|155:252|199:255,1,90,2|2,0:2|0:2,0:0:0:0:
288,276,98836,1,8,0:0:0:0:
287,275,99043,2,0,P|373:291|445:241,1,180,2|2,0:3|0:3,0:0:0:0:
476,156,99664,2,0,P|470:112|456:69,1,90,8|0,0:0|0:0,0:0:0:0:
376,28,100078,6,0,B|320:13|292:41|292:41|260:73|208:53,2,180,4|8|2,0:0|0:0|0:2,0:0:0:0:
480,172,101319,2,0,P|488:216|484:260,1,90,8|0,0:0|0:0,0:0:0:0:
411,315,101733,2,2,P|339:266|252:281,1,180,2|8,0:0|0:0,0:0:0:0:
180,228,102354,2,0,P|188:183|180:139,1,90,2|0,0:3|0:0,0:0:0:0:
96,19,102768,2,0,P|88:63|96:108,1,90,2|8,0:3|0:0,0:0:0:0:
180,140,103181,1,0,0:0:0:0:
256,92,103388,6,0,B|284:40|360:40|360:40|417:40,1,180,4|8,0:0|0:0,0:0:0:0:
500,76,104009,2,0,B|472:128|396:128|396:128|338:128,1,180,2|2,0:3|0:3,0:0:0:0:
255,91,104630,2,0,P|222:62|180:45,1,90,8|0,0:0|0:0,0:0:0:0:
92,56,105043,2,0,P|60:86|19:103,1,90,4|0,0:3|0:0,0:0:0:0:
4,192,105457,1,8,0:0:0:0:
17,280,105664,2,0,P|59:297|92:328,1,90,0|2,0:0|0:2,0:0:0:0:
180,340,106078,2,0,P|184:296|188:248,1,90,2|8,0:2|0:0,0:0:0:0:
256,192,106492,1,0,0:0:0:0:
335,148,106699,6,0,P|413:103|459:27,2,180,4|8|0,0:3|0:0|0:0,0:0:0:0:
256,192,107733,1,0,0:0:0:0:
176,148,107940,1,8,0:0:0:0:
176,148,108354,6,0,L|144:64,2,90,0|0|8,0:0|0:0|0:0,0:0:0:0:
255,192,108974,2,0,P|325:139|412:155,1,180,2|2,0:3|0:3,0:0:0:0:
484,208,109595,1,8,0:0:0:0:
468,296,109802,1,0,0:0:0:0:
388,336,110009,6,0,P|344:347|300:342,1,90,4|0,0:0|0:0,0:0:0:0:
211,342,110423,2,0,P|167:347|124:336,1,90,8|0,0:0|0:0,0:0:0:0:
56,272,110836,2,0,P|28:186|35:97,1,180,2|8,0:2|0:0,0:0:0:0:
200,164,111664,2,2,B|176:88|236:88|256:0|256:0|276:88|336:88|312:164,1,360,2|0,0:0|0:0,0:0:0:0:
296,252,112699,2,0,B|256:232|256:232|216:252,1,90,0|8,0:0|0:0,0:0:0:0:
140,300,113112,1,0,0:0:0:0:
216,344,113319,6,0,B|256:364|256:364|296:344,1,90,2|2,0:2|0:2,0:0:0:0:
375,299,113733,2,0,P|415:278|460:275,1,90,8|0,0:0|0:0,0:0:0:0:
480,364,114147,2,0,L|446:187,1,180,2|8,0:2|0:0,0:0:0:0:
332,48,114974,2,0,P|256:7|180:48,1,180,2|8,0:2|0:0,0:0:0:0:
256,100,115595,2,0,B|229:148|257:192|257:192|281:232|257:272,1,180,2|2,0:3|0:3,0:0:0:0:
184,320,116216,2,0,P|141:331|97:329,1,90,8|0,0:0|0:0,0:0:0:0:
16,284,116630,6,0,P|4:240|15:197,1,90,2|0,0:2|0:0,0:0:0:0:
84,51,117043,2,0,P|95:94|85:137,1,90,8|0,0:0|0:0,0:0:0:0:
8,96,117457,2,0,L|188:96,2,180,2|8|4,0:2|0:0|0:3,0:0:0:0:
24,276,118699,1,8,0:0:0:0:
23,276,118905,2,0,P|98:229|183:249,1,180,2|2,0:3|0:3,0:0:0:0:
256,304,119526,2,0,P|282:267|295:224,1,90,8|0,0:0|0:0,0:0:0:0:
314,137,119940,6,0,P|256:6|198:137,1,360,6|0,0:0|0:0,0:0:0:0:
256,204,120974,2,0,L|256:294,1,90,0|8,0:0|0:0,0:0:0:0:
212,372,121388,1,0,0:0:0:0:
128,340,121595,5,0,0:0:0:0:
128,340,121802,1,0,0:0:0:0:
24,192,122216,1,0,0:0:0:0:
128,44,122630,1,0,0:0:0:0:
128,44,122836,1,8,0:0:0:0:
256,168,123250,6,2,P|342:188|423:154,1,180,6|8,0:0|0:0,0:0:0:0:
412,64,123871,2,0,P|325:43|244:77,1,180,2|2,0:3|0:3,0:0:0:0:
156,100,124492,2,0,P|125:66|109:25,1,90,8|0,0:0|0:0,0:0:0:0:
20,28,124905,6,2,P|44:113|106:178,1,180,2|8,0:0|0:0,0:0:0:0:
188,224,125526,2,0,B|236:216|256:170|256:170|276:216|324:224,1,180,2|2,0:3|0:3,0:0:0:0:
380,296,126147,1,8,0:0:0:0:
460,252,126354,1,0,0:0:0:0:
405,178,126561,6,2,P|467:113|492:28,1,180,4|8,0:0|0:0,0:0:0:0:
402,25,127181,2,0,P|386:67|356:100,1,90,0|2,0:0|0:2,0:0:0:0:
268,120,127595,2,0,P|227:100|183:95,1,90,2|8,0:2|0:0,0:0:0:0:
108,148,128009,1,0,0:0:0:0:
124,328,128423,5,2,0:2:0:0:
200,376,128630,1,8,0:0:0:0:
256,304,128836,2,0,L|256:204,2,90,0|2|2,0:0|0:2|0:2,0:0:0:0:
312,376,129457,1,8,0:0:0:0:
388,328,129664,1,0,0:0:0:0:
460,272,129871,6,2,P|475:183|457:96,1,180,6|8,0:0|0:0,0:0:0:0:
372,64,130492,2,0,B|316:48|284:76|284:76|252:104|202:82,1,180,2|2,0:3|0:3,0:0:0:0:
111,88,131112,2,0,P|103:132|112:175,1,90,8|0,0:0|0:0,0:0:0:0:
192,220,131526,6,2,L|371:208,1,180,6|8,0:0|0:0,0:0:0:0:
408,292,132147,2,0,L|228:303,1,180,2|2,0:3|0:3,0:0:0:0:
192,220,132768,2,0,P|181:177|187:133,1,90,8|0,0:0|0:0,0:0:0:0:
267,16,133181,6,0,P|278:59|272:104,1,90,4|0,0:0|0:0,0:0:0:0:
187,132,133595,2,0,B|97:136,1,90,8|0,0:0|0:0,0:0:0:0:
88,228,134009,2,0,B|177:223,2,90,2|2|8,0:2|0:2|0:0,0:0:0:0:
48,308,134630,1,0,0:0:0:0:
224,351,135043,6,0,P|267:340|311:347,1,90,2|8,0:2|0:0,0:0:0:0:
392,312,135457,2,0,B|396:280|376:264|383:222,1,90,0|2,0:0|0:2,0:0:0:0:
448,159,135871,2,0,P|456:115|449:71,1,90,2|8,0:2|0:0,0:0:0:0:
368,36,136285,1,0,0:0:0:0:
367,36,136492,6,0,P|326:53|282:56,1,90,4|0,0:0|0:0,0:0:0:0:
200,20,136905,2,0,B|164:48|164:48|119:48,1,90,8|0,0:0|0:0,0:0:0:0:
28,52,137319,2,0,B|20:116|20:116|36:160|36:160|20:228,1,180,2|8,0:2|0:0,0:0:0:0:
120,372,138147,6,2,B|124:312|208:280|240:316|256:336|256:336|272:316|304:280|388:312|392:372,1,360,2|0,0:0|0:0,0:0:0:0:
480,364,139181,2,0,P|468:321|448:280,1,90,0|8,0:0|0:0,0:0:0:0:
380,220,139595,1,0,0:0:0:0:
332,144,139802,2,0,B|300:112|300:112|300:67,1,90,2|2,0:2|0:2,0:0:0:0:
212,67,140216,2,0,B|212:112|212:112|180:144,1,90,8|0,0:0|0:0,0:0:0:0:
112,204,140630,6,0,P|103:290|163:354,1,180,2|8,0:2|0:0,0:0:0:0:
348,354,141457,2,0,P|408:290|400:204,2,180,2|8|0,0:2|0:0|0:0,0:0:0:0:
256,352,142492,2,0,L|256:262,1,90,0|8,0:0|0:0,0:0:0:0:
256,172,142905,1,0,0:0:0:0:
179,124,143112,6,2,P|255:81|331:123,1,180,2|8,0:0|0:0,0:0:0:0:
332,220,143733,2,0,P|256:260|180:219,1,180,2|2,0:3|0:3,0:0:0:0:
112,160,144354,2,0,P|101:117|80:77,1,90,8|0,0:0|0:0,0:0:0:0:
0,36,144768,6,2,B|-4:96|20:120|44:144|40:208,1,180,2|8,0:0|0:0,0:0:0:0:
64,295,145388,2,0,P|142:336|226:310,1,180,2|2,0:3|0:3,0:0:0:0:
288,244,146009,2,0,P|310:204|322:161,1,90,8|0,0:0|0:0,0:0:0:0:
256,95,146423,6,0,P|338:69|407:122,1,180,4|8,0:0|0:0,0:0:0:0:
428,212,147043,1,2,0:3:0:0:
316,352,147457,1,2,0:3:0:0:
240,308,147664,2,0,B|196:316|196:316|155:295,1,90,8|0,0:0|0:0,0:0:0:0:
92,232,148078,5,4,0:3:0:0:
92,232,149112,6,0,P|104:188|105:143,1,90,0|8,0:0|0:0,0:0:0:0:
100,52,149526,1,0,0:0:0:0:
180,96,149733,2,0,P|260:132|345:107,1,180,4|8,0:0|0:0,0:0:0:0:
432,128,150354,2,0,P|456:213|430:298,1,180
352,352,150974,1,8,0:0:0:0:
352,352,151181,2,0,P|274:311|190:338,2,180,2|0|2,0:2|0:0|0:2,0:0:0:0:
511,271,152423,2,0,L|500:181,1,90,2|8,0:2|0:0,0:0:0:0:
452,104,152836,6,0,B|397:104|397:104|320:104|297:43,1,180,2|0,0:2|0:0,0:0:0:0:
60,104,153664,2,0,B|114:104|114:104|192:104|214:43,2,180,0|2|0,0:0|0:2|0:0,0:0:0:0:
52,196,154699,2,0,L|142:196,1,90
212,256,155112,1,8,0:0:0:0:
288,300,155319,2,0,B|344:320|376:288|408:256|460:272,2,180,2|0|2,0:2|0:0|0:2,0:0:0:0:
212,256,156354,6,0,L|224:168,2,90,0|0|8,0:0|0:0|0:0,0:0:0:0:
156,324,156974,1,0,0:0:0:0:
88,268,157181,2,0,L|110:89,1,180,2|8,0:2|0:0,0:0:0:0:
43,27,157802,2,0,P|109:86|196:79,1,180,2|2,0:2|0:2,0:0:0:0:
276,36,158423,2,0,B|312:68|312:68|353:67,1,90,8|2,0:0|0:2,0:0:0:0:
460,224,159043,1,0,0:0:0:0:
420,304,159250,1,8,0:0:0:0:
332,328,159457,6,0,P|256:370|180:328,1,180,2|0,0:2|0:0,0:0:0:0:
180,55,160285,2,0,P|256:13|332:56,1,180,2|0,0:2|0:0,0:0:0:0:
332,144,160905,1,8,0:0:0:0:
256,192,161112,1,4,0:3:0:0:
256,192,161319,12,8,162561,0:0:0:0:
116,112,165457,6,0,L|106:79,4,33.7500012874604,0|0|8|8|8,0:0|0:0|0:0|0:0|0:0,0:0:0:0:
248,140,166285,6,0,P|300:99|365:106,1,135.000005149842,4|0,0:0|0:0,0:0:0:0:
428,224,167112,2,0,L|420:291,1,67.5000025749208,8|0,0:0|0:0,0:0:0:0:
288,312,167733,2,0,L|295:244,1,67.5000025749208
180,176,168354,1,0,0:0:0:0:
180,176,168768,2,0,L|188:109,1,67.5000025749208,8|0,0:0|0:0,0:0:0:0:
244,52,169181,1,4,0:0:0:0:
384,60,169595,6,0,L|414:191,1,135.000005149842,2|0,0:2|0:0,0:0:0:0:
440,324,170423,2,0,P|385:287|319:296,1,135.000005149842,8|0,0:0|0:0,0:0:0:0:
192,296,171250,2,0,P|141:337|77:327,1,135.000005149842,2|0,0:2|0:0,0:0:0:0:
97,191,172078,2,0,L|128:60,1,135.000005149842,8|0,0:0|0:0,0:0:0:0:
264,60,172905,2,0,L|233:191,1,135.000005149842
276,320,173733,2,0,P|307:308|341:305,1,67.5000025749208,8|0,0:0|0:0,0:0:0:0:
476,296,174354,1,0,0:0:0:0:
475,296,174561,6,0,P|468:256|471:216,1,80.9999975280763
499,56,174974,2,0,P|507:95|504:136,1,80.9999975280763
472,216,175388,1,0,0:0:0:0:
368,152,175595,1,0,0:0:0:0:
272,228,175802,1,8,0:0:0:0:
272,228,176216,6,2,B|227:256|187:228|187:228|151:200|103:224,1,180,6|8,0:0|0:0,0:0:0:0:
68,308,176836,2,0,P|100:224|91:136,1,180,2|2,0:3|0:3,0:0:0:0:
88,44,177457,2,0,L|177:32,1,90,8|0,0:0|0:0,0:0:0:0:
255,72,177871,2,2,P|297:55|342:59,1,90,2|0,0:0|0:0,0:0:0:0:
424,96,178285,2,0,L|416:188,1,90,8|2,0:0|0:3,0:0:0:0:
248,252,178905,2,0,L|255:162,2,90,2|8|0,0:3|0:0|0:0,0:0:0:0:
228,340,179526,6,2,P|148:376|67:343,1,180,4|8,0:0|0:0,0:0:0:0:
20,264,180147,2,0,P|-4:179|20:93,1,180,2|2,0:3|0:3,0:0:0:0:
83,27,180768,2,0,P|118:55|163:59,1,90,8|0,0:0|0:0,0:0:0:0:
248,20,181181,5,0,0:0:0:0:
248,20,181388,2,0,B|272:40|280:56|280:56|321:56,1,90,2|8,0:2|0:0,0:0:0:0:
404,80,181802,2,0,P|399:124|407:168,1,90,0|2,0:0|0:2,0:0:0:0:
467,328,182216,2,0,P|471:284|464:240,1,90,2|8,0:2|0:0,0:0:0:0:
407,169,182630,1,0,0:0:0:0:
324,132,182836,6,2,P|247:92|161:114,1,180,6|8,0:0|0:0,0:0:0:0:
155,203,183457,2,0,P|234:244|319:221,1,180,2|2,0:3|0:3,0:3:0:0:
408,204,184078,2,0,P|416:160|437:121,1,90,8|0,0:0|0:0,0:0:0:0:
456,16,184492,6,2,P|378:56|300:19,1,180,6|8,0:0|0:0,0:0:0:0:
211,19,185112,2,0,P|133:56|56:16,1,180,2|2,0:3|0:3,0:0:0:0:
0,88,185733,2,0,P|29:120|69:141,1,90,8|0,0:0|0:0,0:0:0:0:
152,180,186147,6,2,B|212:176|244:136|244:136|317:153,1,180,4|8,0:0|0:0,0:0:0:0:
396,111,186768,2,0,P|405:68|427:28,2,90,0|2|2,0:0|0:2|0:2,0:0:0:0:
404,200,187388,2,0,P|394:243|372:283,1,90,8|0,0:0|0:0,0:0:0:0:
196,320,188009,6,0,P|155:299|111:291,1,90,2|8,0:2|0:0,0:0:0:0:
35,243,188423,2,0,P|27:199|31:155,1,90,0|2,0:0|0:2,0:0:0:0:
120,132,188836,2,0,B|128:88|108:88|120:44,1,90,2|8,0:2|0:0,0:0:0:0:
208,16,189250,1,0,0:0:0:0:
292,48,189457,6,0,P|336:56|380:49,1,90,4|0,0:0|0:0,0:0:0:0:
444,112,189871,2,0,P|436:155|442:200,1,90,8|0,0:0|0:0,0:0:0:0:
468,288,190285,1,2,0:2:0:0:
468,288,190699,1,8,0:0:0:0:
368,136,191112,6,2,B|316:144|296:204|296:204|284:160|256:142|256:142|228:160|216:204|216:204|196:144|144:136,1,360,2|0,0:0|0:0,0:0:0:0:
64,180,192147,2,0,L|79:268,1,90,0|8,0:0|0:0,0:0:0:0:
156,316,192561,1,0,0:0:0:0:
244,327,192768,6,0,P|287:319|331:331,1,90,2|2,0:2|0:2,0:0:0:0:
415,308,193181,2,0,P|424:263|419:219,1,90,8|0,0:0|0:0,0:0:0:0:
436,128,193595,2,0,B|376:128|344:168|344:168|279:127,1,180,2|8,0:2|0:0,0:0:0:0:
112,60,194423,1,0,0:0:0:0:
112,59,194836,2,0,P|91:146|116:232,1,180,8|0,0:0|0:0,0:0:0:0:
180,295,195457,2,0,P|214:268|259:263,1,90,0|8,0:0|0:0,0:0:0:0:
348,284,195871,1,0,0:0:0:0:
356,196,196078,6,2,B|300:132|300:132|300:37,1,180,6|8,0:0|0:0,0:0:0:0:
212,37,196699,2,0,B|212:132|212:132|156:196,1,180,2|2,0:3|0:3,0:0:0:0:
68,192,197319,2,0,P|60:235|69:279,1,90,8|0,0:0|0:0,0:0:0:0:
144,332,197733,6,2,B|192:308|228:336|228:336|268:364|313:336,1,180,6|8,0:0|0:0,0:0:0:0:
376,272,198354,2,0,L|360:92,1,180,2|2,0:3|0:3,0:0:0:0:
287,40,198974,2,0,P|249:63|205:69,1,90,8|0,0:0|0:0,0:0:0:0:
124,36,199388,5,0,0:0:0:0:
36,28,199595,1,0,0:0:0:0:
16,116,199802,1,8,0:0:0:0:
104,127,200009,2,0,P|127:214|114:302,1,180,2|2,0:3|0:3,0:0:0:0:
44,360,200630,2,0,P|110:302|197:313,1,180,8|0,0:0|0:0,0:0:0:0:
268,364,201250,5,0,0:0:0:0:
356,335,201457,2,0,P|367:292|369:247,1,90,8|0,0:0|0:0,0:0:0:0:
319,170,201871,2,0,P|267:209|202:201,2,135,0|2|0,0:0|2:2|0:0,0:0:0:0:
244,124,202699,5,4,2:3:0:0:
