osu file format v13

[General]
AudioFilename: Panic! At The Disco - Girls - Girls - Boys.mp3
AudioLeadIn: 2000
PreviewTime: 53745
Countdown: 0
SampleSet: None
StackLeniency: 0.7
Mode: 0
LetterboxInBreaks: 0
WidescreenStoryboard: 0

[Editor]
DistanceSpacing: 1
BeatDivisor: 4
GridSize: 4
TimelineZoom: 1

[Metadata]
Title:Girls/Girls/Boys
TitleUnicode:Girls/Girls/Boys
Artist:Panic! at the Disco
ArtistUnicode:Panic! at the Disco
Creator:mancuso_JM_
Version:Nervous!
Source:
Tags:Too weird to live too rare to die synthrock alternative patd mancusojuanmattos
BeatmapID:416163
BeatmapSetID:172131

[Difficulty]
HPDrainRate:4
CircleSize:3
OverallDifficulty:5
ApproachRate:5
SliderMultiplier:1.3
SliderTickRate:1

[Events]
//Background and Video events
0,0,"patd.png",0,0
//Break Periods
2,80228,82326
2,162986,164642
//Storyboard Layer 0 (Background)
//Storyboard Layer 1 (Fail)
//Storyboard Layer 2 (Pass)
//Storyboard Layer 3 (Foreground)
//Storyboard Sound Samples
//Background Colour Transformations
3,100,163,162,255

[TimingPoints]
768,413.793103448276,4,1,0,60,1,0
53733,-100,4,1,0,60,0,1
61207,-100,4,2,0,45,0,1
62009,-100,4,1,0,60,0,1
69069,-100,4,2,0,45,0,1
69457,-100,4,1,0,60,0,1
80009,-100,4,1,0,55,0,1
80216,-100,4,1,0,60,0,0
118724,-100,4,2,0,45,0,0
119112,-100,4,1,0,60,0,0
123250,-100,4,1,0,60,0,1
143966,-100,4,2,0,45,0,1
144768,-100,4,1,0,60,0,1
148078,-100,4,1,0,60,0,0
176216,-100,4,1,0,60,0,1
191836,-100,4,2,0,45,0,1
192354,-100,4,1,0,60,0,1
198586,-100,4,2,0,45,0,1
199388,-100,4,1,0,60,0,1
202699,-100,4,1,0,45,0,0

[Colours]
Combo1 : 157,60,255
Combo2 : 103,206,0
Combo3 : 151,75,0
Combo4 : 255,141,28
SliderBorder : 55,55,55

[HitObjects]
100,316,768,6,0,P|163:327|221:301,1,130,4|8,0:0|0:0,0:0:0:0:
290,301,1388,2,0,P|348:327|412:316,1,130,2|2,2:2|2:2,0:0:0:0:
452,292,2009,1,8,0:0:0:0:
500,172,2423,1,0,0:0:0:0:
408,80,2836,1,8,0:0:0:0:
407,80,3043,2,0,P|350:107|287:96,1,130,2|2,2:3|2:3,0:0:0:0:
248,76,3664,1,8,0:0:0:0:
120,96,4078,6,0,P|136:158|128:222,1,130,4|8,0:3|0:0,0:0:0:0:
88,272,4699,2,0,L|217:256,1,130,2|2,2:3|2:3,0:0:0:0:
252,288,5319,1,8,0:0:0:0:
379,295,5733,2,0,P|398:202|471:139,2,195,4|2|8,0:3|2:3|0:0,0:0:0:0:
260,352,7388,6,0,P|201:324|137:329,1,130,4|8,0:0|0:0,0:0:0:0:
76,308,8009,2,0,P|60:245|73:182,1,130,2|2,2:2|2:2,0:0:0:0:
108,152,8630,1,8,0:0:0:0:
222,90,9043,2,0,P|301:141|395:123,2,195,0|2|8,0:0|2:3|0:0,0:0:0:0:
92,76,10699,6,0,P|111:137|107:202,1,130,4|8,0:3|0:0,0:0:0:0:
76,259,11319,2,0,P|159:214|252:237,1,195,2|8,2:3|0:0,0:0:0:0:
348,324,12354,2,0,P|406:354|470:348,2,130,0|8|0,0:0|0:0|0:0,0:0:0:0:
256,232,13595,1,8,0:0:0:0:
147,167,14009,6,0,P|256:107|365:167,1,260,4|0,0:0|0:0,0:0:0:0:
256,232,15250,1,8,0:0:0:0:
124,256,15664,2,0,P|170:301|191:361,1,130,0|8,0:0|0:0,0:0:0:0:
320,361,16492,2,0,P|341:301|387:256,1,130,2|8,0:2|0:0,0:0:0:0:
448,140,17319,5,4,0:3:0:0:
448,140,17733,1,8,0:0:0:0:
352,52,18147,1,2,0:2:0:0:
352,52,18561,1,8,0:0:0:0:
296,168,18974,1,2,0:2:0:0:
296,168,19388,1,8,0:0:0:0:
80,312,20216,1,8,0:0:0:0:
80,312,20630,6,0,B|40:292|28:228|68:204|68:204|28:180|40:116|80:96,1,260,4|0,0:0|0:0,0:0:0:0:
200,48,21871,1,8,0:0:0:0:
316,104,22285,2,0,P|377:121|440:109,2,130,0|8|0,0:0|0:0|0:0,0:0:0:0:
200,48,23526,1,8,0:0:0:0:
67,32,23940,6,0,P|109:149|230:180,2,260,4|0|0,0:0|0:0|0:0,0:0:0:0:
196,52,26009,2,0,P|222:33|253:25,1,65,8|0,0:0|0:0,0:0:0:0:
367,84,26630,2,0,P|368:116|378:147,1,65,0|8,0:0|0:0,0:0:0:0:
408,180,27043,1,0,0:0:0:0:
420,224,27250,6,0,P|360:203|300:223,1,130,4|8,0:0|0:0,0:0:0:0:
184,284,28078,2,0,P|123:303|63:282,1,130,2|8,0:2|0:0,0:0:0:0:
60,151,28905,2,0,P|119:127|166:82,1,130,2|8,0:2|0:0,0:0:0:0:
175,15,29526,2,0,P|252:72|346:59,1,195,2|8,0:3|0:0,0:0:0:0:
464,120,30561,6,0,P|480:182|468:245,2,130,4|8|2,0:3|0:0|0:2,0:0:0:0:
356,48,31802,1,8,0:0:0:0:
355,48,32216,2,0,P|278:102|184:88,2,195,2|2|8,0:2|0:2|0:0,0:0:0:0:
472,108,33871,6,0,P|459:171|474:233,1,130,4|8,0:0|0:0,0:0:0:0:
495,295,34492,2,0,P|413:248|319:267,1,195,2|8,0:3|0:0,0:0:0:0:
196,304,35526,2,0,P|137:330|73:323,2,130,2|8|2,0:2|0:0|0:2,0:0:0:0:
256,188,36768,1,8,0:0:0:0:
152,112,37181,5,4,0:3:0:0:
152,112,37595,1,8,0:0:0:0:
256,36,38009,1,2,0:2:0:0:
256,36,38423,1,8,0:0:0:0:
360,112,38836,1,2,0:2:0:0:
360,112,39250,1,8,0:0:0:0:
256,348,40078,1,8,0:0:0:0:
164,256,40492,6,0,B|208:240|232:212|256:168|256:168|280:212|304:240|348:256,1,260,4|2,0:0|0:2,0:0:0:0:
464,204,41733,1,8,0:0:0:0:
361,123,42147,2,0,P|256:58|151:123,2,260,2|2|0,0:2|0:2|0:0,0:0:0:0:
460,204,44216,2,0,P|435:225|404:233,1,65,8|0,0:0|0:0,0:0:0:0:
339,251,44630,2,0,P|289:213|226:222,1,130,2|8,0:2|0:0,0:0:0:0:
128,144,45457,6,0,P|169:94|191:33,1,130,2|8,0:2|0:0,0:0:0:0:
320,33,46285,2,0,P|342:94|384:144,1,130,2|8,0:2|0:0,0:0:0:0:
480,228,47112,2,0,P|484:260|478:292,1,65,2|0,0:2|0:0,0:0:0:0:
427,331,47526,2,0,P|367:310|303:322,1,130,8|0,0:0|0:0,0:0:0:0:
176,352,48354,1,8,0:0:0:0:
108,244,48768,6,2,P|70:124|147:25,1,260,2|0,0:0|0:0,0:0:0:0:
256,100,50009,1,8,0:0:0:0:
364,25,50423,2,0,P|441:124|403:244,2,260,4|0|0,0:3|0:0|0:0,0:0:0:0:
168,36,52699,5,0,0:0:0:0:
52,92,53112,2,0,L|67:155,1,65,0|8,0:0|0:0,0:0:0:0:
160,248,53733,6,2,B|192:272|236:276|256:330|256:330|276:276|320:272|352:248,1,260,6|0,0:0|0:0,0:0:0:0:
468,192,54974,1,8,0:0:0:0:
352,136,55388,2,2,B|320:112|276:108|256:54|256:54|236:108|192:112|160:136,1,260,2|0,0:0|0:0,0:0:0:0:
44,192,56630,1,8,0:0:0:0:
128,289,57043,6,0,B|148:349|240:353|256:248|256:248|272:353|364:349|384:289,1,390,4|8,0:0|0:0,0:0:0:0:
476,196,58699,2,0,P|461:134|472:70,1,130,0|8,0:0|0:0,0:0:0:0:
508,16,59319,1,0,0:0:0:0:
506,16,59526,2,0,P|447:40|382:35,1,130,2|8,0:2|0:0,0:0:0:0:
256,28,60354,6,2,B|180:-4|136:56|84:124|18:83,2,260,2|0|2,0:0|0:0|0:0,0:0:0:0:
380,68,62423,1,8,0:0:0:0:
440,184,62836,2,0,P|436:216|440:248,2,65,0|0|8,0:0|0:0|0:0,0:0:0:0:
341,98,63664,6,0,B|224:86|148:211|256:265|364:211|288:86|171:98,1,390,4|8,0:0|0:0,0:0:0:0:
113,214,65319,2,0,P|142:271|191:313,1,130,0|8,0:0|0:0,0:0:0:0:
320,313,66147,2,0,P|369:271|399:214,1,130,0|8,0:0|0:0,0:0:0:0:
440,88,66974,6,0,P|466:68|483:41,2,65,4|0|8,0:0|0:0|0:0,0:0:0:0:
323,35,67802,2,0,P|261:19|199:34,1,130,2|8,0:2|0:0,0:0:0:0:
124,140,68630,2,2,P|186:156|248:141,2,130,2|8|0,0:0|0:0|0:0,0:0:0:0:
84,120,69664,1,0,0:0:0:0:
64,80,69871,1,8,0:0:0:0:
184,28,70285,6,0,P|213:41|245:44,1,65,2|0,0:2|0:0,0:0:0:0:
308,28,70699,2,0,P|340:30|369:43,1,65,8|0,0:0|0:0,0:0:0:0:
392,84,71112,1,2,0:2:0:0:
480,172,71526,1,8,0:0:0:0:
372,264,71940,1,2,0:2:0:0:
372,264,72354,1,8,0:0:0:0:
256,324,72768,1,2,0:2:0:0:
256,324,73181,1,8,0:0:0:0:
135,279,73595,6,2,P|93:160|150:46,1,260,6|0,0:0|0:0,0:0:0:0:
256,116,74836,1,8,0:0:0:0:
361,46,75250,2,2,P|418:160|376:279,1,260,2|0,0:0|0:0,0:0:0:0:
256,344,76492,1,8,0:0:0:0:
200,228,76905,6,0,B|128:164|192:76|256:47|320:76|384:164|312:228,1,390,4|8,0:0|0:0,0:0:0:0:
256,344,78561,1,0,0:0:0:0:
128,368,78974,1,8,0:0:0:0:
44,267,79388,2,0,P|52:220|42:172,2,97.5,0|2|0,0:0|2:2|0:0,0:0:0:0:
40,136,83526,6,0,P|115:79|206:104,1,195,4|2,0:0|0:3,0:0:0:0:
312,180,84561,2,0,P|343:187|375:185,1,65,2|8,0:3|0:0,0:0:0:0:
484,260,85181,1,0,0:0:0:0:
376,336,85595,1,8,0:0:0:0:
251,299,86009,2,0,P|191:280|131:301,1,130,2|8,0:2|0:0,0:0:0:0:
4,328,86836,5,2,0:2:0:0:
4,328,87250,1,8,0:0:0:0:
64,212,87664,1,2,0:2:0:0:
64,212,88078,1,8,0:0:0:0:
4,96,88492,1,2,0:2:0:0:
4,96,88905,1,8,0:0:0:0:
256,36,89733,1,8,0:0:0:0:
336,140,90147,6,0,P|393:169|457:165,1,130,4|8,0:0|0:0,0:0:0:0:
495,112,90768,2,0,P|446:195|439:291,1,195,2|8,0:3|0:0,0:0:0:0:
332,364,91802,2,0,P|271:342|207:353,1,130,4|8,0:3|0:0,0:0:0:0:
84,312,92630,2,0,B|85:244|43:257|41:191,1,130,2|8,0:2|0:0,0:0:0:0:
116,84,93457,5,4,0:3:0:0:
116,84,93871,1,8,0:0:0:0:
228,20,94285,1,2,0:2:0:0:
228,20,94699,1,8,0:0:0:0:
252,148,95112,1,2,0:2:0:0:
252,148,95526,1,8,0:0:0:0:
32,288,96354,1,8,0:0:0:0:
72,312,96561,1,0,0:0:0:0:
112,336,96768,6,0,P|167:368|230:362,2,130,4|8|2,0:0|0:0|0:2,0:0:0:0:
16,248,98009,2,0,P|11:215|16:183,1,65,8|0,0:0|0:0,0:0:0:0:
31,119,98423,2,0,P|92:139|151:116,1,130,2|8,0:2|0:0,0:0:0:0:
156,52,99043,2,0,B|240:108|240:108|329:80,1,195,2|8,0:3|0:0,0:0:0:0:
456,48,100078,5,4,0:3:0:0:
508,168,100492,1,8,0:0:0:0:
428,272,100905,2,0,B|388:280|352:268|352:268|320:310,1,130,2|8,0:2|0:0,0:0:0:0:
191,310,101733,2,2,B|160:268|160:268|124:280|84:272,1,130,2|8,0:0|0:0,0:0:0:0:
23,296,102354,2,0,P|49:202|30:108,1,195,2|8,0:3|0:0,0:0:0:0:
137,35,103388,6,0,B|172:51|224:27|256:74|256:74|288:27|340:51|375:35,2,260,4|2|0,0:0|0:2|0:0,0:0:0:0:
36,120,105457,2,0,P|43:151|41:183,1,65,8|0,0:0|0:0,0:0:0:0:
16,244,105871,2,0,L|144:224,1,130,2|8,0:2|0:0,0:0:0:0:
192,348,106699,5,2,0:2:0:0:
192,348,107112,1,8,0:0:0:0:
256,236,107526,1,2,0:2:0:0:
256,236,107940,1,8,0:0:0:0:
320,348,108354,1,2,0:2:0:0:
428,272,108768,5,8,0:0:0:0:
428,272,108974,2,0,P|463:217|470:154,1,130,2|2,0:3|0:3,0:0:0:0:
360,88,109802,1,0,0:0:0:0:
360,88,110009,6,0,P|324:142|317:205,1,130,4|8,0:0|0:0,0:0:0:0:
194,205,110836,2,0,P|187:142|152:88,1,130,2|8,0:2|0:0,0:0:0:0:
24,68,111664,2,2,P|-4:193|31:317,1,260,2|0,0:0|0:0,0:0:0:0:
64,348,112699,1,0,0:0:0:0:
108,356,112905,1,8,0:0:0:0:
236,327,113319,6,0,P|294:303|357:318,1,130,2|8,0:2|0:0,0:0:0:0:
400,328,113940,1,0,0:0:0:0:
444,336,114147,2,0,B|443:268|485:281|486:216,1,130,2|8,0:2|0:0,0:0:0:0:
448,92,114974,2,0,B|408:92|408:92|368:72|368:72|322:72,1,130,2|8,0:2|0:0,0:0:0:0:
189,72,115802,2,0,B|144:72|144:72|104:92|104:92|64:92,1,130,2|8,0:2|0:0,0:0:0:0:
20,216,116630,6,0,L|24:280,1,65,4|0,0:3|0:0,0:0:0:0:
44,343,117043,2,0,P|93:303|157:299,1,130,8|0,0:0|0:0,0:0:0:0:
256,212,117871,1,8,0:0:0:0:
354,299,118285,2,2,P|418:303|467:343,2,130,2|8|0,0:0|0:0|0:0,0:0:0:0:
256,212,119526,1,8,0:0:0:0:
146,137,119940,2,0,P|256:78|366:137,2,260,4|0|0,0:3|0:0|0:0,0:0:0:0:
44,304,122216,5,0,0:0:0:0:
172,324,122630,2,0,P|203:316|235:318,1,65,0|8,0:0|0:0,0:0:0:0:
360,288,123250,6,2,B|384:256|388:212|442:192|442:192|388:172|384:128|360:96,1,260,6|0,0:0|0:0,0:0:0:0:
256,16,124492,1,8,0:0:0:0:
152,96,124905,2,2,B|128:128|124:172|70:192|70:192|124:212|128:256|152:288,1,260,2|0,0:0|0:0,0:0:0:0:
256,368,126147,1,8,0:0:0:0:
384,343,126561,6,0,P|442:318|483:268,1,130,4|8,0:0|0:0,0:0:0:0:
408,164,127388,2,0,P|349:189|308:239,1,130,2|8,0:2|0:0,0:0:0:0:
92,372,128630,1,8,0:0:0:0:
11,271,129043,2,0,P|0:208|11:145,1,130,2|8,0:2|0:0,0:0:0:0:
80,36,129871,6,2,B|100:80|144:80|144:80|191:80,1,130,6|8,0:0|0:0,0:0:0:0:
320,80,130699,2,0,B|368:80|368:80|412:80|432:36,2,130,0|8|2,0:0|0:0|0:0,0:0:0:0:
256,192,131940,1,8,0:0:0:0:
322,303,132354,1,0,0:0:0:0:
190,303,132768,1,8,0:0:0:0:
163,176,133181,6,0,P|256:100|349:176,2,260,4|2|0,0:0|0:2|0:0,0:0:0:0:
196,301,135250,2,0,B|236:305|256:284|256:284|276:305|316:301,2,130,8|2|8,0:0|0:2|0:0,0:0:0:0:
68,280,136492,6,0,P|60:248|62:216,1,65,4|0,0:0|0:0,0:0:0:0:
108,168,136905,2,0,P|171:180|230:156,2,130,8|2|8,0:0|0:2|0:0,0:0:0:0:
96,40,138147,2,2,P|155:16|218:28,1,130,2|8,0:0|0:0,0:0:0:0:
331,92,138974,2,0,P|376:138|439:153,1,130,0|8,0:0|0:0,0:0:0:0:
504,268,139802,6,0,L|496:332,1,65,2|0,0:2|0:0,0:0:0:0:
436,360,140216,2,0,B|396:360|396:360|356:340|356:340|310:340,1,130,8|2,0:0|0:2,0:0:0:0:
256,220,141043,1,8,0:0:0:0:
202,340,141457,2,0,B|156:340|156:340|116:360|116:360|76:360,1,130,2|8,0:2|0:0,0:0:0:0:
11,243,142285,2,0,P|17:179|44:120,1,130,2|8,0:2|0:0,0:0:0:0:
147,43,143112,6,2,P|247:119|366:81,2,260,6|0|2,0:0|0:0|0:0,0:0:0:0:
24,88,145181,2,0,P|39:150|39:215,1,130,8|0,0:0|0:0,0:0:0:0:
120,320,146009,1,8,0:0:0:0:
172,200,146423,6,0,B|300:228|344:88|256:32|168:88|212:228|340:200,1,390,4|8,0:0|0:0,0:0:0:0:
464,160,148078,1,4,0:3:0:0:
191,336,149112,6,0,P|160:344|128:340,1,65,0|8,0:0|0:0,0:0:0:0:
23,259,149733,2,0,P|11:196|19:132,1,130,4|8,0:0|0:0,0:0:0:0:
124,52,150561,2,0,P|181:80|244:69,1,130,2|8,0:2|0:0,0:0:0:0:
296,28,151181,2,0,P|350:61|413:53,1,130,2|2,0:2|0:2,0:0:0:0:
504,148,152009,2,0,P|520:210|506:273,1,130,2|0,0:2|0:0,0:0:0:0:
476,308,152630,1,8,0:0:0:0:
351,343,153043,6,0,P|292:319|229:331,1,130,2|8,0:2|0:0,0:0:0:0:
164,343,153664,2,0,P|182:282|170:219,1,130,2|0,0:2|0:0,0:0:0:0:
64,144,154492,2,0,P|51:80|70:19,2,130,2|0|2,0:2|0:0|0:2,0:0:0:0:
184,196,155733,1,0,0:0:0:0:
184,196,155940,1,8,0:0:0:0:
312,180,156354,6,0,P|364:141|425:121,2,130,0|8|2,0:0|0:0|0:2,0:0:0:0:
256,296,157595,1,8,0:0:0:0:
199,179,158009,2,0,P|147:141|86:121,2,130,2|8|2,0:2|0:0|0:2,0:0:0:0:
256,296,159250,1,8,0:0:0:0:
256,294,159457,6,0,P|315:272|379:283,2,130,2|0|2,0:2|0:0|0:2,0:0:0:0:
124,287,160699,2,0,P|127:255|123:223,1,65,0|8,0:0|0:0,0:0:0:0:
256,192,161319,12,8,162561,0:0:0:0:
43,71,166285,6,0,P|103:91|166:77,1,130,4|0,0:0|0:0,0:0:0:0:
296,76,167112,2,0,P|303:107|301:139,1,65,8|0,0:0|0:0,0:0:0:0:
175,175,167733,2,0,P|172:207|180:238,1,65
296,300,168354,1,0,0:0:0:0:
420,340,168768,2,0,P|427:308|425:276,1,65,8|0,0:0|0:0,0:0:0:0:
432,80,169595,6,0,B|398:113|354:113|354:113|310:113,1,130,2|0,0:2|0:0,0:0:0:0:
200,44,170423,2,0,B|148:44|148:44|112:44|80:76,1,130,8|0,0:0|0:0,0:0:0:0:
11,188,171250,2,0,P|0:251|13:314,1,130,2|0,0:2|0:0,0:0:0:0:
140,352,172078,2,0,P|200:331|263:344,1,130,8|0,0:0|0:0,0:0:0:0:
391,340,172905,2,0,P|403:276|383:215,1,130,2|0,0:2|0:0,0:0:0:0:
307,108,173733,6,0,P|276:115|244:111,1,65,8|0,0:0|0:0,0:0:0:0:
128,52,174354,1,0,0:0:0:0:
128,52,174561,2,0,P|65:35|3:52,2,130
168,176,175802,1,8,0:0:0:0:
148,304,176216,6,2,B|188:316|204:336|204:336|224:304|256:289|288:304|308:336|308:336|324:316|364:304,1,260,6|0,0:0|0:0,0:0:0:0:
432,192,177457,1,8,0:0:0:0:
364,80,177871,2,2,B|324:68|308:48|308:48|288:80|256:95|224:80|204:48|204:48|188:68|148:80,1,260,2|0,0:0|0:0,0:0:0:0:
84,192,179112,1,8,0:0:0:0:
104,318,179526,6,0,B|143:347|232:340|256:252|256:252|284:172|379:159|414:195,1,390,4|8,0:0|0:0,0:0:0:0:
508,104,181181,1,0,0:0:0:0:
420,8,181595,1,8,0:0:0:0:
320,91,182009,2,0,P|264:124|200:120,1,130,2|8,0:2|0:0,0:0:0:0:
75,83,182836,6,2,P|92:146|82:209,1,130,6|8,0:0|0:0,0:0:0:0:
40,259,183457,2,0,P|126:221|215:255,1,195,2|8,0:3|0:0,0:0:0:0:
300,355,184492,2,2,P|359:332|423:341,1,130,2|8,0:0|0:0,0:0:0:0:
488,328,185112,2,0,P|512:234|482:143,1,195,2|8,0:3|0:0,0:0:0:0:
392,68,186147,6,0,B|356:108|304:84|304:84|312:156|256:178|200:156|208:84|208:84|156:108|120:68,1,390,4|8,0:0|0:0,0:0:0:0:
7,132,187802,2,0,P|-3:195|11:258,1,130,0|8,0:0|0:0,0:0:0:0:
92,359,188630,2,0,P|149:331|212:340,1,130,2|8,0:2|0:0,0:0:0:0:
339,323,189457,6,0,P|336:291|341:259,1,65,4|0,0:0|0:0,0:0:0:0:
396,220,189871,2,0,B|396:180|408:152|408:152|389:94,1,130,8|2,0:0|0:2,0:0:0:0:
280,24,190699,1,8,0:0:0:0:
207,132,191112,2,2,P|120:169|28:142,2,195,2|2|8,0:0|0:3|0:0,0:0:0:0:
328,83,192768,6,0,P|390:67|453:79,1,130,2|8,0:2|0:0,0:0:0:0:
464,208,193595,2,0,P|401:224|338:212,1,130,2|8,0:2|0:0,0:0:0:0:
232,136,194423,1,2,0:2:0:0:
132,51,194836,1,8,0:0:0:0:
48,151,195250,1,2,0:2:0:0:
148,234,195664,1,8,0:0:0:0:
156,363,196078,6,2,B|220:351|244:319|256:290|256:290|268:319|292:351|356:363,1,260,6|0,0:0|0:0,0:0:0:0:
361,233,197319,1,8,0:0:0:0:
361,233,197733,2,2,P|256:168|151:233,2,260,2|0|0,0:0|0:0|0:0,0:0:0:0:
488,216,199802,1,8,0:0:0:0:
487,215,200009,2,0,P|460:157|455:93,1,130,2|2,0:3|0:3,0:0:0:0:
468,48,200630,1,8,0:0:0:0:
339,44,201043,6,0,P|279:66|216:56,1,130,0|8,0:0|0:0,0:0:0:0:
88,84,201871,2,0,L|100:180,2,97.5,0|2|0,0:0|2:2|0:0,0:0:0:0:
48,60,202699,5,4,2:3:0:0:
