osu file format v12

[General]
AudioFilename: 05-panic_at_the_disco-camisado.mp3
AudioLeadIn: 0
PreviewTime: 46343
Countdown: 0
SampleSet: Soft
StackLeniency: 0.7
Mode: 0
LetterboxInBreaks: 1

[Editor]
DistanceSpacing: 1
BeatDivisor: 4
GridSize: 4

[Metadata]
Title:Camisado
TitleUnicode:Camisado
Artist:Panic! at the Disco
ArtistUnicode:Panic! at the Disco
Creator:mancusojuanmattos
Version:Relaxing
Source:
Tags:A Fever You Can't Sweat Out alternative synthrock
BeatmapID:253357
BeatmapSetID:94025

[Difficulty]
HPDrainRate:2
CircleSize:3
OverallDifficulty:3
ApproachRate:4
SliderMultiplier:0.9
SliderTickRate:2

[Events]
//Background and Video events
0,0,"BG.jpg",0,0
//Break Periods
2,37320,41954
2,95781,97338
2,135781,146569
//Storyboard Layer 0 (Background)
//Storyboard Layer 1 (Fail)
//Storyboard Layer 2 (Pass)
//Storyboard Layer 3 (Foreground)
//Storyboard Sound Samples
//Background Colour Transformations
3,100,163,162,255

[TimingPoints]
12505,384.615384615385,4,2,0,90,1,0
43274,-100,4,1,0,75,0,0
46351,-100,4,1,0,75,0,1
58658,-100,4,1,0,75,0,0
58755,-100,4,2,0,90,0,0
61735,-100,4,2,0,100,0,0
64620,-100,4,2,0,90,0,0
68274,-100,4,1,0,60,0,0
69428,-100,4,2,0,90,0,0
98658,-100,4,1,0,75,0,1
123274,-100,4,2,0,90,0,0
128755,-100,4,2,0,60,0,0
128947,-100,4,2,0,90,0,0
131831,-100,4,2,0,60,0,0
132024,-100,4,2,0,90,0,0
134908,-100,4,2,0,60,0,0
135101,-100,4,2,0,90,0,0
147889,-100,4,2,0,70,0,0
148658,-100,4,2,0,50,0,0
150197,-100,4,2,0,35,0,0
150966,-100,4,2,0,35,0,0
151351,-100,4,1,0,60,0,0
154043,-100,4,1,0,75,0,1
178658,-100,4,1,0,75,0,0

[Colours]
Combo1 : 138,138,255
Combo2 : 255,182,108
Combo3 : 255,164,164
SliderBorder : 55,55,55

[HitObjects]
256,52,12505,1,4,0:0:0:0:
336,92,12889,2,0,P|380:168|343:245,1,180,0|0,1:0|1:0,0:0:0:0:
256,264,14043,1,2,0:0:0:0:
168,245,14428,2,0,P|132:168|176:92,1,180,0|0,1:0|1:0,0:0:0:0:
256,48,15581,5,2,0:0:0:0:
340,84,15966,2,0,P|384:92|427:80,1,90,0|2,1:0|0:0,0:0:0:0:
508,124,16735,2,0,L|472:206,1,90,0|2,1:0|0:0,0:0:0:0:
404,268,17505,2,0,P|320:252|244:304,1,180,0|0,1:0|1:0,0:0:0:0:
180,364,18658,5,4,0:0:0:0:
144,280,19043,2,0,P|84:216|88:128,1,180,0|0,1:0|1:0,0:0:0:0:
144,56,20197,2,0,P|200:28|268:48,2,135,2|2|0,0:0|0:0|1:0,0:0:0:0:
212,116,21735,6,0,P|256:132|300:128,1,90,4|0,0:0|1:0,0:0:0:0:
388,128,22505,2,0,L|425:209,1,90,2|0,0:0|1:0,0:0:0:0:
428,300,23274,1,2,0:0:0:0:
344,336,23658,1,0,1:0:0:0:
256,328,24043,2,0,P|196:344|130:317,1,135,2|4,0:0|0:0,0:0:0:0:
56,204,25197,6,0,P|44:120|103:53,2,180,0|0|0,1:0|1:0|1:0,0:0:0:0:
144,216,27120,2,0,P|212:216|264:256,2,135,2|2|0,0:0|0:0|1:0,0:0:0:0:
184,296,28658,1,2,0:0:0:0:
356,356,29428,1,2,0:0:0:0:
436,316,29812,2,0,P|488:268|493:163,1,180,0|0,1:0|1:0,0:0:0:0:
416,120,30966,6,0,L|332:68,1,90,4|0,0:0|1:0,0:0:0:0:
256,36,31735,1,2,0:0:0:0:
172,72,32120,2,0,L|96:120,2,90,0|2|0,1:0|0:0|1:0,0:0:0:0:
256,36,33274,2,0,L|256:126,1,90,2|0,0:0|1:0,0:0:0:0:
196,192,34043,6,0,P|256:220|316:192,2,135,4|0|0,0:0|0:0|1:0,0:0:0:0:
132,256,35581,2,0,P|256:304|380:256,1,270,2|0,0:0|1:0,0:0:0:0:
436,188,37120,5,4,0:0:0:0:
472,192,43274,5,4,0:0:0:0:
440,276,43658,2,0,B|424:336|360:380|272:360|256:256|256:256|240:360|152:380|88:336|72:276,1,540
40,192,46351,6,0,P|40:120|128:56,2,180,6|2|2,0:0|0:0|0:0,0:0:0:0:
120,152,48274,1,8,0:0:0:0:
136,240,48658,2,0,P|188:212|212:144,1,135,2|2,0:0|0:0,0:0:0:0:
336,88,49812,6,0,P|412:80|482:147,1,180,8|8,0:0|0:0,0:0:0:0:
482,236,50966,2,0,P|412:304|336:296,1,180,2|2,0:0|0:0,0:0:0:0:
256,256,52120,1,8,0:0:0:0:
208,180,52505,6,0,P|148:117|54:140,1,180,6|2,0:0|0:0,0:0:0:0:
120,204,53658,1,8,0:0:0:0:
32,224,54043,2,0,P|86:288|178:274,1,180,2|2,0:0|0:0,0:0:0:0:
260,244,55197,2,0,L|296:217,1,45,8|2,0:0|0:0,0:0:0:0:
308,84,55966,6,0,P|348:88|388:116,2,90,8|2|8,0:0|0:0|0:0,0:0:0:0:
256,156,57120,1,0,0:0:0:0:
204,84,57505,2,0,P|164:88|124:116,2,90,8|2|8,0:0|0:0|0:0,0:0:0:0:
256,156,58658,1,4,0:0:0:0:
212,236,59043,6,0,L|148:300,2,90,2|0|0,0:0|0:0|0:0,0:0:0:0:
300,236,60197,2,0,L|364:300,2,90,2|0|0,0:0|0:0|0:0,0:0:0:0:
256,156,61351,1,2,0:0:0:0:
172,120,61735,6,0,P|200:84|211:41,1,90,4|4,0:3|0:3,0:0:0:0:
300,41,62505,2,0,P|312:84|340:120,1,90,4|4,0:3|0:3,0:0:0:0:
430,120,63274,2,0,P|458:156|469:198,1,90,4|4,0:3|0:3,0:0:0:0:
416,268,64043,2,0,P|376:284|349:321,1,90,4|4,0:3|0:3,0:0:0:0:
260,332,64812,6,0,P|206:349|282:254,2,360,2|4|4,0:0|0:3|0:3,0:0:0:0:
352,332,68274,1,0,0:0:0:0:
412,264,68658,2,0,L|452:168,1,90
420,96,69428,5,0,1:0:0:0:
256,20,70197,1,0,1:0:0:0:
92,96,70966,1,4,0:0:0:0:
44,172,71351,6,0,L|8:254,1,90,0|2,1:0|0:0,0:0:0:0:
40,340,72120,1,0,1:0:0:0:
120,300,72505,2,0,P|200:276|268:336,1,180,2|2,0:0|0:0,0:0:0:0:
356,356,73658,1,0,1:0:0:0:
412,284,74043,5,4,0:0:0:0:
372,204,74428,2,0,B|300:204|300:128|300:128|300:68,1,180,0|0,1:0|1:0,0:0:0:0:
212,68,75581,2,0,B|212:128|212:128|212:204|140:204,2,180,2|2|4,0:0|0:0|0:0,0:0:0:0:
128,36,77505,5,0,1:0:0:0:
8,172,78274,1,0,1:0:0:0:
16,260,78658,1,2,0:0:0:0:
88,316,79043,2,0,P|156:324|212:292,2,135,0|2|2,1:0|0:0|0:0,0:0:0:0:
136,240,80581,6,0,P|216:208|300:260,1,180,0|0,1:0|1:0,0:0:0:0:
364,308,81735,2,0,L|412:232,1,90,2|0,0:0|1:0,0:0:0:0:
348,168,82505,2,0,L|396:92,1,90,2|0,0:0|1:0,0:0:0:0:
340,20,83274,5,4,0:0:0:0:
268,72,83658,2,0,P|204:96|104:56,1,180,0|0,1:0|1:0,0:0:0:0:
20,88,84812,2,0,L|36:179,1,90,2|0,0:0|1:0,0:0:0:0:
72,260,85581,2,0,P|112:280|156:276,1,90,2|0,0:0|1:0,0:0:0:0:
224,216,86351,5,2,0:0:0:0:
308,180,86735,2,0,P|380:144|488:268,2,270,0|2|0,1:0|0:0|1:0,0:0:0:0:
340,264,89428,6,0,B|352:324|316:340|256:312|256:312|196:340|160:324|172:264,1,270,4|0,0:0|1:0,0:0:0:0:
180,176,90966,2,0,P|204:140|209:94,1,90,2|0,0:0|1:0,0:0:0:0:
302,94,91735,2,0,P|308:140|332:176,1,90,2|0,0:0|1:0,0:0:0:0:
396,112,92505,5,4,0:0:0:0:
448,188,92889,2,0,L|483:270,1,90,0|2,1:0|0:0,0:0:0:0:
472,360,93658,1,0,1:0:0:0:
400,308,94043,2,0,P|292:272|173:356,1,270,2|0,0:0|1:0,0:0:0:0:
88,332,95581,5,4,0:0:0:0:
256,196,98658,5,6,0:0:0:0:
300,116,99043,2,0,P|382:88|451:160,2,180,8|8|8,0:0|0:0|0:0,0:0:0:0:
364,178,100966,2,0,P|302:203|234:177,1,135,2|2,0:0|0:0,0:0:0:0:
112,136,102120,6,0,L|56:308,1,180,8|8,0:0|0:0,0:0:0:0:
140,336,103274,2,0,P|216:308|306:338,1,180,2|2,0:0|0:0,0:0:0:0:
396,344,104428,1,8,0:0:0:0:
452,272,104812,6,0,L|490:190,1,90,2|8,0:0|0:0,0:0:0:0:
448,112,105581,1,2,0:0:0:0:
396,36,105966,1,8,0:0:0:0:
352,112,106351,2,0,P|268:136|199:83,1,180,2|2,0:0|0:0,0:0:0:0:
112,56,107505,2,0,L|82:89,1,45,8|2,0:0|0:0,0:0:0:0:
60,224,108274,6,0,L|96:312,1,90,8|2,0:0|0:0,0:0:0:0:
168,360,109043,1,8,0:0:0:0:
344,360,109812,1,8,0:0:0:0:
417,307,110197,2,0,L|452:224,1,90,2|8,0:0|0:0,0:0:0:0:
404,52,111351,6,0,P|360:44|316:52,2,90,8|2|8,0:0|0:0|0:0,0:0:0:0:
356,128,112505,2,0,P|296:136|240:92,2,135,2|2|8,0:0|0:0|0:0,0:0:0:0:
448,128,114043,1,2,0:0:0:0:
480,212,114428,6,0,P|468:256|440:292,2,90,8|2|8,0:0|0:0|0:0,0:0:0:0:
392,212,115581,2,0,P|365:246|353:290,1,90,2|8,0:0|0:0,0:0:0:0:
280,344,116351,2,0,L|151:303,2,135,8|8|8,0:0|0:0|0:0,0:0:0:0:
316,260,117889,6,0,L|144:204,1,180,2|2,0:0|0:0,0:0:0:0:
168,116,119043,2,0,L|252:148,1,90,8|2,0:0|0:0,0:0:0:0:
340,176,119812,1,8,0:0:0:0:
256,192,120197,12,4,123274,0:0:0:0:
172,260,124043,6,0,B|216:284|256:252|256:252|296:284|340:260,1,180,2|2,0:0|0:0,0:0:0:0:
300,180,125197,2,0,P|264:84|212:184,1,270,2|4,0:3|0:0,0:0:0:0:
256,260,126735,5,2,0:3:0:0:
324,320,127120,2,0,P|368:308|402:281,1,90,2|2,0:0|0:3,0:0:0:0:
328,232,127889,1,0,0:0:0:0:
400,180,128274,2,0,P|336:148|276:164,2,135,2|4|4,0:3|0:0|0:0,0:0:0:0:
488,192,129812,5,2,0:3:0:0:
496,104,130197,2,0,L|440:32,1,90,2|2,0:0|0:3,0:0:0:0:
352,36,130966,2,0,P|256:80|152:36,1,225,2|4,0:0|0:0,0:0:0:0:
16,28,132505,5,4,0:0:0:0:
4,116,132889,1,2,0:3:0:0:
28,204,133274,2,0,P|48:244|88:272,2,90,2|2|2,0:0|0:3|0:0,0:0:0:0:
116,188,134428,2,0,P|164:228|172:296,2,135,2|4|4,0:3|0:0|0:0,0:0:0:0:
256,192,147889,12,0,150966,0:0:0:0:
80,72,151735,6,0,B|120:44|168:36|208:60|208:60|224:116|256:132|256:132|288:116|304:60|304:60|344:36|392:44|432:72,1,450
400,156,154043,6,0,P|384:200|389:241,1,90,6|8,0:0|0:0,0:0:0:0:
392,332,154812,2,0,L|300:320,1,90,2|8,0:0|0:0,0:0:0:0:
209,320,155581,2,0,L|120:332,1,90,2|8,0:0|0:0,0:0:0:0:
122,241,156351,2,0,P|128:176|80:120,1,135,2|2,0:0|0:0,0:0:0:0:
184,28,157505,6,0,P|268:56|349:22,1,180,8|8,0:0|0:0,0:0:0:0:
424,72,158658,2,0,P|396:156|429:237,1,180,2|2,0:0|0:0,0:0:0:0:
476,316,159812,1,8,0:0:0:0:
388,340,160197,6,0,L|296:316,1,90,6|8,0:0|0:0,0:0:0:0:
211,317,160966,2,0,L|124:340,1,90,2|8,0:0|0:0,0:0:0:0:
52,284,161735,2,0,P|76:200|32:124,1,180,2|2,0:0|0:0,0:0:0:0:
0,40,162889,2,0,L|40:12,1,45,8|2,0:0|0:0,0:0:0:0:
168,28,163658,5,8,0:0:0:0:
256,52,164043,1,2,0:0:0:0:
344,28,164428,1,8,0:0:0:0:
336,208,165197,1,8,0:0:0:0:
256,248,165581,1,2,0:0:0:0:
176,208,165966,1,8,0:0:0:0:
336,308,166735,6,0,P|256:344|176:308,2,180,8|8|8,0:0|0:0|0:0,0:0:0:0:
412,260,168658,1,0,0:0:0:0:
468,188,169043,2,0,L|488:147,1,45,8|2,0:0|0:0,0:0:0:0:
380,64,169812,6,0,P|336:68|301:41,1,90,8|2,0:0|0:0,0:0:0:0:
210,41,170581,2,0,P|176:68|132:64,1,90,8|2,0:0|0:0,0:0:0:0:
48,100,171351,5,8,0:0:0:0:
8,180,171735,1,8,0:0:0:0:
44,264,172120,1,8,0:0:0:0:
120,316,172505,2,2,P|160:332|205:325,1,90,2|8,0:0|0:0,0:0:0:0:
256,252,173274,6,0,P|301:245|341:261,1,90,2|8,0:0|0:0,0:0:0:0:
432,252,174043,2,0,L|456:120,2,135,2|2|8,0:0|0:0|0:0,0:0:0:0:
256,192,175581,12,4,178658,0:0:0:0:
