osu file format v12

[General]
AudioFilename: 05-panic_at_the_disco-camisado.mp3
AudioLeadIn: 0
PreviewTime: 46343
Countdown: 0
SampleSet: Normal
StackLeniency: 0.7
Mode: 0
LetterboxInBreaks: 1

[Editor]
DistanceSpacing: 1.1
BeatDivisor: 4
GridSize: 4

[Metadata]
Title:Camisado
TitleUnicode:Camisado
Artist:Panic! at the Disco
ArtistUnicode:Panic! at the Disco
Creator:mancusojuanmattos
Version:Challenging
Source:
Tags:A Fever You Can't Sweat Out alternative synthrock
BeatmapID:253317
BeatmapSetID:94025

[Difficulty]
HPDrainRate:6
CircleSize:4
OverallDifficulty:6
ApproachRate:8
SliderMultiplier:1.6
SliderTickRate:2

[Events]
//Background and Video events
0,0,"BG.jpg",0,0
//Break Periods
2,37320,42524
2,95781,97908
2,135781,147139
//Storyboard Layer 0 (Background)
//Storyboard Layer 1 (Fail)
//Storyboard Layer 2 (Pass)
//Storyboard Layer 3 (Foreground)
//Storyboard Sound Samples
//Background Colour Transformations
3,100,163,162,255

[TimingPoints]
12505,384.615384615385,4,2,0,90,1,0
43274,-100,4,1,0,75,0,0
46351,-100,4,1,0,75,0,1
58658,-100,4,1,0,75,0,0
58755,-100,4,2,0,90,0,0
61735,-100,4,2,0,100,0,0
64620,-100,4,2,0,90,0,0
68562,-100,4,1,0,60,0,0
69428,-100,4,2,0,90,0,0
98658,-100,4,1,0,75,0,1
123274,-100,4,2,0,90,0,0
128755,-100,4,2,0,60,0,0
128947,-100,4,2,0,90,0,0
129139,-100,4,2,0,60,0,0
129235,-100,4,2,0,90,0,0
147889,-100,4,2,0,70,0,0
148658,-100,4,2,0,50,0,0
150197,-100,4,2,0,35,0,0
150966,-100,4,2,0,35,0,0
151351,-100,4,1,0,60,0,0
154043,-100,4,1,0,75,0,1
175966,-100,4,1,0,90,0,1
178658,-100,4,1,0,75,0,0

[Colours]
Combo1 : 138,138,255
Combo2 : 255,182,108
Combo3 : 255,164,164
SliderBorder : 55,55,55

[HitObjects]
256,340,12505,1,4,0:0:0:0:
220,260,12697,2,0,P|256:244|292:260,1,80,2|0,0:0|1:0,0:0:0:0:
372,292,13081,1,2,0:0:0:0:
356,204,13274,2,0,P|340:168|356:132,1,80,2|0,0:0|0:0,0:0:0:0:
420,72,13658,1,0,1:0:0:0:
332,56,13851,2,0,P|256:76|180:51,1,160,2|2,0:0|0:0,0:0:0:0:
92,36,14428,2,0,L|56:108,1,80,0|0,1:0|0:0,0:0:0:0:
68,196,14812,2,0,P|88:252|144:276,1,120,2|0,0:0|0:0,0:0:0:0:
152,268,15197,2,0,P|228:248|288:296,1,160,0|4,1:0|0:0,0:0:0:0:
308,372,15774,5,2,0:0:0:0:
376,328,15966,2,0,P|424:320|456:248,1,120,0|0,1:0|1:0,0:0:0:0:
448,248,16351,2,0,P|420:220|419:181,1,80,0|0,1:0|0:0,0:0:0:0:
484,120,16735,1,0,1:0:0:0:
320,52,17120,6,0,P|248:24|176:56,1,160,2|0,0:0|1:0,0:0:0:0:
140,136,17697,1,0,0:0:0:0:
60,176,17889,2,0,P|96:220|156:228,1,120,2|2,0:0|0:0,0:0:0:0:
172,220,18274,2,0,P|204:200|245:199,1,80,0|0,1:0|0:0,0:0:0:0:
320,244,18658,5,2,0:0:0:0:
320,244,19043,1,0,1:0:0:0:
476,328,19428,2,0,L|502:252,1,80,2|0,0:0|0:0,0:0:0:0:
492,164,19812,2,0,P|460:136|452:100,1,80,0|0,1:0|0:0,0:0:0:0:
364,84,20197,2,0,P|336:116|300:124,1,80,2|0,0:0|0:0,0:0:0:0:
256,48,20581,1,0,1:0:0:0:
200,116,20774,2,0,P|164:124|136:156,1,80,2|0,0:0|0:0,0:0:0:0:
84,224,21158,2,0,P|32:280|60:349,1,160,2|0,0:0|0:0,0:0:0:0:
144,320,21735,6,0,P|216:292|283:330,1,160,2|0,0:0|1:0,0:0:0:0:
364,364,22312,2,0,L|412:300,1,80,2|0,0:0|0:0,0:0:0:0:
344,244,22697,2,0,L|392:180,1,80,2|0,0:0|1:0,0:0:0:0:
360,96,23081,2,0,P|284:116|219:74,1,160,2|2,0:0|0:0,0:0:0:0:
156,12,23658,1,0,1:0:0:0:
112,88,23851,2,0,L|68:241,1,160,2|2,0:0|0:0,0:0:0:0:
96,328,24428,1,0,1:0:0:0:
176,364,24620,1,4,0:0:0:0:
176,364,25005,6,0,P|212:356|244:328,1,80,2|0,0:0|1:0,0:0:0:0:
248,240,25389,2,0,P|212:248|179:275,2,80,2|0|0,0:0|1:0|0:0,0:0:0:0:
332,264,25966,2,0,P|368:256|400:228,2,80,0|0|2,1:0|0:0|0:0,0:0:0:0:
328,176,26543,1,0,0:0:0:0:
292,96,26735,2,0,P|256:112|220:96,2,80,0|2|0,1:0|0:0|0:0,0:0:0:0:
372,56,27312,1,0,0:0:0:0:
292,20,27505,2,0,P|256:4|220:19,1,80,0|2,1:0|0:0,0:0:0:0:
132,20,27889,1,0,0:0:0:0:
96,100,28081,6,0,L|39:156,1,80,2|0,0:0|1:0,0:0:0:0:
12,240,28466,1,0,0:0:0:0:
72,304,28658,2,0,P|144:332|206:287,1,160,2|0,0:0|1:0,0:0:0:0:
256,216,29235,1,0,0:0:0:0:
305,287,29428,2,0,P|368:332|440:304,1,160,2|0,0:0|1:0,0:0:0:0:
376,244,30005,2,0,L|404:164,1,80,2|0,0:0|0:0,0:0:0:0:
376,84,30389,2,0,P|336:76|297:83,1,80,0|0,0:0|1:0,0:0:0:0:
260,164,30774,1,0,0:0:0:0:
260,164,30966,6,0,P|216:176|124:112,2,160,4|0|0,0:0|1:0|0:0,0:0:0:0:
344,192,31928,2,0,L|320:272,1,80,2|0,0:0|1:0,0:0:0:0:
256,328,32312,2,0,P|220:344|180:342,1,80,2|0,0:0|0:0,0:0:0:0:
112,284,32697,1,2,0:0:0:0:
48,220,32889,1,0,1:0:0:0:
92,144,33081,2,0,P|120:112|154:98,1,80,2|0,0:0|0:0,0:0:0:0:
236,64,33466,2,0,P|312:48|368:100,1,160,2|0,0:0|0:0,0:0:0:0:
344,184,34043,6,0,P|268:200|209:150,2,160,2|0|0,0:0|1:0|0:0,0:0:0:0:
432,184,35005,2,0,L|472:256,1,80,2|0,0:0|1:0,0:0:0:0:
456,340,35389,2,0,P|380:360|309:326,1,160,2|2,0:0|0:0,0:0:0:0:
256,256,35966,1,0,1:0:0:0:
203,326,36158,2,0,P|132:360|56:340,1,160,2|2,0:0|0:0,0:0:0:0:
56,340,36735,1,0,1:0:0:0:
0,172,37120,5,4,0:0:0:0:
488,48,43274,5,4,0:0:0:0:
488,48,43658,2,0,L|444:120,1,80
372,68,44043,2,0,L|330:136,1,80
256,88,44428,2,0,L|214:156,1,80
132,132,44812,5,0,0:0:0:0:
52,172,45005,1,0,0:0:0:0:
64,260,45197,1,0,0:0:0:0:
132,312,45389,2,0,P|168:300|194:268,1,80
256,208,45774,1,0,0:0:0:0:
317,268,45966,2,0,P|344:300|380:312,1,80
392,224,46351,6,0,P|444:184|439:96,1,160,6|8,0:0|0:0,0:0:0:0:
368,44,46928,1,0,0:0:0:0:
296,92,47120,2,0,P|208:96|168:44,1,160,2|8,0:0|0:0,0:0:0:0:
80,40,47697,1,0,0:0:0:0:
80,40,47889,6,0,L|20:188,1,160,2|8,0:0|0:0,0:0:0:0:
40,276,48466,2,0,P|80:272|112:296,1,80,0|2,0:0|0:0,0:0:0:0:
172,360,48851,1,0,0:0:0:0:
260,372,49043,1,8,0:0:0:0:
340,340,49235,2,0,P|388:280|377:201,1,160,2|0,0:0|0:0,0:0:0:0:
336,124,49812,5,8,0:0:0:0:
248,104,50005,2,0,P|172:88|104:136,1,160,2|2,0:0|0:0,0:0:0:0:
188,164,50581,2,0,P|138:223|148:306,1,160,8|0,0:0|0:0,0:0:0:0:
216,248,51158,2,0,P|243:320|321:351,1,160,2|0,0:0|0:0,0:0:0:0:
392,308,51735,2,0,L|448:248,1,80,8|0,0:0|0:0,0:0:0:0:
460,164,52120,1,8,0:0:0:0:
460,164,52505,6,0,B|416:132|384:156|344:184|307:154,1,160,2|8,0:0|0:0,0:0:0:0:
256,84,53081,1,0,0:0:0:0:
204,154,53274,2,0,B|168:184|128:156|96:132|52:164,1,160,2|8,0:0|0:0,0:0:0:0:
36,252,53851,2,0,P|76:268|111:262,1,80,0|2,0:0|0:0,0:0:0:0:
272,336,54428,5,8,0:0:0:0:
360,320,54620,1,0,0:0:0:0:
352,232,54812,2,0,P|324:200|320:164,1,80,2|0,0:0|0:0,0:0:0:0:
408,164,55197,1,8,0:0:0:0:
408,164,55389,2,0,P|400:88|328:56,1,160,2|0,0:0|0:0,0:0:0:0:
256,108,55966,6,0,P|180:128|110:92,2,160,8|2|8,0:0|0:0|0:0,0:0:0:0:
412,192,57120,1,0,0:0:0:0:
256,276,57505,2,0,P|180:256|110:291,2,160,8|2|8,0:0|0:0|0:0,0:0:0:0:
412,192,58658,5,4,0:0:0:0:
412,192,59043,2,0,P|400:112|338:68,1,160,2|0,0:0|0:0,0:0:0:0:
264,112,59620,2,0,P|228:128|188:122,1,80,0|2,0:0|0:0,0:0:0:0:
104,148,60005,2,0,L|74:222,1,80,2|0,0:0|0:0,0:0:0:0:
92,308,60389,1,0,0:0:0:0:
172,344,60581,2,0,P|208:352|246:334,1,80,2|0,0:0|0:0,0:0:0:0:
308,272,60966,2,0,P|346:254|382:262,1,80,2|0,0:0|0:0,0:0:0:0:
448,324,61351,1,2,0:0:0:0:
448,324,61735,6,0,L|496:172,1,160,4|4,0:3|0:3,0:0:0:0:
380,40,62505,2,0,P|344:32|304:44,1,80,4|2,0:3|0:0,0:0:0:0:
256,116,62889,1,4,0:3:0:0:
208,44,63081,2,0,P|168:32|132:40,1,80,0|4,0:0|0:3,0:0:0:0:
80,112,63466,2,0,L|50:186,1,80,2|4,0:0|0:3,0:0:0:0:
36,272,63851,1,0,0:0:0:0:
120,240,64043,2,0,P|160:236|196:256,1,80,4|2,0:3|0:0,0:0:0:0:
216,340,64428,1,4,0:3:0:0:
292,296,64620,6,0,P|368:344|264:208,1,720,2|0,0:0|0:0,0:0:0:0:
212,256,66543,1,2,0:0:0:0:
124,248,66735,2,0,P|56:208|39:133,2,160,8|0|8,0:3|0:0|0:3,0:0:0:0:
212,256,67697,1,2,0:0:0:0:
212,256,67889,6,0,P|280:296|296:370,2,160,0|8|0,0:0|0:3|1:0,0:0:0:0:
124,248,68851,1,0,0:0:0:0:
92,168,69043,2,0,P|68:140|56:100,1,80,0|0,0:0|0:0,0:0:0:0:
144,96,69428,5,0,1:0:0:0:
144,96,69524,1,0,1:0:0:0:
144,96,69620,1,0,0:0:0:0:
208,36,69812,1,0,0:0:0:0:
280,88,70005,1,0,1:0:0:0:
280,88,70101,1,0,1:0:0:0:
280,88,70197,1,0,0:0:0:0:
220,252,70581,1,0,1:0:0:0:
296,356,70774,1,0,0:0:0:0:
416,312,70966,5,4,0:0:0:0:
460,236,71158,2,0,P|476:200|480:159,1,80,2|0,0:0|1:0,0:0:0:0:
412,104,71543,1,0,0:0:0:0:
412,104,71735,2,0,P|396:140|391:180,2,80,2|0|0,0:0|0:0|1:0,0:0:0:0:
336,60,72312,2,0,P|272:108|195:102,1,160,2|0,0:0|0:0,0:0:0:0:
108,108,72889,2,0,L|80:184,1,80,0|0,1:0|0:0,0:0:0:0:
72,272,73274,2,0,P|100:308|173:312,1,120,2|0,0:0|0:0,0:0:0:0:
184,304,73658,2,0,P|224:296|260:308,1,80,0|0,1:0|0:0,0:0:0:0:
340,348,74043,5,4,0:3:0:0:
424,328,74235,2,0,P|456:304|475:269,1,80,2|0,0:0|1:0,0:0:0:0:
392,244,74620,1,0,0:0:0:0:
360,160,74812,2,0,P|328:184|308:218,2,80,2|0|0,0:0|0:0|1:0,0:0:0:0:
416,92,75389,1,0,0:0:0:0:
416,92,75581,2,0,P|448:68|467:33,2,80,2|0|0,0:0|0:0|1:0,0:0:0:0:
384,8,76158,1,0,0:0:0:0:
296,20,76351,2,0,P|236:20|186:51,1,120,2|0,0:0|0:0,0:0:0:0:
184,68,76735,2,0,P|164:104|129:119,1,80,0|0,1:0|0:0,0:0:0:0:
52,128,77120,6,0,L|20:284,1,160,4|0,0:0|1:0,0:0:0:0:
64,360,77697,1,0,0:0:0:0:
132,304,77889,2,0,P|208:284|273:324,1,160,2|0,0:0|1:0,0:0:0:0:
352,364,78466,2,0,L|398:298,1,80,0|2,0:0|0:0,0:0:0:0:
332,240,78851,2,0,L|378:174,1,80,0|0,0:0|1:0,0:0:0:0:
464,192,79235,2,0,L|510:126,2,80,0|2|0,0:0|0:0|0:0,0:0:0:0:
352,56,80005,5,2,0:0:0:0:
352,56,80197,2,0,P|280:84|206:54,1,160,4|0,0:3|1:0,0:0:0:0:
120,52,80774,2,0,L|96:128,1,80,2|0,0:0|0:0,0:0:0:0:
28,184,81158,2,0,L|4:260,1,80,0|0,0:0|1:0,0:0:0:0:
28,344,81543,2,0,P|100:364|168:320,1,160,2|2,0:0|0:0,0:0:0:0:
344,320,82312,2,0,P|412:364|484:344,1,160,2|2,0:0|0:0,0:0:0:0:
420,284,82889,1,0,1:0:0:0:
480,172,83081,1,0,0:0:0:0:
396,76,83274,5,4,0:0:0:0:
328,132,83466,2,0,P|288:140|249:132,2,80,2|0|0,0:0|1:0|0:0,0:0:0:0:
288,52,84043,2,0,P|249:44|209:52,1,80,2|0,0:0|0:0,0:0:0:0:
147,114,84428,2,0,L|88:172,1,80,0|0,1:0|0:0,0:0:0:0:
80,256,84812,2,0,P|84:332|153:362,1,160,2|0,0:0|1:0,0:0:0:0:
240,372,85389,2,0,P|280:372|316:356,1,80,2|0,0:0|0:0,0:0:0:0:
268,280,85774,2,0,P|304:264|344:264,1,80,2|0,0:0|1:0,0:0:0:0:
424,296,86158,6,0,P|488:288|504:200,1,160,2|0,0:0|0:0,0:0:0:0:
432,160,86735,2,0,P|396:140|376:108,1,80,0|0,1:0|0:0,0:0:0:0:
456,72,87120,2,0,P|392:28|316:48,1,160,2|0,0:0|1:0,0:0:0:0:
256,112,87697,1,0,0:0:0:0:
195,47,87889,2,0,P|120:28|56:72,1,160,2|0,0:0|1:0,0:0:0:0:
12,148,88466,1,0,0:0:0:0:
16,236,88658,2,0,P|20:276|44:308,1,80,2|0,0:0|0:0,0:0:0:0:
124,336,89043,1,0,1:0:0:0:
248,360,89235,1,0,0:0:0:0:
340,268,89428,6,0,B|324:220|344:192|368:152|351:111,1,160,4|0,0:0|1:0,0:0:0:0:
160,111,90197,2,0,B|144:152|168:192|188:220|172:268,2,160,2|0|0,0:0|1:0|0:0,0:0:0:0:
216,44,91158,2,0,P|256:36|296:44,2,80,2|0|0,0:0|1:0|0:0,0:0:0:0:
256,124,91735,1,0,0:0:0:0:
256,124,91928,2,0,L|256:364,1,240,2|2,0:0|0:0,0:0:0:0:
432,368,92889,6,0,P|464:344|479:308,1,80,0|0,1:0|0:0,0:0:0:0:
392,284,93274,1,2,0:0:0:0:
392,284,93466,2,0,P|407:248|439:224,1,80,0|0,0:0|1:0,0:0:0:0:
472,144,93851,2,0,P|420:84|343:67,1,160,2|2,0:0|0:0,0:0:0:0:
168,67,94620,2,0,P|92:84|40:144,1,160,2|2,0:0|0:0,0:0:0:0:
52,232,95197,1,0,1:0:0:0:
52,232,95581,5,4,0:0:0:0:
76,276,98658,6,0,P|124:336|200:328,1,160,6|8,0:0|0:0,0:0:0:0:
256,260,99235,1,0,0:0:0:0:
312,328,99428,2,0,P|388:336|436:276,2,160,2|8|2,0:0|0:0|0:0,0:0:0:0:
348,156,100581,2,0,L|312:76,1,80,8|0,0:0|0:0,0:0:0:0:
256,20,100966,1,2,0:0:0:0:
196,83,101158,2,0,L|163:155,1,80,0|8,0:0|0:0,0:0:0:0:
184,244,101543,6,0,B|228:252|256:220|256:220|284:252|328:244,1,160,2|0,0:0|0:0,0:0:0:0:
404,288,102120,1,8,0:0:0:0:
328,332,102312,2,0,B|284:324|256:356|256:356|228:324|184:332,1,160,2|0,0:0|0:0,0:0:0:0:
108,288,102889,1,8,0:0:0:0:
48,124,103274,1,0,0:0:0:0:
48,124,103466,2,0,P|92:60|168:60,1,160,2|0,0:0|0:0,0:0:0:0:
136,144,104043,2,0,P|176:152|211:138,2,80,8|0|8,0:0|0:0|0:0,0:0:0:0:
36,288,104812,6,0,P|92:328|174:305,1,160,6|8,0:0|0:0,0:0:0:0:
256,276,105389,1,0,0:0:0:0:
337,305,105581,2,0,P|420:328|476:288,1,160,2|8,0:0|0:0,0:0:0:0:
400,240,106158,2,0,L|361:170,1,80,0|2,0:0|0:0,0:0:0:0:
212,72,106735,2,0,P|172:76|137:57,1,80,8|0,0:0|0:0,0:0:0:0:
56,88,107120,2,0,P|60:128|41:162,1,80,2|0,0:0|0:0,0:0:0:0:
4,244,107505,1,8,0:0:0:0:
24,328,107697,2,0,P|96:344|151:286,1,160,2|0,0:0|0:0,0:0:0:0:
156,200,108274,5,8,0:0:0:0:
156,200,108658,1,2,0:0:0:0:
156,200,109043,1,8,0:0:0:0:
256,52,109428,1,4,0:0:0:0:
356,200,109812,1,8,0:0:0:0:
356,200,110196,1,2,0:0:0:0:
356,200,110581,1,8,0:0:0:0:
256,344,110966,1,4,0:0:0:0:
84,308,111351,6,0,P|44:240|57:163,1,160,8|2,0:0|0:0,0:0:0:0:
172,28,112120,2,0,P|212:96|198:172,1,160,8|2,0:0|0:0,0:0:0:0:
256,340,112889,1,8,0:0:0:0:
256,340,113081,2,0,P|336:328|394:277,1,160,2|2,0:0|0:0,0:0:0:0:
392,188,113658,1,8,0:0:0:0:
392,188,113851,2,2,P|333:137|253:125,1,160,2|0,0:0|0:0,0:0:0:0:
168,136,114428,5,8,0:0:0:0:
168,136,114812,1,2,0:0:0:0:
56,272,115197,1,8,0:0:0:0:
56,272,115581,1,2,0:0:0:0:
212,352,115966,2,0,P|288:364|348:314,2,160,8|8|8,0:0|0:0|0:0,0:0:0:0:
200,264,116928,2,2,P|212:188|100:88,1,240,2|8,0:0|0:0,0:0:0:0:
16,244,117889,6,0,L|0:322,1,80,2|0,0:0|0:0,0:0:0:0:
80,364,118274,2,0,P|120:372|157:361,1,80,8|0,0:0|0:0,0:0:0:0:
116,284,118658,2,0,P|192:268|256:312,1,160,2|8,0:0|0:0,0:0:0:0:
344,324,119235,2,2,L|412:180,1,160,2|0,0:0|0:0,0:0:0:0:
364,104,119812,1,8,0:0:0:0:
256,192,120005,12,4,123274,0:0:0:0:
188,96,123658,6,0,P|256:60|324:96,1,160,2|0,0:3|0:0,0:0:0:0:
256,152,124235,2,0,L|256:232,1,80,2|2,0:0|0:3,0:0:0:0:
188,288,124620,2,0,P|256:324|324:288,1,160,2|0,0:0|0:0,0:0:0:0:
392,228,125197,2,0,P|420:204|435:164,1,80,2|0,0:3|0:0,0:0:0:0:
400,84,125581,2,0,P|372:108|356:147,2,80,0|2|2,0:0|0:0|0:3,0:0:0:0:
476,36,126158,1,2,0:3:0:0:
400,84,126351,6,0,L|248:28,1,160,2|2,0:0|0:3,0:0:0:0:
164,48,126928,1,0,0:0:0:0:
180,136,127120,2,0,L|260:168,2,80,2|2|2,0:0|0:0|0:3,0:0:0:0:
164,48,127697,1,0,0:0:0:0:
80,76,127889,1,2,0:0:0:0:
68,164,128081,2,0,L|36:237,1,80,2|2,0:0|0:3,0:0:0:0:
60,324,128466,1,0,0:0:0:0:
144,304,128658,2,0,P|184:300|216:320,1,80,0|4,0:0|0:0,0:0:0:0:
304,344,129043,2,0,L|284:378,2,40
420,252,129428,5,4,0:0:0:0:
496,208,129620,1,0,0:0:0:0:
480,120,129812,2,0,P|412:84|337:110,1,160,2|0,0:3|0:0,0:0:0:0:
256,148,130389,1,0,0:0:0:0:
174,110,130581,2,0,P|100:84|32:120,1,160,2|0,0:3|0:0,0:0:0:0:
0,204,131158,2,0,P|-12:240|4:282,1,80,2|2,0:0|0:3,0:0:0:0:
88,288,131543,1,0,0:0:0:0:
88,288,131735,2,0,P|164:268|227:311,1,160,2|2,0:0|0:3,0:0:0:0:
400,344,132505,6,0,P|440:280|416:204,1,160,2|2,0:0|0:3,0:0:0:0:
348,148,133081,1,0,0:0:0:0:
264,124,133274,2,0,P|224:112|200:83,1,80,2|0,0:0|0:0,0:0:0:0:
148,12,133658,1,2,0:3:0:0:
104,88,133851,2,0,P|92:128|63:151,1,80,0|2,0:0|0:3,0:0:0:0:
4,216,134235,1,2,0:0:0:0:
28,300,134428,2,0,P|96:336|168:304,1,160,2|0,0:3|0:0,0:0:0:0:
229,242,135005,2,0,P|300:210|368:246,1,160,2|2,0:0|0:0,0:0:0:0:
296,296,135581,5,4,0:0:0:0:
256,192,147889,12,0,150966,0:0:0:0:
256,76,151351,5,0,0:0:0:0:
168,92,151543,1,0,0:0:0:0:
108,156,151735,2,0,P|88:168|78:181,2,40
136,240,152120,1,0,0:0:0:0:
164,324,152312,1,0,0:0:0:0:
248,344,152505,2,0,L|288:352,2,40
300,272,152889,2,0,L|340:280,2,40
348,200,153274,2,0,L|388:208,4,40
256,48,154043,6,0,P|180:72|108:42,1,160,6|8,0:0|0:0,0:0:0:0:
24,24,154620,1,0,0:0:0:0:
24,24,154812,2,0,L|0:182,1,160,2|8,0:0|0:0,0:0:0:0:
48,256,155389,1,0,0:0:0:0:
92,332,155581,2,0,P|164:360|234:325,1,160,2|8,0:0|0:0,0:0:0:0:
256,240,156158,1,0,0:0:0:0:
340,216,156351,2,0,P|380:208|418:215,2,80,2|0|8,0:0|0:0|0:0,0:0:0:0:
352,304,156928,2,0,L|314:148,1,160,2|0,0:0|0:0,0:0:0:0:
256,80,157505,5,8,0:0:0:0:
197,148,157697,2,0,L|160:304,1,160,2|0,0:0|0:0,0:0:0:0:
72,300,158274,2,0,L|109:144,1,160,8|2,0:0|0:0,0:0:0:0:
160,72,158851,1,0,0:0:0:0:
332,32,159235,2,0,P|372:40|407:26,1,80,2|8,0:0|0:0,0:0:0:0:
488,64,159620,2,0,P|480:104|493:139,1,80,0|8,0:0|0:0,0:0:0:0:
452,216,160005,1,0,0:0:0:0:
478,301,160197,6,0,B|440:336|404:312|360:288|328:320,1,160,6|8,0:0|0:0,0:0:0:0:
256,372,160774,1,0,0:0:0:0:
183,320,160966,2,0,B|152:288|108:312|72:336|33:301,1,160,2|8,0:0|0:0,0:0:0:0:
0,220,161543,1,0,0:0:0:0:
52,152,161735,2,0,B|96:140|96:140|152:168|204:132,1,160,2|8,0:0|0:0,0:0:0:0:
148,64,162312,2,0,P|188:48|224:48,1,80,0|2,0:0|0:0,0:0:0:0:
300,92,162697,1,0,0:0:0:0:
276,176,162889,2,0,P|312:176|352:160,1,80,8|2,0:0|0:0,0:0:0:0:
432,196,163274,6,0,P|376:252|292:264,2,160,4|8|2,0:0|0:0|0:0,0:0:0:0:
256,192,164428,1,8,0:0:0:0:
80,196,164812,2,0,P|136:252|213:265,2,160,4|8|2,0:0|0:0|0:0,0:0:0:0:
184,56,165966,1,8,0:0:0:0:
256,8,166158,1,0,0:0:0:0:
328,56,166351,5,4,0:0:0:0:
464,168,166735,2,0,P|476:244|416:300,1,160,8|2,0:0|0:0,0:0:0:0:
392,216,167312,1,0,0:0:0:0:
364,132,167505,2,0,P|309:186|321:262,1,160,8|2,0:0|0:0,0:0:0:0:
252,316,168081,2,0,L|174:296,1,80,0|8,0:0|0:0,0:0:0:0:
104,244,168466,1,2,0:0:0:0:
60,72,168851,2,0,L|137:91,1,80,2|8,0:0|0:0,0:0:0:0:
208,144,169235,2,2,P|284:168|349:130,1,160,2|0,0:0|0:0,0:0:0:0:
436,152,169812,6,0,L|401:308,1,160,8|2,0:0|0:0,0:0:0:0:
256,208,170581,2,0,L|256:48,2,160,8|2|8,0:0|0:0|0:0,0:0:0:0:
111,308,171735,2,0,L|76:152,1,160,8|8,0:0|0:0,0:0:0:0:
108,68,172312,2,2,B|196:92|260:36|260:36|336:48,1,240,2|8,0:0|0:0,0:0:0:0:
504,108,173274,6,0,P|504:148|491:185,1,80,2|0,0:0|0:0,0:0:0:0:
416,140,173658,2,0,P|403:177|403:217,1,80,8|0,0:0|0:0,0:0:0:0:
380,304,174043,2,0,B|304:304|304:304|260:304|228:272,1,160,2|8,0:0|0:0,0:0:0:0:
304,228,174620,2,2,B|272:196|228:196|228:196|152:196,1,160,2|0,0:0|0:0,0:0:0:0:
72,236,175197,1,8,0:0:0:0:
72,236,175581,5,4,0:0:0:0:
44,60,175966,2,0,P|80:40|117:32,1,80,0|0,0:0|0:0,0:0:0:0:
120,120,176351,2,0,P|157:112|193:92,1,80
256,28,176735,1,0,0:0:0:0:
318,92,176928,2,0,P|354:112|392:120,1,80
394,32,177313,2,0,P|432:40|468:60,1,80
500,140,177697,5,0,0:0:0:0:
512,228,177889,1,0,0:0:0:0:
456,296,178081,1,0,0:0:0:0:
372,324,178274,1,0,0:0:0:0:
288,304,178466,1,0,0:0:0:0:
256,224,178658,5,4,0:0:0:0:
