osu file format v12

[General]
AudioFilename: 05-panic_at_the_disco-camisado.mp3
AudioLeadIn: 0
PreviewTime: 46343
Countdown: 0
SampleSet: Normal
StackLeniency: 0.7
Mode: 0
LetterboxInBreaks: 1

[Editor]
DistanceSpacing: 1
BeatDivisor: 4
GridSize: 4

[Metadata]
Title:Camisado
TitleUnicode:Camisado
Artist:Panic! at the Disco
ArtistUnicode:Panic! at the Disco
Creator:mancusojuanmattos
Version:Average
Source:
Tags:A Fever You Can't Sweat Out alternative synthrock
BeatmapID:253785
BeatmapSetID:94025

[Difficulty]
HPDrainRate:4
CircleSize:3
OverallDifficulty:4
ApproachRate:5
SliderMultiplier:1.2
SliderTickRate:2

[Events]
//Background and Video events
0,0,"BG.jpg",0,0
//Break Periods
2,37320,42074
2,95781,97458
2,135781,146689
//Storyboard Layer 0 (Background)
//Storyboard Layer 1 (Fail)
//Storyboard Layer 2 (Pass)
//Storyboard Layer 3 (Foreground)
//Storyboard Sound Samples
//Background Colour Transformations
3,100,163,162,255

[TimingPoints]
12505,384.615384615385,4,2,0,90,1,0
43274,-100,4,1,0,75,0,0
46351,-100,4,1,0,75,0,1
58658,-100,4,1,0,75,0,0
58755,-100,4,2,0,90,0,0
61735,-100,4,2,0,100,0,0
64620,-100,4,2,0,90,0,0
68274,-100,4,1,0,60,0,0
69428,-100,4,2,0,90,0,0
98658,-100,4,1,0,75,0,1
123274,-100,4,2,0,90,0,0
128755,-100,4,2,0,60,0,0
128947,-100,4,2,0,90,0,0
131831,-100,4,2,0,60,0,0
132024,-100,4,2,0,90,0,0
133370,-100,4,2,0,60,0,0
133562,-100,4,2,0,90,0,0
134908,-100,4,2,0,60,0,0
135101,-100,4,2,0,90,0,0
147889,-100,4,2,0,70,0,0
148658,-100,4,2,0,50,0,0
150197,-100,4,2,0,35,0,0
150966,-100,4,2,0,35,0,0
151351,-100,4,1,0,60,0,0
154043,-100,4,1,0,75,0,1
178658,-100,4,1,0,75,0,0

[Colours]
Combo1 : 138,138,255
Combo2 : 255,182,108
Combo3 : 255,164,164
SliderBorder : 55,55,55

[HitObjects]
452,324,12505,1,4,0:0:0:0:
504,216,12889,1,0,1:0:0:0:
460,104,13274,2,0,P|420:68|355:60,1,120,2|0,0:0|1:0,0:0:0:0:
324,112,13851,2,0,P|256:152|160:134,1,180,2|0,0:0|1:0,0:0:0:0:
40,116,14812,2,0,L|32:236,1,120,2|0,0:0|1:0,0:0:0:0:
68,352,15581,5,2,0:0:0:0:
144,260,15966,2,0,P|204:260|254:290,2,120,0|2|0,1:0|0:0|1:0,0:0:0:0:
32,216,17120,2,0,P|32:156|62:105,1,120,2|0,0:0|1:0,0:0:0:0:
112,72,17697,1,0,0:0:0:0:
112,72,17889,2,0,P|172:80|222:53,1,120,2|0,0:0|1:0,0:0:0:0:
340,24,18658,5,4,0:0:0:0:
428,108,19043,2,0,L|486:212,1,120,0|2,1:0|0:0,0:0:0:0:
484,332,19812,1,0,1:0:0:0:
368,300,20197,2,0,P|308:300|265:338,2,120,2|0|0,0:0|1:0|0:0,0:0:0:0:
484,332,21351,2,0,L|456:276,1,60,0|0,1:0|0:0,0:0:0:0:
414,235,21735,6,0,P|374:191|316:178,1,120,4|0,0:0|1:0,0:0:0:0:
196,178,22505,2,0,P|138:191|98:235,1,120,2|0,0:0|1:0,0:0:0:0:
116,292,23081,2,0,P|172:308|196:360,1,120,2|2,0:0|0:0,0:0:0:0:
316,360,23851,2,0,P|340:308|396:292,1,120,2|2,0:0|0:0,0:0:0:0:
456,284,24428,2,0,P|492:280|511:267,1,60,0|4,1:0|0:0,0:0:0:0:
500,148,25005,5,2,0:0:0:0:
500,148,25197,2,0,P|440:144|396:105,1,120,0|2,1:0|0:0,0:0:0:0:
308,24,25966,2,0,L|272:84,1,60,0|0,1:0|0:0,0:0:0:0:
216,84,26351,2,0,L|156:188,1,120,2|0,0:0|1:0,0:0:0:0:
68,108,27120,2,0,L|8:212,1,120,2|0,0:0|1:0,0:0:0:0:
32,268,27697,6,0,P|108:260|172:332,1,180,2|0,0:0|1:0,0:0:0:0:
228,352,28466,2,0,L|268:307,1,60,0|2,0:0|0:0,0:0:0:0:
388,308,29043,2,0,L|428:263,1,60,0|0,1:0|0:0,0:0:0:0:
468,220,29428,2,0,P|500:148|468:56,2,180,2|2|0,0:0|0:0|1:0,0:0:0:0:
352,196,30966,5,4,0:0:0:0:
256,124,31351,1,0,1:0:0:0:
160,196,31735,2,0,P|112:212|48:192,1,120,2|0,0:0|1:0,0:0:0:0:
47,71,32505,2,0,P|95:55|159:75,1,120,2|0,0:0|1:0,0:0:0:0:
196,124,33081,1,0,0:0:0:0:
216,180,33274,2,0,P|240:232|292:263,1,120,2|0,0:0|1:0,0:0:0:0:
408,292,34043,5,4,0:0:0:0:
476,192,34428,2,0,P|471:134|432:88,1,120,0|2,1:0|0:0,0:0:0:0:
372,92,35005,2,0,P|340:88|317:72,1,60,0|0,0:0|1:0,0:0:0:0:
260,56,35389,2,0,L|168:132,1,120,2|2,0:0|0:0,0:0:0:0:
168,252,36158,2,0,L|260:328,1,120,2|2,0:0|0:0,0:0:0:0:
320,336,36735,1,0,1:0:0:0:
392,240,37120,5,4,0:0:0:0:
200,56,43274,6,0,B|230:71|256:52|282:31|315:42,1,120
356,88,43851,2,0,P|376:144|426:171,1,120
484,192,44428,1,0,0:0:0:0:
460,308,44812,2,0,P|432:332|404:336,2,60
456,248,45389,1,0,0:0:0:0:
396,240,45581,2,0,P|336:236|292:272,1,120
184,328,46351,6,0,P|132:304|104:250,1,120,6|8,0:0|0:0,0:0:0:0:
100,192,46928,1,0,0:0:0:0:
104,133,47120,2,0,P|132:80|184:56,1,120,2|8,0:0|0:0,0:0:0:0:
304,40,47889,2,0,P|360:60|413:38,1,120,2|8,0:0|0:0,0:0:0:0:
468,64,48466,1,0,0:0:0:0:
468,64,48658,2,0,P|444:140|495:219,1,180,2|2,0:0|0:0,0:0:0:0:
356,340,49812,6,0,L|300:317,1,60,8|2,0:0|0:0,0:0:0:0:
304,196,50389,2,0,L|248:173,1,60,2|8,0:0|0:0,0:0:0:0:
280,56,50966,2,0,P|224:68|168:40,1,120,2|8,0:0|0:0,0:0:0:0:
108,44,51543,2,0,P|28:88|6:169,1,180,2|8,0:0|0:0,0:0:0:0:
52,280,52505,6,0,P|112:324|200:220,1,240,2|2,0:0|0:0,0:0:0:0:
256,112,53658,1,8,0:0:0:0:
312,220,54043,2,0,P|400:324|460:280,1,240,2|2,0:0|0:0,0:0:0:0:
500,168,55197,2,0,L|480:108,1,60,8|2,0:0|0:0,0:0:0:0:
432,80,55581,5,4,0:0:0:0:
312,48,55966,2,0,P|257:28|201:48,2,120,8|2|8,0:0|0:0|0:0,0:0:0:0:
256,156,57120,1,0,0:0:0:0:
200,264,57505,2,0,P|256:284|312:264,2,120,8|2|8,0:0|0:0|0:0,0:0:0:0:
256,156,58658,5,4,0:0:0:0:
144,112,59043,2,0,P|84:104|32:136,1,120,2|0,0:0|0:0,0:0:0:0:
34,250,59812,2,0,P|84:280|144:272,1,120,0|2,0:0|0:0,0:0:0:0:
228,187,60581,2,0,P|288:179|337:208,1,120,0|0,0:0|0:0,0:0:0:0:
348,328,61351,1,2,0:0:0:0:
460,284,61735,5,4,0:3:0:0:
500,172,62120,2,0,L|444:65,1,120,4|4,0:3|0:3,0:0:0:0:
328,36,62889,2,0,P|272:56|217:36,1,120,4|4,0:3|0:3,0:0:0:0:
96,40,63658,2,0,P|52:80|48:152,1,120,4|4,0:3|0:3,0:0:0:0:
60,196,64235,1,0,0:0:0:0:
56,316,64620,6,0,B|96:332|176:320|208:288|240:252|256:184|256:184|272:252|304:288|336:320|416:332|456:316,1,540,2|4,0:0|0:3,0:0:0:0:
484,200,66735,2,0,P|476:141|442:91,2,120,4|4|8,0:3|0:3|0:3,0:0:0:0:
364,180,67889,2,0,P|305:172|241:196,2,120
432,276,69043,1,0,0:0:0:0:
324,332,69428,6,0,L|264:342,1,60,0|0,1:0|0:0,0:0:0:0:
196,244,70005,2,0,L|136:254,1,60,0|0,1:0|0:0,0:0:0:0:
92,144,70581,2,0,L|32:154,1,60,0|0,1:0|0:0,0:0:0:0:
12,100,70966,5,4,0:0:0:0:
100,16,71351,2,0,B|160:28|160:28|200:76,1,120,0|2,1:0|0:0,0:0:0:0:
314,73,72120,2,0,B|352:28|352:28|412:16,1,120,0|2,1:0|0:0,0:0:0:0:
464,124,72889,1,0,1:0:0:0:
504,236,73274,2,0,P|468:276|344:260,1,180,2|2,0:0|0:0,0:0:0:0:
252,200,74235,6,0,L|192:212,1,60,2|0,0:0|1:0,0:0:0:0:
144,320,74812,1,2,0:0:0:0:
264,312,75197,1,0,1:0:0:0:
332,212,75581,2,0,L|446:177,1,120,2|0,0:0|1:0,0:0:0:0:
464,120,76158,1,0,0:0:0:0:
408,92,76351,2,0,L|236:148,1,180,2|2,0:0|0:0,0:0:0:0:
176,144,77120,5,4,0:0:0:0:
72,204,77505,2,0,P|32:244|20:304,1,120,0|2,1:0|0:0,0:0:0:0:
124,364,78274,1,0,1:0:0:0:
228,304,78658,2,0,P|284:284|338:303,1,120,2|0,0:0|1:0,0:0:0:0:
400,308,79235,2,0,L|374:362,2,60,0|2|0,0:0|0:0|0:0,0:0:0:0:
500,240,80005,1,2,0:0:0:0:
500,240,80197,6,0,P|508:180|485:126,1,120,4|0,0:0|1:0,0:0:0:0:
380,72,80966,2,0,P|300:37|217:71,2,180,2|2|0,0:0|0:0|1:0,0:0:0:0:
351,188,82505,2,0,P|295:202|240:176,1,120,2|0,0:0|1:0,0:0:0:0:
191,148,83081,1,0,0:0:0:0:
150,104,83274,5,4,0:0:0:0:
32,104,83658,2,0,L|5:221,1,120,0|2,1:0|0:0,0:0:0:0:
96,300,84428,1,0,1:0:0:0:
204,352,84812,2,0,P|260:368|316:336,1,120,2|0,0:0|1:0,0:0:0:0:
404,264,85581,2,0,P|456:228|458:119,1,180,2|2,0:0|0:0,0:0:0:0:
344,76,86543,5,0,0:0:0:0:
284,80,86735,2,0,P|228:96|172:73,1,120,0|2,1:0|0:0,0:0:0:0:
64,124,87505,2,0,P|86:179|70:235,1,120,0|2,1:0|0:0,0:0:0:0:
8,340,88274,1,0,1:0:0:0:
8,340,88466,1,0,0:0:0:0:
8,340,88658,2,0,P|96:348|168:292,1,180,2|0,0:0|0:0,0:0:0:0:
164,236,89428,5,4,0:0:0:0:
200,124,89812,2,0,P|256:104|312:124,2,120,0|2|0,1:0|0:0|1:0,0:0:0:0:
200,244,90966,2,0,P|256:264|310:244,2,120,2|0|2,0:0|1:0|0:0,0:0:0:0:
92,192,92120,1,0,1:0:0:0:
32,188,92312,1,0,0:0:0:0:
20,128,92505,6,0,P|32:72|82:40,1,120,4|0,0:0|1:0,0:0:0:0:
200,60,93274,2,0,P|292:68|364:24,2,180,2|2|0,0:0|0:0|1:0,0:0:0:0:
124,152,94812,1,2,0:0:0:0:
172,260,95197,1,0,1:0:0:0:
288,224,95581,5,4,0:0:0:0:
92,308,98658,6,0,P|148:328|205:315,1,120,6|8,0:0|0:0,0:0:0:0:
256,284,99235,1,0,0:0:0:0:
306,315,99428,2,0,P|364:328|420:308,1,120,2|8,0:0|0:0,0:0:0:0:
472,200,100197,2,0,P|432:156|440:84,1,120,2|8,0:0|0:0,0:0:0:0:
416,40,100774,1,0,0:0:0:0:
416,40,100966,2,0,L|224:64,1,180,2|2,0:0|0:0,0:0:0:0:
136,212,102120,6,0,P|92:292|196:364,1,240,8|8,0:0|0:0,0:0:0:0:
317,364,103274,2,0,P|420:292|376:212,1,240,2|2,0:0|0:0,0:0:0:0:
316,204,104235,2,0,P|284:200|264:181,1,60,0|8,0:0|0:0,0:0:0:0:
216,72,104812,6,0,P|156:84|105:58,1,120,2|8,0:0|0:0,0:0:0:0:
44,48,105389,1,0,0:0:0:0:
44,48,105581,2,0,L|28:166,1,120,2|8,0:0|0:0,0:0:0:0:
72,280,106351,1,2,0:0:0:0:
176,340,106735,1,8,0:0:0:0:
260,256,107120,2,0,P|336:232|415:283,1,180,2|2,0:0|0:0,0:0:0:0:
512,136,108274,6,0,P|456:116|432:64,1,120,8|2,0:0|0:0,0:0:0:0:
320,20,109043,1,8,0:0:0:0:
256,124,109428,1,4,0:0:0:0:
192,20,109812,1,8,0:0:0:0:
80,64,110197,2,0,P|56:116|0:136,1,120,2|8,0:0|0:0,0:0:0:0:
8,256,110966,5,4,0:0:0:0:
96,336,111351,2,0,P|152:344|205:314,2,120,8|2|8,0:0|0:0|0:0,0:0:0:0:
128,220,112505,2,0,P|181:190|237:198,1,120,2|8,0:0|0:0,0:0:0:0:
284,236,113081,1,2,0:0:0:0:
396,280,113466,2,0,P|444:248|460:190,1,120,2|2,0:0|0:0,0:0:0:0:
340,64,114428,6,0,P|288:36|230:46,1,120,8|2,0:0|0:0,0:0:0:0:
156,140,115197,2,0,P|208:168|265:157,1,120,8|2,0:0|0:0,0:0:0:0:
384,172,115966,2,0,L|356:288,1,120,8|8,0:0|0:0,0:0:0:0:
236,308,116735,1,8,0:0:0:0:
236,308,116928,6,2,P|160:328|84:270,1,180,2|8,0:0|0:0,0:0:0:0:
124,156,117889,2,0,P|176:128|196:73,1,120,2|8,0:0|0:0,0:0:0:0:
315,73,118658,2,0,P|336:128|388:156,1,120,2|8,0:0|0:0,0:0:0:0:
448,160,119235,2,2,P|488:200|452:312,1,180,2|8,0:0|0:0,0:0:0:0:
256,192,120197,12,4,123274,0:0:0:0:
256,192,123658,5,2,0:3:0:0:
200,296,124043,2,0,P|256:316|312:296,1,120,2|2,0:0|0:3,0:0:0:0:
420,248,124812,2,0,P|440:192|420:136,1,120,2|2,0:0|0:3,0:0:0:0:
312,80,125581,2,0,P|256:60|200:80,1,120,2|2,0:0|0:3,0:0:0:0:
95,137,126351,6,0,P|76:192|96:248,2,120,4|2|2,0:0|0:3|0:0,0:0:0:0:
188,60,127505,1,2,0:3:0:0:
304,84,127889,2,0,P|360:96|409:63,1,120,2|2,0:0|0:3,0:0:0:0:
468,56,128466,1,0,0:0:0:0:
468,56,128658,2,0,L|480:116,2,60,0|4|0,0:0|0:0|0:0,0:0:0:0:
352,24,129428,5,4,0:0:0:0:
232,24,129812,2,0,P|132:40|82:158,1,240,2|2,0:3|0:3,0:0:0:0:
84,280,130966,2,0,P|96:340|144:372,1,120,2|2,0:0|0:3,0:0:0:0:
200,268,131735,2,0,L|251:237,2,60,0|4|0,0:0|0:0|0:0,0:0:0:0:
284,356,132505,5,4,0:0:0:0:
400,320,132889,2,0,L|496:248,1,120,2|2,0:3|0:0,0:0:0:0:
512,188,133466,1,4,0:0:0:0:
508,128,133658,1,0,0:0:0:0:
424,44,134043,2,0,P|368:32|311:53,1,120,2|2,0:0|0:3,0:0:0:0:
256,160,134812,2,0,L|256:228,2,60,0|4|0,0:0|0:0|0:0,0:0:0:0:
168,76,135581,5,4,0:0:0:0:
256,192,147889,12,0,150966,0:0:0:0:
256,104,151735,5,0,0:0:0:0:
176,192,152120,1,0,0:0:0:0:
256,280,152505,1,0,0:0:0:0:
336,192,152889,1,0,0:0:0:0:
444,248,153274,2,0,P|464:192|444:132,1,120,0|0,0:0|0:0,0:0:0:0:
360,48,154043,6,0,P|304:64|245:47,1,120,2|8,0:0|0:0,0:0:0:0:
184,44,154620,1,0,0:0:0:0:
184,44,154812,2,0,P|200:100|183:158,1,120,2|8,0:0|0:0,0:0:0:0:
98,242,155581,2,0,P|81:300|97:356,1,120,2|8,0:0|0:0,0:0:0:0:
156,364,156158,1,0,0:0:0:0:
200,324,156351,2,0,P|284:292|366:319,1,180,2|2,0:0|0:0,0:0:0:0:
496,192,157505,6,0,L|508:128,1,60,8|2,0:0|0:0,0:0:0:0:
388,120,158081,2,0,L|399:61,1,60,2|8,0:0|0:0,0:0:0:0:
276,56,158658,1,0,0:0:0:0:
276,56,158851,2,0,P|220:68|188:118,1,120,2|0,0:0|0:0,0:0:0:0:
180,180,159428,1,2,0:0:0:0:
140,292,159812,1,8,0:0:0:0:
248,348,160197,6,0,P|364:352|436:256,1,240,6|2,0:0|0:0,0:0:0:0:
336,192,161351,1,8,0:0:0:0:
435,122,161735,2,0,P|364:32|248:36,1,240,2|2,0:0|0:0,0:0:0:0:
128,44,162889,2,0,P|100:48|68:44,1,60,8|2,0:0|0:0,0:0:0:0:
16,212,163658,5,8,0:0:0:0:
72,320,164043,2,0,P|128:332|181:304,1,120,2|8,0:0|0:0,0:0:0:0:
256,208,164812,1,4,0:0:0:0:
330,304,165197,2,0,P|384:332|440:320,1,120,8|2,0:0|0:0,0:0:0:0:
496,212,165966,1,8,0:0:0:0:
512,156,166158,1,0,0:0:0:0:
480,104,166351,5,4,0:0:0:0:
376,160,166735,2,0,P|320:176|266:151,2,120,8|2|8,0:0|0:0|0:0,0:0:0:0:
332,48,167889,2,0,P|278:23|222:39,1,120,2|8,0:0|0:0,0:0:0:0:
196,92,168466,2,0,P|164:168|77:201,1,180,2|8,0:0|0:0,0:0:0:0:
32,164,169235,1,0,0:0:0:0:
32,164,169428,5,4,0:0:0:0:
12,284,169812,1,8,0:0:0:0:
116,340,170197,2,0,P|172:336|208:288,1,120,2|8,0:0|0:0,0:0:0:0:
256,176,170966,1,2,0:0:0:0:
304,288,171351,2,0,P|340:336|396:340,2,120,8|8|8,0:0|0:0|0:0,0:0:0:0:
328,232,172312,6,2,P|372:200|368:72,1,180,2|8,0:0|0:0,0:0:0:0:
260,48,173274,2,0,P|232:36|202:34,1,60,2|0,0:0|0:0,0:0:0:0:
148,60,173658,2,0,P|100:96|86:152,1,120,8|2,0:0|0:0,0:0:0:0:
168,240,174428,1,8,0:0:0:0:
168,240,174620,2,2,P|224:260|252:368,1,180,2|8,0:0|0:0,0:0:0:0:
256,192,175581,12,4,178658,0:0:0:0:
