osu file format v6

[General]
AudioFilename: Pangya Season 4_ Delight eyoutube.com .MP3
AudioLeadIn: 0
PreviewTime: -1
Countdown: 1
SampleSet: Soft
StackLeniency: 0.7
Mode: 0
LetterboxInBreaks: 1

[Editor]
DistanceSpacing: 0.800000011920929
BeatDivisor: 6
GridSize: 32

[Metadata]
Title:Season 4 pangya delight
Artist:Pangya
Creator:Lowkyx
Version:WEEEE
Source:pangya
Tags:pangya

[Difficulty]
HPDrainRate:5
CircleSize:5
OverallDifficulty:5
SliderMultiplier:1.5
SliderTickRate:2

[Events]
//Background and Video events
0,0,"003577.jpg"
//Break Periods
2,22434,36333
//Storyboard Layer 0 (Background)
//Storyboard Layer 1 (Fail)
//Storyboard Layer 2 (Pass)
//Storyboard Layer 3 (Foreground)
//Storyboard Sound Samples
//Background Colour Transformations
3,100,163,162,255

[TimingPoints]
37159.9552238806,447.761194029851,4,2,0,100,1,0

[HitObjects]
160,96,14995,1,0
224,96,15294,1,0
256,96,15965,1,0
320,96,16264,1,0
352,128,16637,1,0
384,96,17010,1,0
384,160,17383,1,0
448,192,17756,1,0
384,224,17980,1,0
128,256,21637,5,0
192,192,21936,1,0
256,160,22234,1,0
96,256,37533,5,0
224,224,38055,1,0
352,128,39025,5,0
224,128,39324,1,0
192,160,39771,1,0
288,192,40145,1,0
384,224,40443,1,0
192,288,41637,1,0
320,128,42010,1,0
192,160,42309,1,0
128,64,42682,1,0
224,64,43130,1,0
224,224,45219,5,0
352,192,45592,1,0
288,128,45891,1,0
128,192,47010,1,0
192,224,47309,1,0
192,256,47533,1,0
128,288,47831,1,0
96,256,48428,1,0
192,192,50742,1,0
256,192,50965,1,0
256,256,51189,1,0
192,256,51488,1,0
224,160,53353,1,0
320,160,53801,1,0
256,64,54398,1,0
448,256,56562,2,0,B|288:256,1,150
128,256,57980,1,0
192,192,58204,1,0
224,160,58428,1,0
160,96,58727,1,0
96,160,58950,1,0
256,352,62980,1,0
192,288,63428,1,0
256,256,63801,1,0
192,192,64249,1,0
256,192,64697,1,0
160,128,65219,1,0
224,64,65667,1,0
288,32,66115,1,0
64,128,69771,1,0
320,160,70443,1,0
288,224,70667,1,0
160,192,71115,1,0
448,96,72085,5,0
288,96,72533,1,0
224,192,73055,1,0
320,224,73428,1,0
160,224,74100,1,0
192,128,74324,1,0
416,224,75667,5,0
224,160,76115,1,0
224,256,76562,1,0
320,192,77010,1,0
448,128,77682,1,0
320,64,77980,1,0
256,192,78876,5,0
128,96,79324,1,0
192,256,79771,1,0
320,288,80219,1,0
448,320,80742,1,0
448,96,82980,5,0
352,64,83428,1,0
320,160,83727,1,0
320,256,84100,1,0
448,256,84324,1,0
288,320,84995,1,0
192,320,85294,1,0
160,128,85742,1,0
96,128,86115,1,0
64,224,86637,1,0
224,64,87980,5,0
224,192,88652,1,0
288,192,88876,1,0
256,256,89324,1,0
192,256,89771,1,0
160,160,90219,1,0
256,128,90667,1,0
64,192,94100,5,0
160,192,94324,1,0
224,192,94697,1,0
288,192,95070,1,0
352,192,95294,1,0
96,128,98876,5,0
96,192,99324,1,0
160,192,99771,1,0
160,128,100219,1,0
96,128,100742,1,0
96,192,101189,1,0
160,192,101637,1,0
160,128,102085,1,0
224,128,102533,1,0
288,128,102980,1,0
320,128,103428,1,0
352,128,103876,1,0
416,128,104398,1,0
448,128,104846,1,0
448,128,105294,1,0
128,192,106115,1,0
256,208,108279,12,0,112159
