osu file format v14

[General]
AudioFilename: Panda Eyes - KIKO.mp3
AudioLeadIn: 0
PreviewTime: 174038
Countdown: 1
SampleSet: Soft
StackLeniency: 0.7
Mode: 0
LetterboxInBreaks: 1
WidescreenStoryboard: 1

[Editor]
Bookmarks: 227066,241184,242596,244008,249655,252478,260949,263772,265184,266596,268008,272243,275066,276478,277890,279302,283537,286360,287772,289184,290596,293874,294935,310772
DistanceSpacing: 1
BeatDivisor: 4
GridSize: 4
TimelineZoom: 1

[Metadata]
Title:KIKO
TitleUnicode:KIKO
Artist:Panda Eyes
ArtistUnicode:Panda Eyes
Creator:Timorisu
Version:Joy
Source:
Tags:
BeatmapID:856519
BeatmapSetID:330466

[Difficulty]
HPDrainRate:5
CircleSize:4
OverallDifficulty:9
ApproachRate:9.6
SliderMultiplier:1.6
SliderTickRate:1

[Events]
//Background and Video events
0,0,"stellar_collision_by_kuldarleement-d6kvnyd.jpg",0,0
//Break Periods
//Storyboard Layer 0 (Background)
//Storyboard Layer 1 (Fail)
//Storyboard Layer 2 (Pass)
//Storyboard Layer 3 (Foreground)
//Storyboard Sound Samples

[TimingPoints]
448,545.454545454546,4,2,1,15,1,0
17902,-133.333333333333,4,2,1,15,0,0
26629,-100,4,2,1,15,0,0
30993,-111.111111111111,4,2,1,15,0,0
33175,-100,4,2,1,15,0,0
37538,-100,4,2,1,5,0,0
39720,-100,4,2,1,11,0,0
41902,-100,4,2,1,17,0,0
44084,-100,4,2,1,23,0,0
46266,-100,4,2,1,29,0,0
48448,-100,4,2,1,35,0,0
50629,-100,4,2,1,41,0,0
52811,-66.6666666666667,4,2,1,75,0,1
69720,-66.6666666666667,4,2,1,75,0,0
70266,-66.6666666666667,4,2,1,75,0,1
87720,-100,4,2,1,50,0,0
105175,-66.6666666666667,4,2,1,75,0,1
122629,-66.6666666666667,4,2,1,25,0,0
123175,-66.6666666666667,4,2,1,35,0,0
123720,-66.6666666666667,4,2,1,45,0,0
124266,-66.6666666666667,4,2,1,55,0,0
124811,-66.6666666666667,4,2,1,75,0,1
140084,-100,4,2,1,50,0,0
174993,-100,4,2,1,75,0,1
192448,-100,4,2,1,50,0,0
194629,-66.6666666666667,4,2,1,75,0,1
209902,530.973451327434,4,2,1,50,1,0
209902,-100,4,2,1,50,0,0
212025,480,4,2,1,50,1,0
213945,437.956204379562,4,2,1,50,1,0
215696,405.405405405405,4,2,1,50,1,0
217317,370.37037037037,4,2,1,50,1,0
218798,350.877192982456,4,2,1,50,1,0
223008,352.941176470588,4,2,1,50,1,0
223008,-66.6666666666667,4,2,1,75,0,1
234302,-100,4,2,1,50,0,0
235713,-66.6666666666667,4,2,1,75,0,1
245596,-100,4,2,1,50,0,0
247008,-100,4,2,1,40,0,0
256890,-100,4,2,1,50,0,0
258302,-66.6666666666667,4,2,1,75,0,1
268184,-100,4,2,1,50,0,0
269596,-66.6666666666667,4,2,1,75,0,1
279478,-100,4,2,1,50,0,0
280890,-66.6666666666667,4,2,1,75,0,1
290772,1052.63157894737,3,2,1,50,1,0
290772,-100,4,2,1,50,0,0
290860,-100,4,2,1,5,0,0

[Colours]
Combo1 : 255,23,23
Combo2 : 164,184,255
Combo3 : 255,182,108
Combo4 : 190,155,255
Combo5 : 255,117,117
Combo6 : 0,57,255
Combo7 : 240,120,0
Combo8 : 118,45,255

[HitObjects]
404,48,448,6,0,B|352:140|256:112|192:108|144:196|196:288|256:288|316:288|368:196|320:108|256:112|160:140|108:48,1,640,2|2,0:0|0:0,0:0:0:0:
28,116,4811,6,0,B|64:172|144:204|144:204|152:300|224:316|256:324|288:316|360:300|368:204|368:204|448:172|484:116,1,640,2|2,0:0|0:0,0:0:0:0:
416,128,9175,6,0,B|352:96|256:128|256:128|192:192|192:256|256:288|320:256|320:192|256:128|256:128|160:96|96:128,1,640,2|2,0:0|0:0,0:0:0:0:
0,192,13538,6,0,B|64:256|128:256|128:256|160:352|256:392|352:352|384:256|384:256|448:256|512:192,1,640,2|2,0:0|0:0,0:0:0:0:
480,28,17902,70,0,B|444:128|444:128|516:256|516:256|480:356,1,360.000013732911,2|0,0:0|0:0,0:0:0:0:
424,256,20084,2,0,B|348:199|235:237|273:274|178:312|84:256,1,360.000013732911,2|0,0:0|0:0,0:0:0:0:
32,356,22266,6,0,B|-4:256|-4:256|68:128|68:128|32:28,1,360.000013732911,2|0,0:0|0:0,0:0:0:0:
160,8,24448,2,0,B|196:108|196:108|208:136|236:148|256:140|276:148|304:136|316:108|316:108|352:8,1,360.000013732911,2|0,0:0|0:0,0:0:0:0:
388,132,26629,6,0,B|364:184|332:208|288:220|256:220|256:220|192:216|160:328|256:368|352:328|320:216|256:220|256:220|224:220|180:208|148:184|124:132,1,640,2|2,0:0|0:0,0:0:0:0:
44,132,30993,6,0,B|48:80|72:48|136:24|184:64|200:100|200:100|212:128|256:149|300:128|312:100|312:100|328:64|376:24|440:48|464:80|468:132,1,575.999982421876,2|2,0:0|0:0,0:0:0:0:
256,192,33311,12,4,35357,1:2:0:0:
256,192,35493,12,2,37538,0:0:0:0:
256,72,38084,70,0,L|296:60,3,40,2|0|2|0,0:0|0:0|0:0|0:0,0:0:0:0:
284,140,38629,2,0,L|324:128,3,40,2|0|2|0,0:0|0:0|0:0|0:0,0:0:0:0:
312,208,39175,2,0,L|350:196,3,40,2|0|2|0,0:0|0:0|0:0|0:0,0:0:0:0:
339,276,39720,6,0,P|281:275|242:231,1,120,2|0,0:0|0:0,0:0:0:0:
216,164,40266,2,0,L|201:126,3,40,2|0|2|0,0:0|0:0|0:0|0:0,0:0:0:0:
148,192,40811,2,0,L|110:206,3,40,2|0|2|0,0:0|0:0|0:0|0:0,0:0:0:0:
176,260,41357,2,0,L|190:297,3,40,2|0|2|0,0:0|0:0|0:0|0:0,0:0:0:0:
242,231,41902,6,0,P|284:190|282:132,1,120,2|0,0:0|0:0,0:0:0:0:
220,92,42448,1,2,0:0:0:0:
160,52,42584,2,0,L|126:30,2,40,0|2|0,0:0|0:0|0:0,0:0:0:0:
220,92,42993,1,2,0:0:0:0:
180,152,43129,2,0,L|158:185,2,40,0|2|0,0:0|0:0|0:0,0:0:0:0:
220,92,43538,1,2,0:0:0:0:
282,132,43675,2,0,L|315:153,2,40,0|2|0,0:0|0:0|0:0,0:0:0:0:
220,92,44084,6,0,P|211:149|247:195,1,120,2|0,0:0|0:0,0:0:0:0:
308,236,44629,1,2,0:0:0:0:
368,276,44766,2,0,L|401:298,2,40,0|2|0,0:0|0:0|0:0,0:0:0:0:
376,192,45175,1,2,0:0:0:0:
315,154,45312,2,0,L|282:132,2,40,0|2|0,0:0|0:0|0:0,0:0:0:0:
324,71,45720,1,2,0:0:0:0:
384,108,45857,2,0,L|417:130,2,40,0|2|0,0:0|0:0|0:0,0:0:0:0:
391,23,46266,70,0,P|344:-10|286:-3,1,120,2|0,0:0|0:0,0:0:0:0:
220,32,46811,2,0,L|186:54,1,40,2|0,0:0|0:0,0:0:0:0:
101,127,47084,2,0,L|135:105,1,40,2|0,0:0|0:0,0:0:0:0:
248,100,47357,2,0,L|214:122,1,40,2|0,0:0|0:0,0:0:0:0:
129,195,47630,2,0,L|162:172,1,40,2|0,0:0|0:0,0:0:0:0:
276,168,47902,2,0,L|242:190,1,40,2|0,0:0|0:0,0:0:0:0:
157,263,48175,2,0,L|190:240,1,40,2|0,0:0|0:0,0:0:0:0:
304,235,48448,6,0,P|344:194|341:135,1,120,2|0,0:0|0:0,0:0:0:0:
320,68,48993,2,0,L|307:30,1,40,2|0,0:0|0:0,0:0:0:0:
235,62,49266,2,0,L|248:100,1,40,2|0,0:0|0:0,0:0:0:0:
216,200,49538,2,0,L|203:162,1,40,2|0,0:0|0:0,0:0:0:0:
129,195,49811,2,0,L|141:232,1,40,2|0,0:0|0:0,0:0:0:0:
108,332,50084,2,0,L|95:294,1,40,2|0,0:0|0:0,0:0:0:0:
23,326,50357,2,0,L|36:364,1,40,2|0,0:0|0:0,0:0:0:0:
108,332,50629,6,0,L|70:218,1,120,2|0,0:0|0:0,0:0:0:0:
43,151,51175,1,2,0:0:0:0:
42,80,51311,1,0,0:0:0:0:
85,22,51447,1,2,0:0:0:0:
154,3,51584,1,0,0:0:0:0:
256,80,51720,1,2,0:0:0:0:
257,151,51856,1,0,0:0:0:0:
214,209,51992,1,2,0:0:0:0:
145,228,52129,1,0,0:0:0:0:
43,151,52266,1,2,1:2:0:0:
256,80,52811,70,0,P|325:130|298:209,1,180.000006866455,4|0,1:2|0:0,0:0:0:0:
43,151,53357,1,0,1:0:0:0:
257,151,53493,69,2,0:0:0:0:
85,22,53629,1,2,0:0:0:0:
145,228,53766,2,0,L|161:285,1,60.0000022888184,2|0,0:0|1:0,0:0:0:0:
326,132,54038,5,2,0:0:0:0:
154,3,54174,1,2,0:0:0:0:
214,209,54311,2,0,L|230:266,1,60.0000022888184,2|0,0:0|1:0,0:0:0:0:
395,113,54584,5,2,0:0:0:0:
154,3,54720,1,2,0:0:0:0:
145,228,54857,5,2,0:0:0:0:
385,338,54993,2,0,P|417:258|362:192,1,180.000006866455,0|0,1:0|0:0,0:0:0:0:
145,228,55538,1,0,1:0:0:0:
336,272,55675,69,2,0:0:0:0:
280,84,55811,1,2,0:0:0:0:
145,228,55948,2,0,L|102:270,1,60.0000022888184,2|0,0:0|1:0,0:0:0:0:
361,162,56220,5,2,0:0:0:0:
170,116,56356,1,2,0:0:0:0:
228,305,56493,2,0,L|243:363,1,60.0000022888184,2|0,0:0|1:0,0:0:0:0:
280,84,56766,5,2,0:0:0:0:
145,228,56903,1,2,0:0:0:0:
336,272,57038,5,2,0:0:0:0:
470,127,57175,2,0,P|416:59|329:49,1,180.000006866455,0|0,1:0|0:0,0:0:0:0:
145,228,57720,1,0,1:0:0:0:
361,162,57857,69,2,0:0:0:0:
170,116,57993,1,2,0:0:0:0:
336,272,58129,2,0,L|379:313,1,60.0000022888184,2|0,0:2|1:0,0:0:0:0:
280,84,58402,5,2,0:0:0:0:
145,228,58538,1,2,0:0:0:0:
361,162,58674,2,0,L|418:144,1,60.0000022888184,2|0,0:2|1:0,0:0:0:0:
170,116,58948,5,2,0:0:0:0:
228,305,59084,1,2,0:0:0:0:
280,84,59220,5,2,0:2:0:0:
336,272,59357,2,0,P|423:257|471:184,1,180.000006866455,0|0,1:0|0:0,0:0:0:0:
280,84,59902,1,0,1:0:0:0:
145,228,60038,69,2,0:0:0:0:
336,272,60175,1,2,0:0:0:0:
170,116,60311,2,0,L|125:75,1,60.0000022888184,2|0,0:0|1:0,0:0:0:0:
100,280,60584,5,2,0:0:0:0:
291,324,60721,1,2,0:0:0:0:
124,168,60857,2,0,L|79:127,1,60.0000022888184,2|0,0:0|1:0,0:0:0:0:
55,332,61129,5,2,0:0:0:0:
246,376,61266,1,2,0:0:0:0:
76,220,61402,5,2,0:0:0:0:
268,263,61538,2,0,P|326:204|399:246,1,180.000006866455,0|0,1:0|0:0,0:0:0:0:
145,228,62084,1,0,1:0:0:0:
280,84,62220,69,2,0:0:0:0:
471,128,62357,1,2,0:0:0:0:
336,272,62493,2,0,L|295:315,1,60.0000022888184,2|0,0:0|1:0,0:0:0:0:
388,51,62766,5,2,0:0:0:0:
445,238,62903,1,2,0:0:0:0:
253,193,63039,2,0,L|195:179,1,60.0000022888184,2|0,0:0|1:0,0:0:0:0:
471,128,63311,5,2,0:0:0:0:
336,272,63448,1,2,0:0:0:0:
280,84,63584,5,2,0:0:0:0:
145,228,63720,2,0,P|87:288|12:250,1,180.000006866455,0|0,1:0|0:0,0:0:0:0:
280,84,64266,1,0,1:0:0:0:
336,272,64402,69,2,0:0:0:0:
171,116,64538,1,2,0:0:0:0:
445,238,64675,2,0,L|500:262,1,60.0000022888184,2|0,0:0|1:0,0:0:0:0:
226,305,64948,5,2,0:0:0:0:
61,149,65084,1,2,0:0:0:0:
336,272,65221,2,0,L|390:296,1,60.0000022888184,2|0,0:0|1:0,0:0:0:0:
61,149,65493,5,2,0:0:0:0:
280,84,65629,1,2,0:0:0:0:
226,305,65766,5,2,0:0:0:0:
445,238,65902,2,0,P|389:170|302:161,1,180.000006866455,0|0,1:0|0:0,0:0:0:0:
61,149,66448,1,0,1:0:0:0:
226,305,66584,69,2,0:0:0:0:
171,116,66720,1,2,0:0:0:0:
445,238,66857,2,0,L|500:262,1,60.0000022888184,2|0,0:0|1:0,0:0:0:0:
229,227,67129,5,2,0:0:0:0:
174,38,67265,1,2,0:0:0:0:
448,160,67402,2,0,L|503:184,1,60.0000022888184,2|0,0:0|1:0,0:0:0:0:
226,305,67675,5,2,0:0:0:0:
174,38,67811,1,2,0:0:0:0:
451,82,67948,5,2,0:0:0:0:
371,383,68084,2,0,P|437:325|445:238,1,180.000006866455,0|0,1:0|0:0,0:0:0:0:
171,116,68629,1,0,1:0:0:0:
388,51,68766,69,2,0:0:0:0:
445,238,68903,1,2,0:0:0:0:
253,193,69039,2,0,L|195:179,1,60.0000022888184,2|0,0:0|1:0,0:0:0:0:
416,144,69311,5,2,0:0:0:0:
473,331,69448,1,2,0:0:0:0:
281,286,69584,1,0,0:0:0:0:
388,51,69720,1,0,1:0:0:0:
388,51,70266,6,0,P|318:105|230:98,1,180.000006866455,6|0,1:2|0:0,0:0:0:0:
123,333,70811,2,0,P|193:279|281:286,1,180.000006866455,2|0,1:2|0:0,0:0:0:0:
473,331,71357,1,0,1:0:0:0:
416,144,71493,5,2,0:0:0:0:
224,96,71629,1,2,0:0:0:0:
281,286,71766,1,2,0:0:0:0:
445,238,71902,69,0,1:0:0:0:
388,51,72038,5,2,0:0:0:0:
196,3,72174,1,2,0:0:0:0:
253,193,72311,1,2,0:0:0:0:
445,238,72448,6,0,P|508:177|499:91,1,180.000006866455,2|0,1:2|0:0,0:0:0:0:
196,3,72993,2,0,L|213:60,1,60.0000022888184,2|0,1:2|0:0,0:0:0:0:
416,144,73266,2,0,L|398:86,1,60.0000022888184,2|0,0:0|0:0,0:0:0:0:
281,286,73538,6,0,P|343:225|334:139,1,180.000006866455,2|0,1:2|0:0,0:0:0:0:
32,52,74083,2,0,L|49:109,1,60.0000022888184,2|0,1:2|0:0,0:0:0:0:
253,193,74356,2,0,L|235:135,1,60.0000022888184,2|0,0:0|0:0,0:0:0:0:
120,336,74629,70,0,P|182:275|173:189,1,180.000006866455,2|0,1:2|0:0,0:0:0:0:
392,48,75175,2,0,P|330:109|339:195,1,180.000006866455,2|0,1:2|0:0,0:0:0:0:
473,331,75720,1,0,1:0:0:0:
416,144,75857,5,2,0:0:0:0:
224,96,75993,1,2,0:0:0:0:
281,286,76130,1,2,0:0:0:0:
473,331,76266,5,0,1:0:0:0:
416,144,76402,5,2,0:0:0:0:
281,286,76538,1,2,0:0:0:0:
224,96,76675,1,2,0:0:0:0:
88,237,76811,70,0,P|59:156|106:83,1,180.000006866455,2|0,1:2|0:0,0:0:0:0:
416,144,77357,2,0,P|445:225|398:298,1,180.000006866455,2|0,1:2|0:0,0:0:0:0:
88,237,77902,1,0,1:0:0:0:
224,96,78038,5,2,0:0:0:0:
281,286,78175,1,2,0:0:0:0:
416,144,78311,1,2,0:0:0:0:
88,237,78448,5,0,1:0:0:0:
416,144,78584,5,2,0:0:0:0:
281,286,78720,1,2,0:0:0:0:
224,96,78857,1,2,0:0:0:0:
88,237,78993,70,0,P|80:322|145:381,1,180.000006866455,2|0,1:2|0:0,0:0:0:0:
416,144,79538,2,0,P|423:58|358:0,1,180.000006866455,2|0,1:2|0:0,0:0:0:0:
88,237,80084,1,0,1:0:0:0:
281,286,80220,5,2,0:0:0:0:
416,144,80357,1,2,0:0:0:0:
224,96,80493,1,2,0:0:0:0:
184,264,80629,5,0,1:0:0:0:
384,308,80765,5,2,0:0:0:0:
512,164,80902,1,2,0:0:0:0:
320,120,81038,1,2,0:0:0:0:
88,237,81175,70,0,P|59:156|106:83,1,180.000006866455,2|0,1:2|0:0,0:0:0:0:
416,144,81720,2,0,L|474:156,1,60.0000022888184,2|0,1:2|0:0,0:0:0:0:
281,286,81993,2,0,L|222:273,1,60.0000022888184,2|0,0:0|0:0,0:0:0:0:
416,144,82266,6,0,P|445:225|398:298,1,180.000006866455,2|0,1:2|0:0,0:0:0:0:
88,237,82811,2,0,L|29:224,1,60.0000022888184,2|0,1:2|0:0,0:0:0:0:
224,96,83084,2,0,L|282:108,1,60.0000022888184,2|0,0:0|0:0,0:0:0:0:
88,237,83357,6,0,P|59:156|106:83,1,180.000006866455,2|0,1:2|0:0,0:0:0:0:
416,144,83902,2,0,P|445:225|398:298,1,180.000006866455,2|0,1:2|0:0,0:0:0:0:
184,264,84448,1,0,1:0:0:0:
224,96,84584,5,2,0:0:0:0:
384,308,84720,1,2,0:0:0:0:
320,120,84857,1,2,0:0:0:0:
88,237,84993,69,0,1:0:0:0:
128,72,85129,5,2,0:0:0:0:
281,286,85265,1,2,0:0:0:0:
224,96,85402,1,2,0:0:0:0:
384,308,85538,6,0,P|431:235|402:153,1,180.000006866455,2|0,1:2|0:0,0:0:0:0:
128,72,86084,2,0,P|80:144|109:226,1,180.000006866455,2|0,1:2|0:0,0:0:0:0:
281,286,86629,1,0,1:0:0:0:
50,268,86766,5,2,0:0:0:0:
340,244,86902,1,2,0:0:0:0:
109,226,87039,1,2,0:0:0:0:
360,172,87175,69,0,1:0:0:0:
129,154,87312,5,2,0:0:0:0:
324,108,87448,1,2,0:0:0:0:
93,90,87585,1,2,0:0:0:0:
256,80,87720,69,0,1:0:0:0:
256,80,88266,2,0,L|216:68,3,40,2|0|2|0,0:0|0:0|0:0|0:0,0:0:0:0:
228,148,88811,2,0,L|188:136,3,40,2|0|2|0,0:0|0:0|0:0|0:0,0:0:0:0:
200,216,89357,2,0,L|162:204,3,40,2|0|2|0,0:0|0:0|0:0|0:0,0:0:0:0:
173,284,89902,6,0,P|231:283|270:239,1,120,2|0,0:0|0:0,0:0:0:0:
296,172,90448,2,0,L|311:134,3,40,2|0|2|0,0:0|0:0|0:0|0:0,0:0:0:0:
364,200,90993,2,0,L|402:214,3,40,2|0|2|0,0:0|0:0|0:0|0:0,0:0:0:0:
336,268,91539,2,0,L|322:305,3,40,2|0|2|0,0:0|0:0|0:0|0:0,0:0:0:0:
270,239,92084,70,0,P|228:198|230:140,1,120,2|0,0:0|0:0,0:0:0:0:
292,100,92630,1,2,0:0:0:0:
352,60,92766,2,0,L|386:38,2,40,0|2|0,0:0|0:0|0:0,0:0:0:0:
292,100,93175,1,2,0:0:0:0:
332,160,93311,2,0,L|354:193,2,40,0|2|0,0:0|0:0|0:0,0:0:0:0:
292,100,93720,1,2,0:0:0:0:
230,140,93857,2,0,L|197:161,2,40,0|2|0,0:0|0:0|0:0,0:0:0:0:
292,100,94266,6,0,P|301:157|265:203,1,120,2|0,0:0|0:0,0:0:0:0:
204,244,94811,1,2,0:0:0:0:
144,284,94948,2,0,L|111:306,2,40,0|2|0,0:0|0:0|0:0,0:0:0:0:
136,200,95357,1,2,0:0:0:0:
197,162,95494,2,0,L|230:140,2,40,0|2|0,0:0|0:0|0:0,0:0:0:0:
188,79,95902,1,2,0:0:0:0:
128,116,96039,2,0,L|95:138,2,40,0|2|0,0:0|0:0|0:0,0:0:0:0:
121,31,96448,6,0,P|168:-2|226:5,1,120,2|0,0:0|0:0,0:0:0:0:
292,40,96993,2,0,L|326:62,1,40,2|0,0:0|0:0,0:0:0:0:
377,113,97266,2,0,L|411:135,1,40,2|0,0:0|0:0,0:0:0:0:
264,108,97539,2,0,L|298:130,1,40,2|0,0:0|0:0,0:0:0:0:
350,180,97812,2,0,L|383:203,1,40,2|0,0:0|0:0,0:0:0:0:
236,176,98084,2,0,L|270:198,1,40,2|0,0:0|0:0,0:0:0:0:
322,248,98357,2,0,L|355:271,1,40,2|0,0:0|0:0,0:0:0:0:
208,243,98629,6,0,P|168:202|171:143,1,120,2|0,0:0|0:0,0:0:0:0:
192,76,99175,2,0,L|205:38,1,40,2|0,0:0|0:0,0:0:0:0:
249,138,99448,2,0,L|236:176,1,40,2|0,0:0|0:0,0:0:0:0:
276,56,99720,2,0,L|289:18,1,40,2|0,0:0|0:0,0:0:0:0:
333,118,99993,2,0,L|320:156,1,40,2|0,0:0|0:0,0:0:0:0:
360,36,100266,2,0,L|373:-1,1,40,2|0,0:0|0:0,0:0:0:0:
417,98,100539,2,0,L|404:136,1,40,2|0,0:0|0:0,0:0:0:0:
444,16,100811,70,0,P|489:53|500:111,1,120,2|0,0:0|0:0,0:0:0:0:
467,226,101357,2,0,L|480:188,1,40,2|0,0:0|0:0,0:0:0:0:
417,98,101629,2,0,L|404:136,1,40,2|0,0:0|0:0,0:0:0:0:
359,258,101902,2,0,L|372:220,1,40,2|0,0:0|0:0,0:0:0:0:
309,130,102174,2,0,L|296:168,1,40,2|0,0:0|0:0,0:0:0:0:
251,290,102448,2,0,L|264:252,1,40,2|0,0:0|0:0,0:0:0:0:
200,160,102720,2,0,L|187:198,1,40,2|0,0:0|0:0,0:0:0:0:
141,320,102993,6,0,P|92:288|62:236,1,120,2|0,0:0|0:0,0:0:0:0:
44,164,103538,1,2,0:0:0:0:
43,93,103674,1,0,0:0:0:0:
86,35,103810,1,2,0:0:0:0:
155,16,103947,1,0,0:0:0:0:
256,96,104084,1,2,0:0:0:0:
257,167,104219,1,0,0:0:0:0:
214,225,104357,1,2,0:0:0:0:
145,244,104492,1,0,0:0:0:0:
44,164,104629,1,2,1:2:0:0:
256,96,105175,70,0,P|325:146|298:225,1,180.000006866455,4|0,1:2|0:0,0:0:0:0:
44,164,105721,1,0,1:0:0:0:
257,167,105857,5,2,0:0:0:0:
43,93,105993,1,2,0:0:0:0:
214,225,106130,2,0,L|230:282,1,60.0000022888184,2|0,0:0|1:0,0:0:0:0:
328,160,106402,69,2,0:0:0:0:
86,35,106538,1,2,0:0:0:0:
291,234,106675,2,0,L|307:291,1,60.0000022888184,2|0,0:0|1:0,0:0:0:0:
399,153,106948,5,2,0:0:0:0:
155,16,107084,1,2,0:0:0:0:
145,244,107220,5,2,0:0:0:0:
389,380,107357,2,0,P|424:303|368:240,1,180.000006866455,0|0,1:0|0:0,0:0:0:0:
76,228,107902,1,0,1:0:0:0:
224,32,108038,5,2,0:0:0:0:
291,234,108175,1,2,0:0:0:0:
76,228,108311,2,0,L|16:225,1,60.0000022888184,2|0,0:0|1:0,0:0:0:0:
248,100,108584,69,2,0:0:0:0:
315,302,108721,1,2,0:0:0:0:
100,296,108857,2,0,L|40:293,1,60.0000022888184,2|0,0:0|1:0,0:0:0:0:
272,168,109129,5,2,0:0:0:0:
339,370,109266,1,2,0:0:0:0:
124,364,109402,5,2,0:0:0:0:
248,100,109538,2,0,P|328:124|329:208,1,180.000006866455,0|0,1:0|0:0,0:0:0:0:
124,364,110084,1,0,1:0:0:0:
52,160,110220,5,2,0:0:0:0:
224,32,110357,1,2,0:0:0:0:
291,234,110493,2,0,L|308:291,1,60.0000022888184,2|0,0:0|1:0,0:0:0:0:
76,228,110766,69,2,0:0:0:0:
296,32,110903,1,2,0:0:0:0:
376,268,111039,2,0,L|393:325,1,60.0000022888184,2|0,0:0|1:0,0:0:0:0:
100,296,111311,5,2,0:0:0:0:
368,32,111448,1,2,0:0:0:0:
460,300,111584,5,2,0:0:0:0:
124,364,111720,2,0,P|43:341|40:256,1,180.000006866455,0|0,1:0|0:0,0:0:0:0:
291,234,112266,1,0,1:0:0:0:
224,32,112402,5,2,0:0:0:0:
52,160,112539,1,2,0:0:0:0:
291,234,112675,2,0,L|348:250,1,60.0000022888184,2|0,0:0|1:0,0:0:0:0:
296,32,112948,69,2,0:0:0:0:
76,228,113085,1,2,0:0:0:0:
304,308,113221,2,0,L|361:324,1,60.0000022888184,2|0,0:0|1:0,0:0:0:0:
368,32,113493,5,2,0:0:0:0:
100,296,113630,1,2,0:0:0:0:
320,380,113766,5,2,0:0:0:0:
152,32,113902,2,0,P|103:102|154:169,1,180.000006866455,0|0,1:0|0:0,0:0:0:0:
376,268,114448,1,0,1:0:0:0:
296,32,114584,69,2,0:0:0:0:
304,308,114720,1,2,0:0:0:0:
176,100,114857,2,0,L|152:32,1,60.0000022888184,2|0,0:0|1:0,0:0:0:0:
368,32,115129,5,2,0:0:0:0:
376,268,115265,1,2,0:0:0:0:
248,100,115402,2,0,L|224:32,1,60.0000022888184,2|0,0:0|1:0,0:0:0:0:
440,32,115675,5,2,0:0:0:0:
448,220,115811,1,2,0:0:0:0:
320,100,115948,5,2,0:0:0:0:
304,308,116084,2,0,P|377:351|449:304,1,180.000006866455,0|0,1:0|0:0,0:0:0:0:
320,100,116629,1,0,1:0:0:0:
208,316,116766,5,2,0:0:0:0:
449,304,116902,1,2,0:0:0:0:
320,100,117038,2,0,L|288:48,1,60.0000022888184,2|0,0:0|1:0,0:0:0:0:
213,182,117311,69,2,0:0:0:0:
331,365,117447,1,2,0:0:0:0:
432,172,117583,2,0,L|461:119,1,60.0000022888184,2|0,0:0|1:0,0:0:0:0:
320,128,117857,5,2,0:0:0:0:
231,300,117993,1,2,0:0:0:0:
424,296,118129,5,2,0:0:0:0:
213,182,118266,2,0,P|204:95|257:25,1,180.000006866455,0|0,1:0|0:0,0:0:0:0:
432,172,118811,1,0,1:0:0:0:
331,365,118948,5,2,0:0:0:0:
112,376,119084,1,2,0:0:0:0:
213,182,119220,2,0,L|241:129,1,60.0000022888184,2|0,0:0|1:0,0:0:0:0:
408,368,119493,69,2,0:0:0:0:
188,378,119629,1,2,0:0:0:0:
290,184,119765,2,0,L|317:130,1,60.0000022888184,2|0,0:0|1:0,0:0:0:0:
484,372,120038,5,2,0:0:0:0:
264,382,120174,1,2,0:0:0:0:
137,181,120311,5,2,0:0:0:0:
366,188,120448,2,0,P|431:239|497:188,1,180.000006866455,0|0,1:0|0:0,0:0:0:0:
392,0,120993,1,0,1:0:0:0:
292,142,121129,5,2,0:0:0:0:
136,0,121266,1,2,0:0:0:0:
137,181,121402,2,0,L|81:204,1,60.0000022888184,2|0,0:0|1:0,0:0:0:0:
314,210,121675,69,2,0:0:0:0:
104,68,121812,1,2,0:0:0:0:
80,276,121948,2,0,L|24:299,1,60.0000022888184,2|0,0:0|1:0,0:0:0:0:
255,253,122220,5,2,0:0:0:0:
72,136,122357,1,2,0:0:0:0:
24,376,122493,1,2,0:0:0:0:
255,253,122629,69,2,1:2:0:0:
314,210,122766,1,2,0:0:0:0:
292,142,122902,5,2,0:0:0:0:
220,142,123038,1,2,0:0:0:0:
198,210,123175,69,2,0:0:0:0:
325,286,123311,1,2,0:0:0:0:
367,156,123447,5,2,0:0:0:0:
256,75,123584,1,2,0:0:0:0:
145,156,123720,5,2,0:0:0:0:
187,286,123857,1,2,0:0:0:0:
256,75,123993,5,2,0:0:0:0:
325,286,124130,1,2,0:0:0:0:
145,156,124266,69,2,0:0:0:0:
367,156,124402,1,2,0:0:0:0:
187,286,124539,5,2,0:0:0:0:
256,75,124675,1,2,0:0:0:0:
325,286,124811,70,0,P|413:283|481:227,1,180.000006866455,4|0,1:2|0:0,0:0:0:0:
256,75,125357,1,0,1:0:0:0:
187,286,125493,5,2,0:0:0:0:
367,156,125630,1,2,0:0:0:0:
145,156,125766,2,0,L|85:156,1,60.0000022888184,2|0,0:0|1:0,0:0:0:0:
324,286,126038,69,2,0:0:0:0:
256,75,126175,1,2,0:0:0:0:
187,286,126311,2,0,L|168:343,1,60.0000022888184,2|0,0:0|1:0,0:0:0:0:
367,156,126584,5,2,0:0:0:0:
145,155,126721,1,2,0:0:0:0:
324,286,126857,5,2,0:0:0:0:
256,75,126993,2,0,P|327:24|416:28,1,180.000006866455,0|0,1:0|0:0,0:0:0:0:
324,286,127538,1,0,1:0:0:0:
145,155,127675,5,2,0:0:0:0:
367,156,127812,1,2,0:0:0:0:
186,286,127948,2,0,L|137:320,1,60.0000022888184,2|0,0:0|1:0,0:0:0:0:
100,140,128220,69,2,0:0:0:0:
411,141,128357,1,2,0:0:0:0:
256,324,128493,2,0,L|206:358,1,60.0000022888184,2|0,0:0|1:0,0:0:0:0:
56,125,128766,5,2,0:0:0:0:
455,127,128903,1,2,0:0:0:0:
324,364,129038,5,2,0:0:0:0:
184,128,129175,2,0,P|99:155|42:223,1,180.000006866455,0|0,1:0|0:0,0:0:0:0:
457,283,129720,1,0,1:0:0:0:
320,48,129857,5,2,0:0:0:0:
186,287,129992,1,2,0:0:0:0:
457,283,130129,2,0,L|516:282,1,60.0000022888184,2|0,0:0|1:0,0:0:0:0:
184,128,130402,69,2,0:0:0:0:
323,363,130539,1,2,0:0:0:0:
455,126,130676,2,0,L|485:74,1,60.0000022888184,2|0,0:0|1:0,0:0:0:0:
186,287,130948,5,2,0:0:0:0:
457,283,131085,1,2,0:0:0:0:
320,48,131220,5,2,0:0:0:0:
56,47,131357,2,0,P|30:132|56:217,1,180.000006866455,0|0,1:0|0:0,0:0:0:0:
457,283,131902,1,0,1:0:0:0:
186,287,132039,5,2,0:0:0:0:
455,126,132175,1,2,0:0:0:0:
184,128,132311,2,0,L|124:128,1,60.0000022888184,2|0,0:0|1:0,0:0:0:0:
232,336,132584,69,2,0:0:0:0:
408,80,132720,1,2,0:0:0:0:
116,196,132856,2,0,L|56:196,1,60.0000022888184,2|0,0:0|1:0,0:0:0:0:
280,384,133129,5,2,0:0:0:0:
360,32,133265,1,2,0:0:0:0:
48,264,133402,5,2,0:0:0:0:
504,175,133538,2,0,P|516:92|441:55,1,180.000006866455,0|0,1:0|0:0,0:0:0:0:
186,287,134084,1,0,1:0:0:0:
455,126,134220,5,2,0:0:0:0:
184,128,134357,1,2,0:0:0:0:
457,283,134493,2,0,L|509:312,1,60.0000022888184,2|0,0:0|1:0,0:0:0:0:
408,80,134766,69,2,0:0:0:0:
116,196,134903,1,2,0:0:0:0:
392,336,135038,2,0,L|444:365,1,60.0000022888184,2|0,0:0|1:0,0:0:0:0:
360,32,135311,5,2,0:0:0:0:
48,264,135448,1,2,0:0:0:0:
324,384,135584,5,2,0:0:0:0:
252,60,135720,2,0,P|169:32|98:82,1,180.000006866455,0|0,1:0|0:0,0:0:0:0:
186,287,136266,1,0,1:0:0:0:
457,283,136401,5,2,0:0:0:0:
320,48,136538,1,2,0:0:0:0:
186,287,136675,2,0,L|154:338,1,60.0000022888184,2|0,0:0|1:0,0:0:0:0:
455,126,136948,69,2,0:0:0:0:
323,363,137084,1,2,0:0:0:0:
184,128,137220,2,0,L|155:75,1,60.0000022888184,2|0,0:0|1:0,0:0:0:0:
457,283,137493,5,2,0:0:0:0:
320,48,137630,1,2,0:0:0:0:
186,287,137766,5,2,0:0:0:0:
49,52,137902,2,0,P|112:8|224:12,1,180.000006866455,0|0,1:0|0:0,0:0:0:0:
457,283,138448,1,0,1:0:0:0:
186,287,138584,5,2,0:0:0:0:
320,48,138720,1,2,0:0:0:0:
457,283,138857,2,0,L|485:336,1,60.0000022888184,2|0,0:0|1:0,0:0:0:0:
108,288,139129,69,2,0:0:0:0:
242,49,139265,1,2,0:0:0:0:
379,284,139402,2,0,L|407:337,1,60.0000022888184,2|0,0:0|1:0,0:0:0:0:
32,288,139675,5,2,0:0:0:0:
166,49,139811,1,2,0:0:0:0:
303,284,139948,5,2,0:0:0:0:
437,45,140084,1,0,1:0:0:0:
256,192,140220,12,2,144448,0:0:0:0:
368,112,146629,70,0,B|336:112|336:112|336:144|320:176|288:192|256:192|256:192|176:240|192:320|256:348|320:320|336:240|256:192|256:192|224:192|192:176|176:144|176:112|176:112|144:112,2,640,2|2|2,0:0|0:0|0:0,0:0:0:0:
428,176,153175,70,0,B|396:176|396:176|388:200|368:216|368:216|384:248|384:320|352:368|292:384|256:384|256:384|220:384|160:368|128:320|128:248|144:216|144:216|124:200|116:176|116:176|84:176,1,640,2|2,0:0|0:0,0:0:0:0:
256,192,155902,12,4,157538,1:2:0:0:
324,154,158561,5,2,0:0:0:0:
324,154,158868,1,0,0:0:0:0:
324,154,159175,2,0,P|334:192|323:230,1,80,2|0,0:0|0:0,0:0:0:0:
256,192,159720,2,0,P|255:115|320:74,1,160,2|0,0:0|0:0,0:0:0:0:
324,154,160538,2,0,P|324:230|259:271,1,160,2|0,0:0|0:0,0:0:0:0:
256,192,161357,1,2,0:0:0:0:
188,312,161629,1,0,0:0:0:0:
188,230,161902,6,0,P|187:153|252:112,1,160,2|0,0:0|0:0,0:0:0:0:
319,73,162720,2,0,P|320:150|256:192,1,160,2|0,0:0|0:0,0:0:0:0:
252,112,163538,1,2,0:0:0:0:
188,230,163811,1,0,0:0:0:0:
184,152,164084,2,0,P|183:75|248:34,2,160,2|0|2,0:0|0:0|0:0,0:0:0:0:
188,230,165448,1,0,0:0:0:0:
256,192,165720,1,2,0:0:0:0:
324,230,165993,1,0,0:0:0:0:
328,152,166266,6,0,P|328:75|263:34,2,160,2|0|2,0:0|0:0|0:0,0:0:0:0:
256,192,167629,1,0,0:0:0:0:
188,230,167902,2,0,P|177:192|188:154,1,80,2|0,0:0|0:0,0:0:0:0:
256,192,168448,2,0,P|256:268|191:309,1,160,2|0,0:0|0:0,0:0:0:0:
188,230,169266,2,0,P|187:153|252:112,1,160,2|0,0:0|0:0,0:0:0:0:
324,72,170084,1,2,0:0:0:0:
256,192,170356,1,0,0:0:0:0:
324,154,170629,70,0,P|324:230|259:271,1,160,2|0,0:0|0:0,0:0:0:0:
191,307,171447,2,0,P|190:231|256:192,1,160,2|0,0:0|0:0,0:0:0:0:
324,154,172265,1,2,0:0:0:0:
256,268,172538,1,2,0:0:0:0:
256,268,173357,69,4,0:3:0:0:
396,24,173629,1,4,0:3:0:0:
116,24,173902,1,4,1:3:0:0:
116,24,174993,6,0,P|70:61|45:115,1,120,4|0,1:2|0:0,0:0:0:0:
396,359,175538,2,0,P|442:322|467:268,1,120,4|0,1:2|0:0,0:0:0:0:
396,24,176084,2,0,L|370:54,1,40,2|0,1:2|0:0,0:0:0:0:
116,359,176357,2,0,L|90:328,1,40,2|0,0:0|0:0,0:0:0:0:
116,24,176629,2,0,L|141:54,1,40,2|0,1:2|0:0,0:0:0:0:
396,359,176902,2,0,L|421:328,1,40,2|0,0:0|0:0,0:0:0:0:
396,24,177175,6,0,P|336:18|280:38,1,120,4|0,1:2|0:0,0:0:0:0:
116,359,177720,2,0,P|175:364|231:344,1,120,4|0,1:2|0:0,0:0:0:0:
126,45,178266,2,0,L|87:52,1,40,2|0,1:2|0:0,0:0:0:0:
370,223,178538,2,0,L|410:217,1,40,2|0,0:0|0:0,0:0:0:0:
141,160,178811,2,0,L|102:167,1,40,2|0,1:2|0:0,0:0:0:0:
385,338,179084,2,0,L|425:332,1,40,2|0,0:0|0:0,0:0:0:0:
155,275,179357,70,0,P|97:268|50:231,1,120,4|0,1:2|0:0,0:0:0:0:
356,109,179902,2,0,P|414:115|461:152,1,120,4|0,1:2|0:0,0:0:0:0:
141,160,180448,2,0,L|102:167,1,40,2|0,1:2|0:0,0:0:0:0:
370,223,180721,2,0,L|410:217,1,40,2|0,0:0|0:0,0:0:0:0:
126,45,180993,2,0,L|87:52,1,40,2|0,1:2|0:0,0:0:0:0:
385,338,181265,2,0,L|425:332,1,40,2|0,0:0|0:0,0:0:0:0:
35,116,181538,6,0,P|20:172|44:226,1,120,4|0,1:2|0:0,0:0:0:0:
476,267,182084,2,0,P|491:211|467:157,1,120,4|0,1:2|0:0,0:0:0:0:
126,45,182629,2,0,L|131:85,1,40,2|0,1:2|0:0,0:0:0:0:
385,338,182902,1,2,0:0:0:0:
141,160,183175,2,2,P|100:187|146:204,1,120,2|0,1:2|0:0,0:1:0:0:
467,157,183720,6,0,P|491:211|476:267,1,120,4|0,1:2|0:0,0:0:0:0:
44,226,184266,2,0,P|20:172|35:116,1,120,4|0,1:2|0:0,0:0:0:0:
386,45,184811,2,0,L|360:75,1,40,2|0,1:2|0:0,0:0:0:0:
127,338,185084,2,0,L|101:307,1,40,2|0,0:0|0:0,0:0:0:0:
126,45,185356,2,0,L|151:75,1,40,2|0,1:2|0:0,0:0:0:0:
385,338,185629,2,0,L|410:307,1,40,2|0,0:0|0:0,0:0:0:0:
386,45,185902,6,0,P|326:39|270:59,1,120,4|0,1:2|0:0,0:0:0:0:
127,338,186447,2,0,P|186:342|242:322,1,120,4|0,1:2|0:0,0:0:0:0:
126,45,186993,2,0,L|151:75,1,40,2|0,1:2|0:0,0:0:0:0:
385,338,187266,2,0,L|360:308,1,40,2|0,0:2|0:0,0:0:0:0:
68,92,187538,2,0,L|93:122,1,40,2|0,1:2|0:0,0:0:0:0:
444,292,187811,2,0,L|419:262,1,40,2|0,0:2|0:0,0:0:0:0:
8,140,188084,70,0,P|37:190|93:210,1,120,4|0,1:2|0:0,0:0:0:0:
503,243,188629,2,0,P|474:193|418:173,1,120,4|0,1:2|0:0,0:0:0:0:
68,92,189175,2,0,L|93:122,1,40,2|0,1:2|0:0,0:0:0:0:
444,292,189448,2,0,L|419:262,1,40,2|0,0:2|0:0,0:0:0:0:
156,380,189720,2,0,L|186:355,1,40,2|0,1:2|0:0,0:0:0:0:
356,4,189993,2,0,L|326:29,1,40,2|0,0:2|0:0,0:0:0:0:
8,140,190266,6,0,P|37:190|93:210,1,120,4|0,1:2|0:0,0:0:0:0:
356,4,190811,2,0,L|326:29,1,40,4|0,1:2|0:0,0:0:0:0:
8,228,191084,6,0,P|37:278|93:298,1,120,4|0,1:2|0:0,0:0:0:0:
356,92,191629,2,0,L|325:117,1,40,4|0,1:2|0:0,0:0:0:0:
8,316,191902,6,0,P|37:366|93:386,1,120,4|0,1:2|0:0,0:0:0:0:
291,84,194629,70,0,P|255:19|220:84,1,180.000006866455,4|0,1:2|0:0,0:0:0:0:
355,318,195175,5,0,1:0:0:0:
156,317,195311,1,2,0:0:0:0:
156,119,195448,1,2,0:0:0:0:
355,119,195584,1,2,0:0:0:0:
292,354,195720,5,0,1:0:0:0:
120,255,195857,1,2,0:0:0:0:
220,84,195993,1,2,0:0:0:0:
391,182,196129,1,2,0:0:0:0:
219,354,196266,5,0,1:0:0:0:
120,182,196402,1,2,0:0:0:0:
292,84,196538,1,2,0:0:0:0:
391,255,196675,1,2,0:0:0:0:
155,317,196811,70,0,P|72:308|54:225,1,180.000006866455,0|0,1:0|0:0,0:0:0:0:
220,84,197357,5,0,1:0:0:0:
355,119,197493,1,2,0:0:0:0:
391,255,197629,1,2,0:0:0:0:
292,354,197766,1,2,0:0:0:0:
236,40,197902,5,0,1:0:0:0:
398,82,198038,1,2,0:0:0:0:
441,245,198174,1,2,0:0:0:0:
322,364,198311,1,2,0:0:0:0:
252,0,198448,5,0,1:0:0:0:
441,48,198584,1,2,0:0:0:0:
491,239,198720,1,2,0:0:0:0:
352,378,198857,1,2,0:0:0:0:
220,84,198993,70,0,P|269:15|349:41,1,180.000006866455,0|0,1:0|0:0,0:0:0:0:
391,255,199538,5,0,1:0:0:0:
121,183,199675,1,2,0:0:0:0:
220,354,199811,1,2,0:0:0:0:
292,84,199948,1,2,0:0:0:0:
354,317,200084,5,0,1:0:0:0:
157,120,200221,1,2,0:0:0:0:
160,320,200357,1,2,0:0:0:0:
354,120,200494,1,2,0:0:0:0:
292,353,200629,5,0,1:0:0:0:
219,84,200766,1,2,0:0:0:0:
121,255,200902,1,2,0:0:0:0:
390,182,201039,1,2,0:0:0:0:
220,354,201175,70,0,P|143:389|90:324,1,180.000006866455,0|0,1:0|0:0,0:0:0:0:
292,84,201720,1,0,1:0:0:0:
354,317,201857,5,2,0:0:0:0:
121,255,201993,1,2,0:0:0:0:
292,84,202129,2,0,L|334:41,1,60.0000022888184,2|0,0:0|1:0,0:0:0:0:
216,366,202402,5,2,0:0:0:0:
146,110,202538,1,2,0:0:0:0:
403,179,202674,2,0,L|467:196,1,60.0000022888184,2|0,0:0|1:0,0:0:0:0:
94,267,202948,5,2,0:0:0:0:
298,62,203084,1,2,0:0:0:0:
373,342,203220,69,2,0:0:0:0:
94,267,203357,2,0,P|20:216|-16:135,1,180.000006866455,0|0,1:0|0:0,0:0:0:0:
298,62,203902,1,0,1:0:0:0:
373,342,204038,5,2,0:0:0:0:
94,267,204175,1,2,0:0:0:0:
298,62,204311,2,0,L|340:19,1,60.0000022888184,2|0,0:0|1:0,0:0:0:0:
216,366,204584,5,2,0:0:0:0:
146,110,204720,1,2,0:0:0:0:
403,179,204856,2,0,L|467:196,1,60.0000022888184,2|0,0:0|1:0,0:0:0:0:
121,254,205129,5,2,0:0:0:0:
292,84,205266,1,2,0:0:0:0:
354,317,205402,69,2,0:0:0:0:
121,254,205538,2,0,P|53:204|79:124,1,180.000006866455,0|0,1:0|0:0,0:0:0:0:
391,255,206084,1,0,1:0:0:0:
220,354,206221,5,2,0:0:0:0:
121,183,206357,1,2,0:0:0:0:
292,84,206493,2,0,L|343:53,1,60.0000022888184,2|0,0:0|1:0,0:0:0:0:
122,296,206766,5,2,0:0:0:0:
178,85,206902,1,2,0:0:0:0:
389,141,207038,2,0,L|453:158,1,60.0000022888184,2|0,0:0|1:0,0:0:0:0:
96,176,207312,5,2,0:0:0:0:
298,59,207448,1,2,0:0:0:0:
416,260,207584,69,2,0:0:0:0:
210,380,207720,2,0,P|127:377|123:295,1,180.000006866455,0|0,1:0|0:0,0:0:0:0:
416,260,208266,1,0,1:0:0:0:
96,176,208402,5,2,0:0:0:0:
298,59,208538,1,2,0:0:0:0:
416,260,208674,2,0,L|449:316,1,60.0000022888184,2|0,0:0|1:0,0:0:0:0:
122,296,208948,5,2,0:0:0:0:
178,85,209084,1,2,0:0:0:0:
389,141,209220,2,0,L|453:158,1,60.0000022888184,2|0,0:0|1:0,0:0:0:0:
220,354,209493,5,2,0:0:0:0:
121,183,209629,1,2,0:0:0:0:
292,84,209766,1,2,0:0:0:0:
391,255,209902,6,0,B|342:287|260:271|293:238|211:222|162:255,1,240,0|0,1:0|0:0,0:0:0:0:
220,353,210963,1,2,0:0:0:0:
268,292,211228,1,0,0:0:0:0:
266,214,211493,1,2,0:0:0:0:
215,155,211759,1,0,0:0:0:0:
103,160,212025,6,0,P|131:274|219:354,1,240,2|0,0:0|0:0,0:0:0:0:
296,372,212985,1,2,0:0:0:0:
376,372,213225,1,0,0:0:0:0:
452,344,213465,1,2,0:0:0:0:
500,280,213705,1,0,0:0:0:0:
391,255,213945,6,0,B|342:287|260:271|293:238|211:222|162:255,1,240,2|0,0:0|0:0,0:0:0:0:
96,300,214820,1,2,0:0:0:0:
164,344,215039,1,0,0:0:0:0:
240,368,215258,1,2,0:0:0:0:
320,372,215477,1,0,0:0:0:0:
452,344,215696,6,0,P|543:217|531:61,1,320,2|0,0:0|0:0,0:0:0:0:
333,156,216709,1,2,0:0:0:0:
218,354,216912,2,0,P|181:368|142:368,1,80,2|0,0:0|0:0,0:0:0:0:
391,255,217317,70,0,B|342:287|260:271|293:238|211:222|162:255,1,240,2|0,0:0|0:0,0:0:0:0:
85,279,218057,1,2,0:0:0:0:
162,174,218242,1,0,0:0:0:0:
38,214,218427,1,2,0:0:0:0:
162,254,218612,1,0,0:0:0:0:
85,148,218798,6,0,P|179:94|241:185,1,240,2|0,0:0|0:0,0:0:0:0:
85,279,219499,1,2,0:0:0:0:
350,254,219675,1,0,0:0:0:0:
162,254,219850,1,2,0:0:0:0:
427,279,220026,1,0,0:0:0:0:
426,148,220201,6,0,P|332:94|270:185,1,240,2|0,0:0|0:0,0:0:0:0:
427,279,220903,1,2,0:0:0:0:
162,254,221079,1,0,0:0:0:0:
350,254,221254,1,2,0:0:0:0:
85,279,221430,1,0,0:0:0:0:
85,148,221605,6,0,B|156:76|243:128|211:167|298:219|369:148,1,320,2|0,0:0|0:0,0:0:0:0:
156,208,222482,1,2,0:0:0:0:
300,88,222657,1,2,0:0:0:0:
48,136,223008,6,0,P|31:192|49:248,1,120.000004577637,4|0,1:2|0:0,0:0:0:0:
463,248,223360,2,0,P|481:192|464:136,1,120.000004577637,0|0,1:0|0:0,0:0:0:0:
256,104,223713,1,2,0:3:0:0:
181,334,223890,1,2,1:3:0:0:
376,192,224066,1,2,1:3:0:0:
136,192,224243,1,2,0:3:0:0:
331,334,224419,6,0,P|387:352|443:334,1,120.000004577637,0|0,1:0|0:0,0:0:0:0:
180,49,224772,2,0,P|124:31|68:49,1,120.000004577637,0|0,1:0|0:0,0:0:0:0:
388,268,225125,1,2,0:3:0:0:
124,116,225302,1,2,1:3:0:0:
332,60,225478,1,2,1:3:0:0:
180,324,225655,1,2,0:3:0:0:
388,268,225831,6,0,P|444:249|500:267,1,120.000004577637,0|0,1:0|0:0,0:0:0:0:
124,116,226184,2,0,P|67:134|11:116,1,120.000004577637,0|0,1:0|0:0,0:0:0:0:
180,324,226537,1,2,0:3:0:0:
332,60,226714,1,2,1:3:0:0:
307,383,226890,1,2,1:3:0:0:
204,0,227067,1,2,1:3:0:0:
388,268,227243,6,0,P|444:286|500:268,1,120.000004577637,0|0,1:0|0:0,0:0:0:0:
124,116,227596,2,0,P|67:97|11:115,1,120.000004577637,0|0,1:0|0:0,0:0:0:0:
180,324,227948,1,2,0:3:0:0:
332,60,228125,1,2,1:3:0:0:
68,184,228302,1,2,1:3:0:0:
444,200,228478,1,2,0:3:0:0:
124,116,228655,70,0,P|67:97|11:115,1,120.000004577637,0|0,1:0|0:0,0:0:0:0:
388,268,229008,2,0,P|444:286|500:268,1,120.000004577637,0|0,1:0|0:0,0:0:0:0:
204,0,229360,1,2,0:3:0:0:
180,324,229537,1,2,1:3:0:0:
332,60,229713,1,2,1:3:0:0:
307,383,229890,1,2,0:3:0:0:
460,120,230066,6,0,P|478:64|460:8,1,120.000004577637,0|0,1:0|0:3,0:3:0:0:
52,264,230419,2,0,P|34:320|52:376,1,120.000004577637,0|0,1:0|0:3,0:3:0:0:
444,200,230772,1,2,0:3:0:0:
68,184,230948,1,2,1:3:0:0:
332,60,231125,1,2,1:3:0:0:
180,324,231301,1,2,0:3:0:0:
124,116,231478,6,0,P|67:97|11:115,1,120.000004577637,0|0,1:0|0:0,0:0:0:0:
388,268,231831,2,0,P|444:286|500:268,1,120.000004577637,0|0,1:0|0:0,0:0:0:0:
264,4,232184,1,2,0:3:0:0:
68,184,232360,1,2,1:3:0:0:
444,200,232537,1,2,1:3:0:0:
248,380,232713,1,2,0:3:0:0:
124,116,232890,6,0,P|67:97|11:115,1,120.000004577637,0|0,1:0|0:0,0:0:0:0:
388,268,233243,2,0,P|445:287|501:269,1,120.000004577637,0|0,1:0|0:0,0:0:0:0:
264,4,233596,1,2,0:3:0:0:
68,184,233772,1,2,1:3:0:0:
331,201,233949,2,0,P|387:182|444:200,1,120.000004577637,2|0,1:3|0:0,0:0:0:0:
388,268,234302,6,0,P|277:269|253:160,1,240.000009155274,2|0,0:0|0:0,0:0:0:0:
324,112,235008,1,2,0:0:0:0:
331,201,235184,1,2,0:0:0:0:
101,177,235360,1,8,0:3:0:0:
316,24,235537,1,8,0:3:0:0:
340,287,235713,70,0,P|395:308|450:289,1,120.000004577637,4|0,1:2|0:0,0:0:0:0:
171,96,236066,2,0,P|116:75|61:94,1,120.000004577637,0|0,1:0|0:0,0:0:0:0:
396,224,236419,1,2,0:3:0:0:
116,160,236596,1,2,1:3:0:0:
456,164,236772,1,2,1:3:0:0:
56,220,236949,1,2,0:3:0:0:
508,100,237125,6,0,P|536:151|524:209,1,120.000004577637,0|0,1:0|0:0,0:0:0:0:
3,283,237478,2,0,P|-24:232|-12:174,1,120.000004577637,0|0,1:0|0:0,0:0:0:0:
456,164,237831,1,2,0:3:0:0:
171,96,238008,1,2,1:3:0:0:
340,287,238184,1,2,1:3:0:0:
56,220,238361,1,2,0:3:0:0:
396,224,238537,6,0,P|370:171|385:114,1,120.000004577637,0|0,1:0|0:0,0:0:0:0:
116,160,238890,2,0,P|141:212|126:269,1,120.000004577637,0|0,1:0|0:0,0:0:0:0:
456,164,239243,1,2,0:3:0:0:
3,283,239419,1,2,1:3:0:0:
508,100,239596,1,2,1:3:0:0:
56,220,239772,1,2,0:3:0:0:
456,164,239949,70,0,P|479:217|463:274,1,120.000004577637,0|0,1:0|0:0,0:0:0:0:
55,219,240302,2,0,P|32:166|48:109,1,120.000004577637,0|0,1:0|0:0,0:0:0:0:
396,224,240655,1,2,0:3:0:0:
116,160,240832,1,2,1:3:0:0:
216,360,241008,1,2,1:3:0:0:
294,23,241185,1,2,1:3:0:0:
463,274,241360,6,0,P|479:217|456:164,1,120.000004577637,0|0,1:0|0:0,0:0:0:0:
48,109,241713,2,0,P|32:166|55:219,1,120.000004577637,0|0,1:0|0:0,0:0:0:0:
396,224,242066,1,2,0:3:0:0:
294,23,242243,1,2,1:3:0:0:
217,360,242419,1,2,1:3:0:0:
116,160,242596,1,2,1:3:0:0:
456,164,242772,6,0,P|479:217|463:274,1,120.000004577637,0|0,1:0|0:0,0:0:0:0:
54,219,243125,2,0,P|31:165|48:109,1,120.000004577637,0|0,1:0|0:0,0:0:0:0:
294,23,243478,1,2,0:3:0:0:
456,164,243655,1,2,1:3:0:0:
217,360,243831,1,2,1:3:0:0:
54,219,244008,1,2,1:3:0:0:
463,274,244184,6,0,P|479:217|456:164,1,120.000004577637,0|0,1:0|0:0,0:0:0:0:
46,108,244537,2,0,P|30:165|54:219,1,120.000004577637,0|0,1:0|0:0,0:0:0:0:
396,224,244890,1,2,0:3:0:0:
294,23,245066,1,2,1:3:0:0:
116,160,245243,2,0,P|139:213|123:270,1,120.000004577637,2|0,1:3|0:0,0:0:0:0:
68,340,245596,6,0,B|117:372|199:356|166:323|248:307|297:340,1,240,2|0,0:0|0:0,0:0:0:0:
380,372,246302,2,0,P|427:320|368:283,1,160,2|0,0:0|1:0,0:0:0:0:
55,219,247008,6,0,P|35:185|33:146,1,80,0|0,1:0|0:0,0:0:0:0:
116,160,247360,2,0,P|136:194|138:233,1,80,0|0,1:0|0:0,0:0:0:0:
55,219,247713,1,0,0:0:0:0:
18,295,247890,1,0,1:0:0:0:
78,355,248067,1,0,1:0:0:0:
152,316,248243,1,0,0:0:0:0:
139,234,248419,6,0,P|141:194|161:160,1,80,0|0,1:0|0:0,0:0:0:0:
248,144,248772,2,0,P|246:184|226:218,1,80,0|0,1:0|0:0,0:0:0:0:
160,160,249125,1,0,0:0:0:0:
120,81,249302,1,0,1:0:0:0:
181,18,249478,1,0,1:0:0:0:
261,57,249655,1,0,1:0:0:0:
248,144,249831,6,0,P|249:183|269:217,1,80,0|0,1:0|0:0,0:0:0:0:
356,232,250184,2,0,P|354:192|334:158,1,80,0|0,1:0|0:0,0:0:0:0:
270,218,250537,1,0,0:0:0:0:
254,303,250713,1,0,1:0:0:0:
341,318,250890,1,0,1:0:0:0:
356,232,251066,1,0,0:0:0:0:
270,218,251243,70,0,B|221:251|139:235|172:202|90:186|41:218,1,240,0|0,1:0|0:0,0:0:0:0:
96,287,251949,2,0,P|131:219|97:149,1,160,0|0,0:0|1:0,0:0:0:0:
41,217,252478,5,0,1:0:0:0:
8,300,252655,2,0,P|22:337|51:363,1,80,0|0,1:0|0:0,0:0:0:0:
140,364,253007,2,0,P|169:337|183:300,1,80,0|0,1:0|0:0,0:0:0:0:
152,216,253360,1,0,0:0:0:0:
240,236,253537,1,0,1:0:0:0:
212,152,253713,1,0,1:0:0:0:
300,172,253890,1,0,0:0:0:0:
124,132,254066,5,0,1:0:0:0:
152,216,254243,1,0,1:0:0:0:
328,256,254419,5,0,1:0:0:0:
300,172,254596,1,0,1:0:0:0:
388,188,254772,1,0,1:0:0:0:
416,272,254949,1,0,1:0:0:0:
240,236,255125,69,0,1:0:0:0:
212,152,255301,1,0,1:0:0:0:
388,188,255478,5,0,1:0:0:0:
152,216,255655,1,0,1:0:0:0:
416,272,255831,1,0,1:0:0:0:
180,300,256008,1,0,1:0:0:0:
360,104,256184,1,0,1:0:0:0:
360,104,256713,5,2,0:0:0:0:
360,104,256890,2,0,B|311:71|229:87|262:120|180:136|131:104,1,240,2|0,0:0|0:0,0:0:0:0:
52,64,257596,2,0,P|43:102|51:141,1,80,2|0,0:0|0:0,0:0:0:0:
416,272,257949,1,0,1:0:0:0:
332,15,258125,1,0,1:0:0:0:
151,216,258302,70,0,P|104:251|46:263,1,120.000004577637,4|0,1:2|0:0,0:0:0:0:
360,167,258655,2,0,P|407:132|465:120,1,120.000004577637,0|0,1:2|0:0,0:0:0:0:
51,141,259007,1,2,0:0:0:0:
180,369,259184,1,2,1:2:0:0:
460,242,259360,1,2,1:2:0:0:
332,15,259537,1,2,0:0:0:0:
51,141,259713,70,0,P|28:195|32:255,1,120.000004577637,0|0,1:0|0:0,0:0:0:0:
460,242,260066,2,0,P|483:187|479:127,1,120.000004577637,0|0,1:0|0:0,0:0:0:0:
151,216,260419,1,2,0:0:0:0:
360,167,260596,1,2,1:2:0:0:
180,369,260772,1,2,1:2:0:0:
332,15,260949,1,2,1:2:0:0:
51,141,261125,6,0,P|28:195|32:255,1,120.000004577637,0|0,1:0|0:0,0:0:0:0:
460,242,261478,2,0,P|483:187|479:127,1,120.000004577637,0|0,1:0|0:0,0:0:0:0:
51,141,261831,1,2,0:0:0:0:
360,167,262007,1,2,1:2:0:0:
151,216,262184,1,2,1:2:0:0:
460,242,262360,1,2,0:0:0:0:
32,255,262537,6,0,P|27:195|51:141,1,120.000004577637,0|0,1:0|0:0,0:0:0:0:
479,127,262890,2,0,P|482:187|460:242,1,120.000004577637,0|0,1:0|0:0,0:0:0:0:
180,369,263243,1,2,0:2:0:0:
51,141,263419,1,2,1:2:0:0:
332,15,263596,1,2,1:2:0:0:
460,242,263772,1,2,1:2:0:0:
151,216,263949,6,0,P|92:220|40:249,1,120.000004577637,0|0,1:2|0:0,0:0:0:0:
361,168,264302,2,0,P|419:163|471:134,1,120.000004577637,0|0,1:2|0:0,0:0:0:0:
128,332,264655,1,2,0:0:0:0:
384,52,264831,1,2,1:2:0:0:
396,320,265008,1,2,1:2:0:0:
116,64,265184,1,2,1:2:0:0:
128,332,265360,70,0,P|186:327|238:298,1,120.000004577637,0|0,1:2|0:0,0:0:0:0:
384,52,265713,2,0,P|325:56|273:85,1,120.000004577637,0|0,1:2|0:0,0:0:0:0:
396,320,266066,1,2,0:2:0:0:
116,64,266242,1,2,1:2:0:0:
483,181,266419,1,2,1:2:0:0:
28,202,266595,1,2,1:2:0:0:
384,52,266772,6,0,P|433:21|492:14,1,120.000004577637,0|0,1:2|0:0,0:0:0:0:
128,332,267125,2,0,P|78:362|19:369,1,120.000004577637,0|0,1:2|0:0,0:0:0:0:
116,64,267478,1,0,0:0:0:0:
116,64,267655,1,2,1:2:0:0:
384,52,267831,1,2,1:2:0:0:
396,320,268008,1,2,1:2:0:0:
128,332,268184,70,0,B|95:283|111:201|144:234|160:152|128:103,1,240,2|0,0:0|0:0,0:0:0:0:
41,79,268890,2,0,P|40:119|56:156,1,80,2|0,0:0|0:0,0:0:0:0:
196,276,269243,1,0,1:0:0:0:
358,201,269419,1,0,1:0:0:0:
213,98,269596,70,0,P|235:43|283:9,1,120.000004577637,4|0,1:2|0:0,0:0:0:0:
298,285,269949,2,0,P|276:340|228:374,1,120.000004577637,0|0,1:0|0:0,0:0:0:0:
316,108,270302,1,2,0:0:0:0:
50,172,270478,1,2,1:2:0:0:
461,211,270655,1,2,1:2:0:0:
196,276,270831,1,2,0:0:0:0:
420,119,271008,70,0,P|411:61|372:17,1,120.000004577637,0|0,1:0|0:0,0:0:0:0:
91,264,271360,2,0,P|100:322|139:366,1,120.000004577637,0|0,1:0|0:0,0:0:0:0:
316,108,271713,1,2,0:0:0:0:
196,276,271890,1,2,1:2:0:0:
461,211,272066,1,2,1:2:0:0:
50,172,272243,1,2,1:2:0:0:
372,17,272419,6,0,P|411:61|420:119,1,120.000004577637,0|0,1:0|0:0,0:0:0:0:
139,366,272771,2,0,P|100:322|91:264,1,120.000004577637,0|0,1:0|0:0,0:0:0:0:
316,108,273125,1,2,0:0:0:0:
320,332,273302,1,2,1:2:0:0:
191,51,273478,1,2,1:2:0:0:
196,276,273655,1,2,0:2:0:0:
461,210,273831,6,0,P|504:171|519:113,1,120.000004577637,0|0,1:0|0:0,0:0:0:0:
50,172,274184,2,0,P|6:211|-8:269,1,120.000004577637,0|0,1:0|0:0,0:0:0:0:
320,332,274537,1,2,0:2:0:0:
191,51,274713,1,2,1:2:0:0:
92,264,274890,1,2,1:2:0:0:
420,120,275066,1,2,1:2:0:0:
49,172,275243,6,0,P|6:211|-8:269,1,120.000004577637,0|0,1:0|0:0,0:0:0:0:
461,210,275596,2,0,P|504:171|519:113,1,120.000004577637,0|0,1:0|0:0,0:0:0:0:
191,51,275949,1,2,0:0:0:0:
444,325,276125,1,2,1:2:0:0:
66,57,276302,1,2,1:2:0:0:
320,332,276478,1,2,1:2:0:0:
420,120,276655,70,0,P|422:60|392:10,1,120.000004577637,0|0,1:0|0:0,0:0:0:0:
92,264,277007,2,0,P|89:323|119:373,1,120.000004577637,0|0,1:0|0:0,0:0:0:0:
328,84,277360,1,2,0:0:0:0:
184,300,277537,1,2,1:2:0:0:
191,51,277713,1,2,1:2:0:0:
320,332,277890,1,2,1:2:0:0:
420,120,278066,6,0,P|422:60|392:10,1,120.000004577637,0|0,1:0|0:0,0:0:0:0:
92,264,278418,2,0,P|89:323|119:373,1,120.000004577637,0|0,1:0|0:0,0:0:0:0:
66,57,278772,1,2,0:2:0:0:
320,332,278949,1,2,1:2:0:0:
191,51,279125,1,2,1:2:0:0:
445,326,279302,1,2,1:2:0:0:
376,264,279478,70,0,B|327:232|245:248|278:281|196:297|147:264,1,240,2|0,0:0|0:0,0:0:0:0:
129,179,280184,2,0,P|169:181|203:199,1,80,2|0,0:0|0:0,0:0:0:0:
325,333,280537,1,0,1:0:0:0:
256,104,280713,1,0,1:0:0:0:
464,136,280890,70,0,P|481:192|463:248,1,120.000004577637,4|0,1:2|0:0,0:0:0:0:
49,248,281242,2,0,P|31:192|48:136,1,120.000004577637,0|0,1:0|0:0,0:0:0:0:
256,104,281595,1,2,0:2:0:0:
331,334,281772,1,2,1:2:0:0:
136,192,281948,1,2,1:2:0:0:
376,192,282125,1,2,0:2:0:0:
181,334,282301,70,0,P|125:352|69:334,1,120.000004577637,0|0,1:0|0:0,0:0:0:0:
332,49,282654,2,0,P|388:31|444:49,1,120.000004577637,0|0,1:0|0:0,0:0:0:0:
124,268,283007,1,2,0:2:0:0:
388,116,283184,1,2,1:2:0:0:
180,60,283360,1,2,1:2:0:0:
332,324,283537,1,2,1:2:0:0:
124,268,283713,6,0,P|68:249|12:267,1,120.000004577637,0|0,1:0|0:0,0:0:0:0:
388,116,284066,2,0,P|445:134|501:116,1,120.000004577637,0|0,1:0|0:0,0:0:0:0:
332,324,284419,1,2,0:2:0:0:
180,60,284596,1,2,1:2:0:0:
205,383,284772,1,2,1:2:0:0:
308,0,284949,1,2,0:2:0:0:
124,268,285125,6,0,P|68:286|12:268,1,120.000004577637,0|0,1:0|0:0,0:0:0:0:
388,116,285478,2,0,P|445:97|501:115,1,120.000004577637,0|0,1:0|0:0,0:0:0:0:
332,324,285830,1,2,0:2:0:0:
180,60,286007,1,2,1:2:0:0:
444,184,286184,1,2,1:2:0:0:
68,200,286360,1,2,1:2:0:0:
388,116,286537,6,0,P|445:97|501:115,1,120.000004577637,0|0,1:0|0:0,0:0:0:0:
124,268,286890,2,0,P|68:286|12:268,1,120.000004577637,0|0,1:0|0:0,0:0:0:0:
308,0,287242,1,2,0:2:0:0:
332,324,287419,1,2,1:2:0:0:
180,60,287595,1,2,1:2:0:0:
205,383,287772,1,2,1:2:0:0:
52,120,287948,70,0,P|34:64|52:8,1,120.000004577637,0|0,1:0|0:3,0:3:0:0:
460,264,288301,2,0,P|478:320|460:376,1,120.000004577637,0|0,1:0|0:3,0:3:0:0:
68,200,288654,1,2,0:2:0:0:
444,184,288830,1,2,1:2:0:0:
180,60,289007,1,2,1:2:0:0:
332,324,289183,1,2,1:2:0:0:
388,116,289360,6,0,P|445:97|501:115,1,120.000004577637,0|0,1:0|0:0,0:0:0:0:
124,268,289713,2,0,P|68:286|12:268,1,120.000004577637,0|0,1:0|0:0,0:0:0:0:
248,4,290066,1,2,0:2:0:0:
444,184,290242,1,2,1:2:0:0:
68,200,290419,1,2,1:2:0:0:
264,380,290595,1,2,1:2:0:0:
248,4,290772,69,4,0:1:0:0:
256,192,290860,12,0,310772,0:0:0:0:
