osu file format v14

[General]
AudioFilename: Panda Eyes.mp3
AudioLeadIn: 0
PreviewTime: 140044
Countdown: 0
SampleSet: Normal
StackLeniency: 0.7
Mode: 0
LetterboxInBreaks: 1
WidescreenStoryboard: 0

[Editor]
Bookmarks: 2044,2589,50589,51680,89589,105168,122589,174953,205850,205854,206600,206787,206975,229850,252438,258085,260908,262320,263026,275026,286320,308908,314555,315967,317379,318791,320202,325849,327261,328673,330085,354085
DistanceSpacing: 2
BeatDivisor: 4
GridSize: 4
TimelineZoom: 1.5

[Metadata]
Title:Crystal Cave
TitleUnicode:Crystal Cave
Artist:Panda Eyes
ArtistUnicode:Panda Eyes
Creator:]Nymph[
Version:Crystal
Source:
Tags:Electro drumstep dnb
BeatmapID:820294
BeatmapSetID:374458

[Difficulty]
HPDrainRate:5
CircleSize:4.2
OverallDifficulty:7.5
ApproachRate:9
SliderMultiplier:2.8
SliderTickRate:2

[Events]
//Background and Video events
0,0,"KlByvAi.jpg",0,0
//Break Periods
2,105335,121989
//Storyboard Layer 0 (Background)
//Storyboard Layer 1 (Fail)
//Storyboard Layer 2 (Pass)
//Storyboard Layer 3 (Foreground)
//Storyboard Sound Samples

[TimingPoints]
408,545.454545454546,4,1,0,100,1,0
408,-200,4,2,0,20,0,0
13498,-133.333333333333,4,2,0,40,0,0
17862,-100,4,2,0,40,0,0
18135,-133.333333333333,4,2,0,40,0,0
44044,-100,4,3,0,60,0,0
50589,-133.333333333333,4,3,0,65,0,0
51680,-100,4,2,0,70,0,0
52771,-100,4,1,0,70,0,0
68589,-100,4,2,0,70,0,0
70226,-100,4,1,0,70,0,0
122589,-133.333333333333,4,2,0,40,0,0
131317,-100,4,3,0,65,0,0
138953,-100,4,1,0,70,0,0
174953,-200,4,2,0,30,0,0
192408,-133.333333333333,4,2,0,40,0,0
195135,521.739130434783,4,2,0,50,1,0
195135,-133.333333333333,4,2,0,50,0,0
199308,480,4,2,0,50,1,0
199308,-133.333333333333,4,2,0,50,0,0
200748,-100,4,3,0,50,0,0
201228,461.538461538462,4,3,0,60,1,0
203074,428.571428571429,4,3,0,60,1,0
203502,-133.333333333333,4,3,0,65,0,0
203931,400,4,3,0,65,1,0
204731,375,4,3,0,65,1,0
205856,352.941176470588,4,3,0,70,1,0
207267,-100,4,1,0,70,0,1
229856,-100,4,1,0,50,0,0
251650,-200,4,1,0,50,0,0
252444,-133.333333333333,4,2,0,30,0,0
253855,-133.333333333333,4,2,0,40,0,0
255267,-133.333333333333,4,2,0,50,0,0
256679,-133.333333333333,4,2,0,60,0,0
258091,-100,4,3,0,60,0,0
262326,-100,4,3,0,70,0,0
263032,-200,4,1,0,60,0,0
263561,-100,4,1,0,70,0,0
263738,-100,4,1,0,70,0,1
286326,-100,4,1,0,50,0,0
308914,-133.333333333333,4,2,0,40,0,0
314914,-200,4,2,0,40,0,0
348444,-200,4,2,0,40,0,0
349855,-200,4,2,0,45,0,0
351267,-200,4,2,0,50,0,0
352679,-200,4,2,0,55,0,0
354091,-200,4,2,0,20,0,0
355503,-200,4,2,0,10,0,0
356914,-200,4,2,0,5,0,0

[Colours]
Combo1 : 128,128,192
Combo2 : 0,128,128
Combo3 : 18,124,255
Combo4 : 64,0,64

[HitObjects]
152,232,408,6,0,B|292:272|312:148|312:148|240:64|200:112|200:112|124:104,1,420
228,20,2589,2,0,B|320:24|300:88|408:40|408:40|432:88|456:340|376:148|376:148,1,420
260,288,4771,2,0,B|200:264|200:184|200:184|136:184|92:100|92:100|36:116|68:232,1,420
176,92,6953,2,0,B|216:48|260:52|292:92|332:160|332:160|360:92|380:48|424:32|480:80,1,420
428,236,9135,2,0,B|364:176|312:244|308:336|308:336|200:376|144:228,1,420
40,112,11317,2,0,B|72:64|160:84|144:152|268:80|268:80|332:80|356:136|416:88|448:44,1,420
132,224,13498,5,2,0:0:0:0:
432,48,14044,2,0,P|352:40|296:68,1,105.000004005432
224,164,14589,2,0,P|304:172|360:144,1,105.000004005432
224,44,15135,2,0,P|144:36|88:64,1,105.000004005432
20,164,15680,1,2,0:0:0:0:
304,304,16226,6,0,P|224:264|216:208,1,105.000004005432
252,132,16771,1,0,0:0:0:0:
368,52,17044,1,0,0:0:0:0:
236,4,17317,1,0,0:0:0:0:
292,132,17589,1,0,0:0:0:0:
364,12,17862,6,0,P|436:68|448:136,1,140
460,284,18408,2,0,B|416:256|416:256|336:268,1,105.000004005432
188,308,18953,1,0,0:0:0:0:
76,200,19226,1,0,0:0:0:0:
120,68,19498,2,0,B|164:40|164:40|244:52,1,105.000004005432
376,48,20044,6,0,P|416:96|404:160,1,105.000004005432
300,244,20589,2,0,P|348:204|412:216,1,105.000004005432
276,316,21135,2,0,P|228:356|164:344,1,105.000004005432
60,260,21680,2,0,P|108:220|172:232,1,105.000004005432
268,44,22226,1,2,0:0:0:0:
292,324,22771,5,0,0:0:0:0:
232,196,23044,1,0,0:0:0:0:
156,312,23317,1,0,0:0:0:0:
292,324,23589,1,0,0:0:0:0:
420,264,23862,2,0,P|448:192|412:140,1,105.000004005432
296,72,24408,5,2,0:0:0:0:
156,92,24680,1,0,0:0:0:0:
36,164,24953,1,0,0:0:0:0:
108,284,25226,1,0,0:0:0:0:
232,220,25498,1,0,0:0:0:0:
116,140,25771,1,0,0:0:0:0:
28,248,26044,1,0,0:0:0:0:
168,256,26317,1,0,0:0:0:0:
308,324,26589,6,0,P|356:300|372:232,1,105.000004005432
288,124,27135,2,0,P|240:148|224:216,1,105.000004005432
442,188,27680,2,0,P|420:234|373:254,1,105.000004005432
356,104,28226,1,0,0:0:0:0:
356,104,28498,1,0,0:0:0:0:
212,44,28771,6,0,L|96:44,1,105.000004005432
84,176,29317,1,0,0:0:0:0:
180,280,29589,1,0,0:0:0:0:
336,284,29862,2,0,L|448:284,1,105.000004005432
472,132,30408,1,0,0:0:0:0:
248,192,30680,1,0,0:0:0:0:
180,40,30953,6,0,P|96:88|76:208,1,210.000008010865
184,340,31771,1,0,0:0:0:0:
248,192,32044,1,0,0:0:0:0:
100,212,32317,1,0,0:0:0:0:
244,300,32589,2,0,L|164:204,1,105.000004005432
44,136,33135,5,2,0:0:0:0:
148,16,33408,1,0,0:0:0:0:
304,12,33680,1,0,0:0:0:0:
384,148,33953,1,0,0:0:0:0:
228,136,34226,1,0,0:0:0:0:
96,84,34498,1,0,0:0:0:0:
148,232,34771,2,0,P|208:244|252:224,1,105.000004005432
448,316,35317,5,2,0:0:0:0:
456,232,35589,1,0,0:0:0:0:
444,148,35862,1,0,0:0:0:0:
392,80,36135,1,0,0:0:0:0:
312,52,36408,2,0,P|260:48|204:64,1,105.000004005432
148,120,36953,1,0,0:0:0:0:
104,192,37226,1,0,0:0:0:0:
132,272,37498,6,0,B|176:316|176:316|260:300,1,105.000004005432
320,268,38044,2,0,B|276:224|276:224|192:240,1,105.000004005432
212,124,38589,1,0,0:0:0:0:
212,24,38862,1,0,0:0:0:0:
212,124,39135,2,0,P|132:148|108:196,1,105.000004005432
84,260,39680,6,0,B|100:328|172:332|172:332|232:284|284:312,1,210.000008010865
380,232,40498,1,0,0:0:0:0:
440,144,40771,1,0,0:0:0:0:
344,96,41044,1,0,0:0:0:0:
292,188,41317,2,0,P|304:248|336:288,1,105.000004005432
216,192,41862,6,0,B|168:160|188:104|188:104|172:56|96:28,1,210.000008010865
96,136,42680,1,0,0:0:0:0:
152,224,42953,1,0,0:0:0:0:
212,136,43226,1,0,0:0:0:0:
120,164,43498,1,0,0:0:0:0:
208,180,43771,1,0,0:0:0:0:
144,64,44044,5,0,0:0:0:0:
288,256,44589,1,0,0:0:0:0:
288,256,45135,1,0,0:0:0:0:
288,256,45680,1,0,0:0:0:0:
252,84,46226,5,0,0:0:0:0:
368,84,46771,1,0,0:0:0:0:
372,308,47317,1,0,0:0:0:0:
136,308,47862,1,0,0:0:0:0:
136,88,48408,5,8,0:0:0:0:
252,264,48680,1,8,0:0:0:0:
84,136,48953,1,8,0:0:0:0:
272,232,49226,1,8,0:0:0:0:
392,60,49498,1,8,0:0:0:0:
236,200,49771,1,8,0:0:0:0:
88,52,50044,1,8,0:0:0:0:
260,172,50317,1,8,0:0:0:0:
332,96,50589,5,0,0:0:0:0:
252,28,50726,1,0,0:0:0:0:
184,108,50862,2,0,L|264:96,1,52.5000020027161
332,96,51135,5,0,0:0:0:0:
412,28,51272,1,0,0:0:0:0:
480,108,51408,2,0,L|400:96,1,52.5000020027161
240,192,51680,5,0,0:0:0:0:
360,20,51953,1,0,0:0:0:0:
76,176,52226,1,0,0:0:0:0:
344,332,52498,1,0,0:0:0:0:
408,156,52771,6,0,P|352:112|232:104,1,140,2|0,0:0|0:0,0:0:0:0:
68,104,53317,1,8,0:0:0:0:
244,216,53589,1,0,0:0:0:0:
448,224,53862,2,0,P|480:188|456:92,1,140,2|0,0:0|0:0,0:0:0:0:
312,248,54408,2,0,P|280:284|304:380,1,140,8|0,0:0|0:0,0:0:0:0:
368,172,54953,5,2,0:0:0:0:
196,48,55226,1,0,0:0:0:0:
80,248,55498,2,0,P|112:284|88:380,1,140,8|0,0:0|0:0,0:0:0:0:
24,172,56044,1,2,0:0:0:0:
196,48,56316,1,0,0:0:0:0:
196,260,56589,2,0,B|208:216|192:184|192:184|168:144|196:108|212:104,1,140,8|0,0:0|0:0,0:0:0:0:
196,336,57135,5,2,0:0:0:0:
448,52,57680,1,8,0:0:0:0:
236,52,57953,1,0,0:0:0:0:
356,224,58226,1,2,0:0:0:0:
412,24,58498,1,0,0:0:0:0:
220,108,58771,1,8,0:0:0:0:
408,204,59044,1,0,0:0:0:0:
268,200,59317,6,0,B|184:180|184:180|92:228|92:228|36:188|-8:212,1,280,2|8,0:0|0:0,0:0:0:0:
292,60,60135,1,0,0:0:0:0:
280,268,60408,1,2,0:0:0:0:
436,128,60680,1,0,0:0:0:0:
224,132,60953,1,8,0:0:0:0:
400,248,61226,1,0,0:0:0:0:
224,132,61498,5,2,0:0:0:0:
32,48,61771,1,0,0:0:0:0:
136,232,62044,1,8,0:0:0:0:
160,24,62317,1,0,0:0:0:0:
8,168,62589,1,2,0:0:0:0:
160,24,62862,1,0,0:0:0:0:
204,228,63135,2,0,P|280:280|332:260,1,140,8|0,0:0|0:0,0:0:0:0:
392,72,63680,5,2,0:0:0:0:
200,160,63953,1,0,0:0:0:0:
435,228,64226,2,0,P|359:280|307:260,1,140,8|0,0:0|0:0,0:0:0:0:
247,72,64771,5,2,0:0:0:0:
439,160,65044,1,0,0:0:0:0:
319,268,65317,2,0,B|295:192|351:168|303:76,1,140
456,36,65862,5,2,0:0:0:0:
112,276,66408,1,8,0:0:0:0:
260,128,66680,1,0,0:0:0:0:
336,324,66953,1,2,0:0:0:0:
176,188,67226,1,0,0:0:0:0:
296,264,67498,1,8,0:0:0:0:
340,260,67771,1,0,0:0:0:0:
376,256,68044,6,0,P|300:148|164:212,1,280,2|0,0:0|0:0,0:0:0:0:
40,348,68862,1,0,0:0:0:0:
136,248,69135,1,0,0:0:0:0:
20,168,69408,1,0,0:0:0:0:
80,52,69680,1,8,0:0:0:0:
20,168,69953,1,0,0:0:0:0:
80,52,70226,6,0,P|168:32|272:80,1,140,2|0,0:0|0:0,0:0:0:0:
432,52,70771,2,0,P|344:32|240:80,1,140,8|0,0:0|0:0,0:0:0:0:
144,240,71317,2,0,P|124:152|172:48,1,140,2|0,0:0|0:0,0:0:0:0:
368,240,71862,2,0,P|388:152|340:48,1,140,8|0,0:0|0:0,0:0:0:0:
176,20,72408,5,2,0:0:0:0:
128,224,72680,1,0,0:0:0:0:
84,20,72953,1,8,0:0:0:0:
128,224,73226,1,0,0:0:0:0:
328,164,73498,2,0,B|356:116|356:116|352:72|352:72|384:28,1,140,2|0,0:0|0:0,0:0:0:0:
320,264,74044,2,0,B|360:304|360:304|352:320|340:352|340:352|364:376,1,140,8|0,0:0|0:0,0:0:0:0:
160,308,74589,6,0,P|76:268|48:80,1,280
228,48,75408,2,0,P|140:32|64:60,2,140,0|2|0,0:0|0:0|0:0,0:0:0:0:
408,172,76226,2,0,P|416:260|360:344,1,140,8|0,0:0|0:0,0:0:0:0:
188,272,76771,5,2,0:0:0:0:
188,272,77317,1,8,0:0:0:0:
116,76,77589,1,0,0:0:0:0:
324,96,77862,1,2,0:0:0:0:
136,192,78135,1,0,0:0:0:0:
12,20,78408,1,8,0:0:0:0:
220,36,78680,1,0,0:0:0:0:
396,152,78953,6,0,P|408:240|372:292,1,140,2|0,0:0|0:0,0:0:0:0:
212,164,79498,1,8,0:0:0:0:
28,60,79771,1,0,0:0:0:0:
156,228,80044,2,0,P|132:140|188:96,1,140,2|0,0:0|0:0,0:0:0:0:
360,164,80589,2,0,L|192:164|188:164,1,140,8|0,0:0|0:0,0:0:0:0:
364,320,81135,5,2,0:0:0:0:
144,320,81408,1,0,0:0:0:0:
144,112,81680,1,8,0:0:0:0:
360,112,81953,1,0,0:0:0:0:
176,216,82226,2,0,B|108:192|108:192|56:200|56:200|72:228,1,140,2|0,0:0|0:0,0:0:0:0:
324,216,82771,2,0,B|392:192|392:192|444:200|444:200|428:228,1,140,8|0,0:0|0:0,0:0:0:0:
48,300,83317,6,0,B|60:224|24:176|24:176|76:120|24:88|136:72,1,280,2|8,0:0|0:0,0:0:0:0:
268,56,84135,1,0,0:0:0:0:
400,180,84408,1,2,0:0:0:0:
232,248,84680,1,0,0:0:0:0:
376,288,84953,1,8,0:0:0:0:
240,348,85226,1,0,0:0:0:0:
48,300,85498,6,0,B|60:224|24:176|24:176|76:120|24:88|136:72,1,280,2|8,0:0|0:0,0:0:0:0:
292,132,86317,1,0,0:0:0:0:
120,256,86589,1,2,0:0:0:0:
296,308,86862,1,0,0:0:0:0:
184,164,87135,2,0,L|72:40,1,140,8|0,0:0|0:0,0:0:0:0:
252,164,87680,5,2,0:0:0:0:
356,200,87953,1,0,0:0:0:0:
264,264,88226,1,0,0:0:0:0:
292,128,88498,1,0,0:0:0:0:
344,260,88771,1,0,0:0:0:0:
208,228,89044,1,0,0:0:0:0:
332,96,89317,2,0,L|452:188,1,140,8|0,0:0|0:0,0:0:0:0:
188,292,89862,5,6,0:0:0:0:
216,148,90135,1,0,0:0:0:0:
124,40,90408,1,8,0:0:0:0:
284,152,90680,1,0,0:0:0:0:
288,12,90953,1,2,0:0:0:0:
404,268,91226,1,0,0:0:0:0:
436,44,91498,2,0,B|392:56|384:80|384:80|376:112|304:140,1,140
436,340,92044,6,0,B|392:328|384:304|384:304|376:272|304:244,1,140
160,160,92589,2,0,L|48:72,1,140,8|0,0:0|0:0,0:0:0:0:
232,152,93135,2,0,L|304:24,1,140,2|0,0:0|0:0,0:0:0:0:
168,32,93680,1,8,0:0:0:0:
172,244,93953,1,0,0:0:0:0:
336,296,94226,6,0,P|404:272|440:180,1,140,2|0,0:0|0:0,0:0:0:0:
228,216,94771,1,8,0:0:0:0:
440,216,95044,1,0,0:0:0:0:
248,300,95317,2,0,P|180:276|144:184,1,140,2|0,0:0|0:0,0:0:0:0:
356,220,95862,1,8,0:0:0:0:
144,220,96135,1,0,0:0:0:0:
192,52,96408,6,0,P|264:40|344:72,1,140,2|0,0:0|0:0,0:0:0:0:
316,272,96953,2,0,P|260:252|152:288,1,140,8|0,0:0|0:0,0:0:0:0:
96,72,97498,2,0,P|132:164|212:196,1,140,2|0,0:0|0:0,0:0:0:0:
360,256,98044,1,8,0:0:0:0:
360,256,98317,1,0,0:0:0:0:
160,196,98589,6,0,B|100:144|100:144|128:108|128:108|124:68,1,140,2|0,0:0|0:0,0:0:0:0:
352,196,99135,2,0,B|412:144|412:144|384:108|384:108|388:68,1,140,8|0,0:0|0:0,0:0:0:0:
248,16,99680,2,0,B|220:80|280:116|232:172,1,140,2|0,0:0|0:0,0:0:0:0:
248,356,100226,2,0,B|220:292|280:256|232:200,1,140,8|0,0:0|0:0,0:0:0:0:
456,192,100771,6,0,L|156:192,1,280,2|8,0:0|0:0,0:0:0:0:
204,60,101589,1,0,0:0:0:0:
256,288,101862,1,2,0:0:0:0:
308,60,102135,1,0,0:0:0:0:
172,196,102408,2,0,L|332:196,1,140
476,328,102953,6,0,P|480:248|432:188,1,140,8|0,0:0|0:0,0:0:0:0:
304,48,103498,2,0,P|300:128|348:188,1,140,8|0,0:0|0:0,0:0:0:0:
124,324,104044,2,0,P|156:236|136:168,1,140,8|0,0:0|0:0,0:0:0:0:
48,8,104589,2,0,P|40:116|92:184,1,140
256,192,105135,5,0,0:0:0:0:
136,116,122589,5,2,0:0:0:0:
364,276,123135,2,0,P|364:204|312:172,1,105.000004005432
252,204,123680,2,0,P|188:268|76:232,1,210.000008010865
300,68,124771,5,2,0:0:0:0:
128,288,125317,2,0,L|128:180,1,105.000004005432
128,28,125862,2,0,P|200:140|160:224,1,210.000008010865
268,300,126953,5,2,0:0:0:0:
428,32,127498,2,0,L|428:140,1,105.000004005432
408,292,128043,2,0,P|336:180|376:96,1,210.000008010865
40,340,129135,5,2,0:0:0:0:
288,272,129680,2,0,L|376:168,1,105.000004005432
444,80,130226,2,0,P|480:180|432:280,1,210.000008010865
312,348,131044,1,0,0:0:0:0:
256,220,131317,5,0,0:0:0:0:
256,220,131862,1,0,0:0:0:0:
256,220,132408,1,0,0:0:0:0:
256,220,132953,1,0,0:0:0:0:
48,32,133498,5,0,0:0:0:0:
48,312,134044,1,0,0:0:0:0:
344,312,134589,1,0,0:0:0:0:
344,36,135135,1,0,0:0:0:0:
252,300,135680,6,8,L|124:192,1,140
284,236,136226,2,8,L|392:120,1,140
248,176,136771,2,8,L|132:72,1,140
280,112,137317,2,8,L|376:8,1,140
244,52,137862,6,0,L|172:12,3,70
144,76,138408,2,0,L|96:148,3,70
52,228,138953,1,0,0:0:0:0:
260,344,139498,1,0,0:0:0:0:
88,124,139771,1,0,0:0:0:0:
284,52,140044,5,2,0:0:0:0:
428,292,140589,1,8,0:0:0:0:
160,288,140862,1,2,0:0:0:0:
284,52,141135,2,0,P|196:52|40:176,1,280,2|8,0:0|0:0,0:0:0:0:
476,104,142226,1,2,0:0:0:0:
476,104,142498,1,0,0:0:0:0:
196,112,142771,1,8,0:0:0:0:
396,308,143044,1,0,0:0:0:0:
332,36,143317,1,2,0:0:0:0:
332,36,143862,1,8,0:0:0:0:
96,76,144408,5,2,0:0:0:0:
432,244,144953,2,0,P|460:192|440:92,1,140,8|0,0:0|0:0,0:0:0:0:
180,40,145498,2,0,B|144:96|172:144|172:144|72:204|120:304,1,280,2|8,0:0|0:0,0:0:0:0:
248,312,146589,5,2,0:0:0:0:
68,96,146862,1,0,0:0:0:0:
284,280,147135,1,8,0:0:0:0:
464,64,147408,1,0,0:0:0:0:
208,280,147680,2,0,B|168:216|204:196|100:112|348:64|244:0,1,280,2|8,0:0|0:0,0:0:0:0:
267,30,148498,1,0,0:0:0:0:
451,219,148771,6,0,B|355:151|291:207|291:207|199:139,1,280,2|8,0:0|0:0,0:0:0:0:
207,145,149589,1,0,0:0:0:0:
20,356,149862,2,0,B|92:336|96:296|96:296|96:188|272:260,1,280,2|8,0:0|0:0,0:0:0:0:
308,80,150953,5,2,0:0:0:0:
216,284,151226,1,0,0:0:0:0:
412,176,151498,1,8,0:0:0:0:
188,148,151771,1,0,0:0:0:0:
356,300,152044,2,0,B|420:204|408:156|408:156|384:104|384:104|300:80,1,280,2|8,0:0|0:0,0:0:0:0:
256,32,153135,5,2,0:0:0:0:
256,32,153680,2,0,L|256:204,1,140,8|0,0:0|0:0,0:0:0:0:
108,324,154226,2,0,B|156:264|156:264|24:224|64:124|124:108,1,280,2|8,0:0|0:0,0:0:0:0:
137,178,155317,5,2,0:0:0:0:
416,180,155589,1,0,0:0:0:0:
164,56,155862,1,8,0:0:0:0:
360,256,156135,1,0,0:0:0:0:
252,0,156408,2,0,L|288:296,1,280,2|8,0:0|0:0,0:0:0:0:
285,277,157226,5,0,0:0:0:0:
20,192,157498,2,10,P|88:176|140:124,1,140,2|2,0:0|0:0,0:0:0:0:
412,136,158044,2,0,P|344:152|292:204,1,140,8|0,0:0|0:0,0:0:0:0:
20,244,158589,2,0,P|184:212|268:112,1,280,2|8,0:0|0:0,0:0:0:0:
260,356,159680,6,0,P|280:280|240:212,1,140,2|2,0:0|0:0,0:0:0:0:
260,28,160226,2,0,P|280:104|240:172,1,140,8|0,0:0|0:0,0:0:0:0:
8,192,160771,1,2,0:0:0:0:
508,188,161317,1,8,0:0:0:0:
192,288,161862,6,0,P|280:316|320:280,1,140,2|2,0:0|0:0,0:0:0:0:
372,32,162408,2,0,P|464:48|480:116,1,140,8|0,0:0|0:0,0:0:0:0:
340,324,162953,2,0,B|380:260|320:200|320:200|392:180|408:96,1,280,2|8,0:0|0:0,0:0:0:0:
116,308,164044,5,2,0:0:0:0:
12,48,164317,1,0,0:0:0:0:
292,48,164589,1,8,0:0:0:0:
424,264,164862,1,0,0:0:0:0:
152,332,165135,2,0,B|228:240|176:168|348:120,1,280,2|8,0:0|0:0,0:0:0:0:
324,127,165953,1,0,0:0:0:0:
92,60,166226,6,0,B|156:124|76:132|76:208,1,140,0|2,0:0|0:0,0:0:0:0:
308,344,166771,2,0,B|244:280|324:272|324:196,1,140,8|0,0:0|0:0,0:0:0:0:
60,324,167317,2,0,B|200:296|80:240|152:156|216:244|300:112,1,280,2|8,0:0|0:0,0:0:0:0:
260,296,168408,5,2,0:0:0:0:
112,60,168680,1,2,0:0:0:0:
296,272,168953,1,8,0:0:0:0:
468,48,169226,1,0,0:0:0:0:
188,56,169498,2,0,B|252:108|268:188|268:188|184:224|196:308,1,280,2|8,0:0|0:0,0:0:0:0:
256,336,170589,5,2,0:0:0:0:
256,336,170862,1,2,0:0:0:0:
256,336,171135,2,0,P|344:312|400:232,1,140,8|0,0:0|0:0,0:0:0:0:
240,36,171680,2,0,B|268:108|208:184|120:188|104:268,1,280,2|8,0:0|0:0,0:0:0:0:
208,288,172771,5,2,0:0:0:0:
44,60,173044,1,2,0:0:0:0:
208,288,173317,1,2,0:0:0:0:
204,8,173589,1,2,0:0:0:0:
208,288,173862,1,2,0:0:0:0:
364,56,174135,1,2,0:0:0:0:
208,288,174408,1,2,0:0:0:0:
204,8,174680,1,0,0:0:0:0:
292,88,174953,6,0,B|240:104|232:200|232:200|176:168|168:208|136:196,1,210,6|0,0:0|0:0,0:0:0:0:
140,260,176044,2,0,L|132:294,2,35
160,195,176589,1,0,0:0:0:0:
160,195,176862,1,0,0:0:0:0:
196,136,177135,6,0,B|252:152|272:228|272:228|352:228|352:228|376:228,1,210,2|0,0:0|0:0,0:0:0:0:
428,228,178226,1,0,0:0:0:0:
428,228,178362,1,0,0:0:0:0:
428,228,178498,1,0,0:0:0:0:
424,300,178771,2,0,P|384:308|352:284,1,70
292,284,179317,6,0,B|252:240|280:192|280:192|264:136|264:136|296:92,1,210,2|0,0:0|0:0,0:0:0:0:
228,68,180408,1,0,0:0:0:0:
192,68,180544,1,0,0:0:0:0:
156,68,180680,1,0,0:0:0:0:
88,72,180953,2,0,L|88:164,1,70
100,212,181498,6,0,B|176:176|240:236|304:168|372:100,1,280,2|0,0:0|0:0,0:0:0:0:
400,172,182862,1,0,0:0:0:0:
416,240,183135,1,0,0:0:0:0:
364,288,183408,1,0,0:0:0:0:
348,220,183680,6,0,P|264:172|204:64,1,210,2|0,0:0|0:0,0:0:0:0:
136,72,184771,2,0,P|133:54|136:36,2,35
207,76,185317,1,0,0:0:0:0:
236,140,185589,1,0,0:0:0:0:
304,160,185862,6,0,B|364:164|444:120|488:56,1,210
420,32,186953,1,0,0:0:0:0:
384,32,187089,1,0,0:0:0:0:
348,32,187226,1,0,0:0:0:0:
280,32,187498,2,0,L|184:32,1,70
192,100,188044,6,0,B|140:80|140:28|140:28|68:24|12:64,1,210,2|0,0:0|0:0,0:0:0:0:
28,124,189135,1,0,0:0:0:0:
28,124,189271,1,0,0:0:0:0:
28,124,189408,1,0,0:0:0:0:
92,152,189680,1,0,0:0:0:0:
156,180,189953,1,0,0:0:0:0:
124,244,190226,6,0,B|112:284|132:312|172:312|172:312|224:308|244:232|260:220|276:212|316:204,1,280,2|0,0:0|0:0,0:0:0:0:
356,260,191589,1,0,0:0:0:0:
376,192,191862,1,0,0:0:0:0:
348,128,192135,1,0,0:0:0:0:
80,132,192408,5,2,0:0:0:0:
80,132,192953,2,0,P|152:120|220:152,1,105.000004005432
128,216,193498,2,0,P|240:224|328:164,1,210.000008010865,2|0,0:0|0:0,0:0:0:0:
480,36,194589,5,2,0:0:0:0:
188,36,195135,1,0,0:0:0:0:
280,196,195395,1,0,0:0:0:0:
328,100,195656,2,0,B|216:80|204:120|168:156|128:84|128:104|108:100|88:84|88:84,1,210.000008010865,2|0,0:0|0:0,0:0:0:0:
432,232,196700,5,2,0:0:0:0:
264,48,197221,2,0,P|184:36|136:72,1,105.000004005432
88,120,197743,2,0,P|80:224|164:292,1,210.000008010865,2|0,0:0|0:0,0:0:0:0:
244,56,198787,5,2,0:0:0:0:
384,128,199308,2,0,B|392:92|484:92|468:16,1,105.000004005432
244,36,199788,2,0,B|240:136|316:144|376:184|332:256,1,210.000008010865,2|0,0:0|0:0,0:0:0:0:
284,296,200508,1,0,0:0:0:0:
140,132,200748,5,0,0:0:0:0:
140,132,201228,1,0,0:0:0:0:
248,224,201689,1,0,0:0:0:0:
360,316,202151,1,0,0:0:0:0:
360,128,202612,1,0,0:0:0:0:
360,128,203074,1,0,0:0:0:0:
276,168,203288,1,0,0:0:0:0:
172,160,203502,2,0,P|188:80|232:48,2,105.000004005432
224,252,204131,1,0,0:0:0:0:
296,312,204331,5,8,0:0:0:0:
412,232,204531,1,8,0:0:0:0:
448,116,204731,1,8,0:0:0:0:
320,168,204918,1,8,0:0:0:0:
188,212,205106,1,8,0:0:0:0:
128,84,205293,1,8,0:0:0:0:
268,92,205481,1,8,0:0:0:0:
156,172,205668,1,8,0:0:0:0:
352,80,205856,5,0,0:0:0:0:
336,112,205944,1,0,0:0:0:0:
324,144,206032,1,0,0:0:0:0:
316,180,206120,1,0,0:0:0:0:
316,216,206208,1,0,0:0:0:0:
320,252,206297,1,0,0:0:0:0:
324,288,206385,1,0,0:0:0:0:
332,320,206473,1,0,0:0:0:0:
348,352,206561,1,0,0:0:0:0:
452,320,206914,1,0,0:0:0:0:
452,320,207091,1,0,0:0:0:0:
448,112,207267,5,2,0:0:0:0:
184,48,207620,2,0,P|108:72|68:152,1,140,8|0,0:0|0:0,0:0:0:0:
136,320,207973,2,0,P|192:168|324:152,1,280,8|0,0:0|0:0,0:0:0:0:
308,268,208679,5,2,0:0:0:0:
476,140,208856,1,0,0:0:0:0:
268,120,209032,1,0,0:0:0:0:
352,280,209208,1,2,0:0:0:0:
400,76,209385,2,0,P|372:164|164:176,1,280,8|0,0:0|0:0,0:0:0:0:
72,56,210091,5,2,0:0:0:0:
72,56,210444,1,0,0:0:0:0:
72,56,210620,1,0,0:0:0:0:
56,288,210797,2,0,B|56:168|232:136|292:232,1,280,8|0,0:0|0:0,0:0:0:0:
404,88,211503,5,2,0:0:0:0:
336,288,211679,1,0,0:0:0:0:
404,88,211856,1,0,0:0:0:0:
236,216,212032,1,2,0:0:0:0:
404,88,212208,2,0,P|184:112|136:148,1,280,8|0,0:0|0:0,0:0:0:0:
142,142,212738,1,0,0:0:0:0:
52,332,212914,5,2,0:0:0:0:
52,332,213267,2,0,P|184:336|232:308,1,140
392,288,213620,2,0,P|252:232|96:264,1,280,8|0,0:0|0:0,0:0:0:0:
432,148,214326,5,2,0:0:0:0:
256,32,214503,1,0,0:0:0:0:
80,148,214679,1,0,0:0:0:0:
256,264,214856,1,2,0:0:0:0:
156,76,215032,2,0,P|260:156|360:56,1,280,8|0,0:0|0:0,0:0:0:0:
416,272,215738,5,2,0:0:0:0:
100,8,216091,2,0,L|212:100,1,140
124,224,216444,2,0,B|180:164|180:164|248:192|296:132|304:72|260:36|228:32,1,280,8|0,0:0|0:0,0:0:0:0:
164,36,217150,5,2,0:0:0:0:
360,120,217326,1,0,0:0:0:0:
180,208,217503,1,0,0:0:0:0:
20,132,217679,1,0,0:0:0:0:
20,132,217767,1,0,0:0:0:0:
24,139,217856,2,0,P|82:260|216:280,1,280,8|0,0:0|0:0,0:0:0:0:
24,140,218385,1,0,0:0:0:0:
292,36,218561,5,2,0:0:0:0:
292,36,218914,2,0,P|344:132|344:176,1,140,8|0,0:0|0:0,0:0:0:0:
84,56,219267,2,0,P|96:196|232:300,1,280,8|0,0:0|0:0,0:0:0:0:
260,304,219973,5,2,0:0:0:0:
396,128,220150,1,0,0:0:0:0:
216,272,220326,1,0,0:0:0:0:
108,112,220503,1,2,0:0:0:0:
292,272,220679,2,0,B|360:196|344:100|468:56,1,280,8|0,0:0|0:0,0:0:0:0:
400,320,221385,5,2,0:0:0:0:
48,188,221738,1,8,0:0:0:0:
48,188,221914,1,0,0:0:0:0:
48,188,222091,2,0,P|152:132|324:200,1,280,8|0,0:0|0:0,0:0:0:0:
236,296,222797,5,2,0:0:0:0:
448,116,222973,1,0,0:0:0:0:
172,60,223150,1,0,0:0:0:0:
268,324,223326,1,2,0:0:0:0:
420,68,223503,1,8,0:0:0:0:
420,68,223856,2,0,P|328:80|288:136,2,140,0|0|2,0:0|0:0|0:0,0:0:0:0:
320,188,224561,6,0,L|480:188,1,140,8|0,0:0|0:0,0:0:0:0:
216,324,224914,2,0,P|124:336|40:176,1,280,8|0,0:0|0:0,0:0:0:0:
184,72,225620,5,2,0:0:0:0:
348,300,225797,1,0,0:0:0:0:
84,208,225973,1,0,0:0:0:0:
352,128,226150,1,2,0:0:0:0:
172,340,226326,1,8,0:0:0:0:
172,340,226679,1,0,0:0:0:0:
256,40,227032,5,2,0:0:0:0:
256,40,227385,2,0,L|256:184,1,140,8|0,0:0|0:0,0:0:0:0:
76,184,227738,2,0,B|200:164|184:240|232:272|284:268|316:224|328:192,1,280,8|0,0:0|0:0,0:0:0:0:
104,304,228797,5,0,0:0:0:0:
252,68,228973,1,0,0:0:0:0:
404,304,229150,1,0,0:0:0:0:
252,68,229326,1,8,0:0:0:0:
112,200,229503,1,8,0:0:0:0:
392,200,229679,1,0,0:0:0:0:
256,156,229855,6,0,B|160:116|160:116|16:232,1,280,2|0,0:0|0:0,0:0:0:0:
356,256,230561,2,0,B|396:160|396:160|280:16,1,280,8|0,0:0|0:0,0:0:0:0:
185,122,231267,2,0,B|145:218|145:218|261:362,1,280,2|0,0:0|0:0,0:0:0:0:
256,156,231973,2,0,B|352:116|352:116|496:232,1,280,8|0,0:0|0:0,0:0:0:0:
112,352,232679,5,2,0:0:0:0:
112,72,233032,1,0,0:0:0:0:
392,76,233385,1,8,0:0:0:0:
392,356,233738,1,0,0:0:0:0:
196,156,234091,6,0,B|116:208|116:208|80:240|100:276|100:276|116:296|32:352,1,280,2|0,0:0|0:0,0:0:0:0:
316,228,234797,2,0,B|396:176|396:176|432:144|412:108|412:108|396:88|480:32,1,280,8|0,0:0|0:0,0:0:0:0:
256,352,235503,2,0,B|204:272|204:272|172:236|136:256|136:256|116:272|60:188,1,280,2|0,0:0|0:0,0:0:0:0:
256,32,236208,2,0,B|308:112|308:112|340:148|376:128|376:128|396:112|452:196,1,280,8|0,0:0|0:0,0:0:0:0:
188,288,236914,6,0,P|92:256|84:68,1,280,2|0,0:0|0:0,0:0:0:0:
324,288,237620,2,0,P|420:256|428:68,1,280,8|0,0:0|0:0,0:0:0:0:
256,48,238326,5,2,0:0:0:0:
256,328,238679,1,0,0:0:0:0:
60,180,239032,1,8,0:0:0:0:
456,184,239385,1,0,0:0:0:0:
456,184,239738,6,0,B|392:128|324:156|324:156|232:112|264:16,1,280,2|0,0:0|0:0,0:0:0:0:
60,180,240444,2,0,B|124:236|192:208|192:208|284:252|252:348,1,280,8|0,0:0|0:0,0:0:0:0:
428,92,241150,5,2,0:0:0:0:
156,128,241503,1,0,0:0:0:0:
412,252,241855,1,8,0:0:0:0:
248,24,242208,1,0,0:0:0:0:
180,296,242561,1,2,0:0:0:0:
52,48,242914,1,0,0:0:0:0:
100,324,243267,5,8,0:0:0:0:
308,136,243620,1,0,0:0:0:0:
100,324,243973,2,0,B|52:256|132:212|132:212|164:116|16:120,1,280,2|0,0:0|0:0,0:0:0:0:
412,60,244679,2,0,B|460:128|380:172|380:172|348:268|496:264,1,280,8|0,0:0|0:0,0:0:0:0:
284,40,245385,2,0,B|212:56|212:120|124:48|124:48|80:56|24:32,1,280,2|0,0:0|0:0,0:0:0:0:
228,344,246091,2,0,B|300:328|300:264|388:336|388:336|432:328|488:352,1,280,8|0,0:0|0:0,0:0:0:0:
300,40,246797,5,2,0:0:0:0:
208,328,247150,1,0,0:0:0:0:
364,104,247503,1,8,0:0:0:0:
144,264,247855,1,0,0:0:0:0:
392,196,248208,1,2,0:0:0:0:
116,172,248561,1,0,0:0:0:0:
360,276,248914,1,8,0:0:0:0:
148,92,249267,1,0,0:0:0:0:
292,328,249620,1,2,0:0:0:0:
216,40,249973,1,0,0:0:0:0:
180,184,250326,5,8,0:0:0:0:
252,184,250679,1,0,0:0:0:0:
324,184,251032,1,2,0:0:0:0:
252,184,251385,1,0,0:0:0:0:
256,324,251650,1,8,0:0:0:0:
256,324,251738,2,0,P|192:320|180:304,2,70
428,184,252444,5,6,0:0:0:0:
428,184,252797,2,0,P|364:128|320:128,1,105.000004005432
184,260,253150,2,0,B|220:200|216:140|156:168|104:136|168:44,1,210.000008010865
248,60,253855,5,2,0:0:0:0:
424,56,254208,2,0,P|368:60|320:128,1,105.000004005432
184,260,254561,2,0,P|284:272|368:204,1,210.000008010865
292,156,255267,5,2,0:0:0:0:
132,68,255620,2,0,P|96:112|116:168,1,105.000004005432
320,348,255973,2,0,B|228:296|256:264|324:260|176:160,1,210.000008010865
292,156,256679,5,2,0:0:0:0:
364,48,257032,2,0,P|412:88|412:160,1,105.000004005432
260,296,257385,2,0,P|328:228|348:108,1,210.000008010865
140,132,257914,1,0,0:0:0:0:
304,300,258091,5,0,0:0:0:0:
424,48,258444,1,0,0:0:0:0:
144,80,258797,1,0,0:0:0:0:
352,268,259150,1,0,0:0:0:0:
352,48,259503,1,0,0:0:0:0:
72,48,259855,1,0,0:0:0:0:
72,272,260208,1,0,0:0:0:0:
208,160,260561,1,0,0:0:0:0:
240,324,260914,6,8,P|324:284|348:244,1,140
308,112,261267,1,8,0:0:0:0:
172,80,261444,1,8,0:0:0:0:
96,196,261620,2,8,P|184:192|220:144,1,140
300,44,261973,1,8,0:0:0:0:
424,112,262150,1,8,0:0:0:0:
404,252,262326,5,0,0:0:0:0:
380,228,262414,1,0,0:0:0:0:
344,220,262503,1,0,0:0:0:0:
308,224,262591,1,0,0:0:0:0:
276,232,262679,1,0,0:0:0:0:
244,244,262767,1,0,0:0:0:0:
212,236,262855,1,0,0:0:0:0:
180,216,262944,1,0,0:0:0:0:
152,196,263032,2,0,P|80:156|24:172,1,140
27,169,263561,1,0,0:0:0:0:
260,332,263738,5,2,0:0:0:0:
432,112,264091,1,8,0:0:0:0:
432,112,264267,1,0,0:0:0:0:
432,112,264444,2,0,B|324:72|208:120|136:56,1,280,0|8,0:0|0:0,0:0:0:0:
120,248,265150,5,2,0:0:0:0:
400,256,265326,1,0,0:0:0:0:
168,96,265503,1,0,0:0:0:0:
252,364,265679,1,0,0:0:0:0:
332,96,265855,2,0,B|260:128|260:128|240:136|232:184|288:212|320:236|320:236|272:296,1,280,2|8,0:0|0:0,0:0:0:0:
80,80,266561,5,2,0:0:0:0:
124,272,266914,2,0,P|176:280|272:248,1,140,8|0,0:0|0:0,0:0:0:0:
456,248,267267,2,0,P|460:120|288:36,1,280,0|8,0:0|0:0,0:0:0:0:
296,316,267973,5,2,0:0:0:0:
144,80,268150,1,0,0:0:0:0:
380,228,268326,1,0,0:0:0:0:
100,200,268503,1,0,0:0:0:0:
368,124,268679,1,8,0:0:0:0:
252,32,269032,2,0,B|252:116|252:116|268:152|268:152|256:184,1,140,8|0,0:0|0:0,0:0:0:0:
40,340,269385,5,2,0:0:0:0:
196,164,269738,2,0,L|80:60,1,140,8|0,0:0|0:0,0:0:0:0:
400,48,270091,2,0,B|240:96|360:232|240:248|208:232|204:228|204:228|184:216,1,280,0|8,0:0|0:0,0:0:0:0:
80,348,270797,6,0,P|168:344|196:280,1,140,2|0,0:0|0:0,0:0:0:0:
132,204,271150,2,0,P|136:116|200:88,1,140,8|0,0:0|0:0,0:0:0:0:
452,188,271503,2,0,P|304:200|264:320,1,280,0|8,0:0|0:0,0:0:0:0:
224,24,272208,5,2,0:0:0:0:
256,336,272561,1,8,0:0:0:0:
256,336,272738,1,0,0:0:0:0:
252,332,272914,2,0,B|260:260|204:256|228:196|228:196|248:136|184:132|184:68,1,280,0|8,0:0|0:0,0:0:0:0:
308,84,273444,1,2,0:0:0:0:
388,160,273620,1,2,0:0:0:0:
84,288,273973,6,0,P|156:244|156:184,1,140,8|0,0:0|0:0,0:0:0:0:
159,194,274326,2,0,P|143:119|319:54,1,280
298,37,274855,1,0,0:0:0:0:
408,296,275032,5,2,0:0:0:0:
408,296,275385,2,0,L|292:200,1,140,8|0,0:0|0:0,0:0:0:0:
72,40,275738,2,0,B|92:136|224:136|252:300,1,280,0|8,0:0|0:0,0:0:0:0:
256,324,276444,1,2,0:0:0:0:
256,152,276620,1,0,0:0:0:0:
256,324,276797,1,8,0:0:0:0:
256,152,276973,1,0,0:0:0:0:
332,328,277150,2,0,B|336:256|276:232|220:252|200:204|172:192|172:160|164:132|192:116|200:88,1,280,0|8,0:0|0:0,0:0:0:0:
456,68,277855,5,2,0:0:0:0:
64,292,278208,1,8,0:0:0:0:
344,300,278385,1,0,0:0:0:0:
220,52,278561,2,0,B|160:152|160:152|240:248|240:248|204:300,1,280,0|8,0:0|0:0,0:0:0:0:
256,324,279267,5,2,0:0:0:0:
124,76,279444,1,0,0:0:0:0:
312,284,279620,1,8,0:0:0:0:
272,80,279797,1,0,0:0:0:0:
252,240,279973,2,0,B|272:208|192:96|428:132|444:128|440:40,1,280,0|8,0:0|0:0,0:0:0:0:
439,72,280503,1,0,0:0:0:0:
172,144,280679,5,2,0:0:0:0:
400,304,281032,2,0,P|440:224|412:164,1,140,8|0,0:0|0:0,0:0:0:0:
180,44,281385,2,0,P|96:104|104:300,1,280,0|8,0:0|0:0,0:0:0:0:
216,340,282091,6,0,L|124:204,1,140,2|0,0:0|0:0,0:0:0:0:
352,208,282444,2,0,L|472:48,1,140,8|0,0:0|0:0,0:0:0:0:
232,208,282797,2,0,B|228:136|152:128|152:128|72:120|112:80|96:36|12:32,1,280,8|8,0:0|0:0,0:0:0:0:
476,328,283503,5,2,0:0:0:0:
80,308,283855,1,8,0:0:0:0:
80,308,284032,1,0,0:0:0:0:
80,308,284208,2,0,P|256:304|336:224,1,280,0|8,0:0|0:0,0:0:0:0:
424,80,284914,1,2,0:0:0:0:
292,304,285267,5,8,0:0:0:0:
60,148,285444,1,0,0:0:0:0:
292,304,285620,1,0,0:0:0:0:
264,44,285973,2,0,P|244:120|288:208,1,140,8|0,0:0|0:0,0:0:0:0:
128,340,286326,5,2,0:0:0:0:
436,52,286679,1,8,0:0:0:0:
72,260,287032,1,0,0:0:0:0:
472,136,287385,1,8,0:0:0:0:
52,172,287738,1,2,0:0:0:0:
472,212,288091,1,8,0:0:0:0:
68,92,288444,1,0,0:0:0:0:
440,284,288797,1,8,0:0:0:0:
108,24,289150,1,2,0:0:0:0:
388,340,289503,1,8,0:0:0:0:
52,244,289855,6,0,P|136:304|312:272,1,280,0|8,0:0|0:0,0:0:0:0:
464,48,290561,1,2,0:0:0:0:
192,116,290914,1,8,0:0:0:0:
412,292,291267,2,0,P|392:164|244:68,1,280,0|8,0:0|0:0,0:0:0:0:
96,288,291973,1,2,0:0:0:0:
188,24,292326,1,8,0:0:0:0:
260,296,292679,2,0,B|336:208|280:144|436:68,1,280,0|8,0:0|0:0,0:0:0:0:
140,96,293385,5,2,0:0:0:0:
356,272,293738,1,8,0:0:0:0:
76,292,294091,2,0,P|236:204|252:108,1,280,0|8,0:0|0:0,0:0:0:0:
448,324,294797,1,2,0:0:0:0:
300,84,295150,1,0,0:0:0:0:
148,320,295503,2,0,P|48:192|92:64,1,280,0|8,0:0|0:0,0:0:0:0:
352,272,296208,2,0,B|376:196|496:160|468:72|472:12,1,280,2|0,0:0|0:0,0:0:0:0:
188,28,296914,2,0,B|164:104|44:140|72:228|68:288,1,280,2|8,0:0|0:0,0:0:0:0:
72,340,297620,5,2,0:0:0:0:
80,60,297973,1,8,0:0:0:0:
160,336,298326,1,0,0:0:0:0:
236,64,298679,1,8,0:0:0:0:
252,344,299032,1,2,0:0:0:0:
328,76,299385,1,8,0:0:0:0:
192,336,299738,1,0,0:0:0:0:
124,64,300091,1,8,0:0:0:0:
48,332,300444,6,0,P|88:240|288:276,1,280,2|8,0:0|0:0,0:0:0:0:
500,360,301150,1,2,0:0:0:0:
464,84,301503,1,8,0:0:0:0:
248,264,301855,2,8,P|112:344|32:220,1,280,10|8,0:0|0:0,0:0:0:0:
256,80,302561,2,0,P|360:44|488:176,1,280,0|8,0:0|0:0,0:0:0:0:
256,312,303267,1,2,0:0:0:0:
256,32,303620,1,8,0:0:0:0:
256,312,303973,1,0,0:0:0:0:
256,32,304326,1,8,0:0:0:0:
476,204,304679,6,0,P|384:104|220:188,3,280,2|8|0|8,0:0|0:0|0:0|0:0,0:0:0:0:
200,52,306091,2,0,P|129:167|255:302,3,280,2|8|0|8,0:0|0:0|0:0|0:0,0:0:0:0:
92,296,307503,1,2,0:0:0:0:
432,52,307855,1,8,0:0:0:0:
88,52,308208,1,0,0:0:0:0:
428,304,308561,1,8,0:0:0:0:
188,160,308914,5,0,0:0:0:0:
468,184,309267,1,0,0:0:0:0:
196,256,309620,1,0,0:0:0:0:
432,104,309973,1,2,0:0:0:0:
292,84,310150,1,2,0:0:0:0:
80,304,310679,5,0,0:0:0:0:
84,24,311032,1,0,0:0:0:0:
176,212,311385,2,2,L|276:136,1,105.000004005432
304,328,312091,2,0,P|408:264|436:160,1,210.000008010865
228,144,312797,2,2,L|328:224,1,105.000004005432
16,324,313503,5,0,0:0:0:0:
68,120,313855,1,0,0:0:0:0:
156,312,314208,1,2,0:0:0:0:
224,232,314385,1,2,0:0:0:0:
432,252,314914,6,0,P|440:176|408:96,1,140
300,48,315620,1,2,0:0:0:0:
228,48,315797,1,2,0:0:0:0:
64,180,316326,6,0,B|104:248|104:248|188:280,1,140
260,172,317032,2,2,B|248:140|248:140|208:108,1,70
356,276,317738,5,0,0:0:0:0:
420,152,318091,1,0,0:0:0:0:
304,76,318444,1,2,0:0:0:0:
304,144,318620,1,2,0:0:0:0:
68,40,319150,6,0,L|208:40,1,140
308,118,319855,2,2,L|308:42,1,70
308,48,320208,5,0,0:0:0:0:
188,120,320561,1,0,0:0:0:0:
188,260,320914,1,0,0:0:0:0:
308,336,321267,1,2,0:0:0:0:
308,336,321444,1,2,0:0:0:0:
388,336,321973,6,0,P|452:304|464:232,1,140
444,88,322679,1,2,0:0:0:0:
452,156,322855,1,2,0:0:0:0:
240,40,323385,1,0,0:0:0:0:
200,176,323738,1,0,0:0:0:0:
240,40,324091,1,2,0:0:0:0:
284,96,324267,1,2,0:0:0:0:
488,52,324797,5,0,0:0:0:0:
376,136,325150,1,0,0:0:0:0:
484,224,325503,1,2,0:0:0:0:
424,256,325679,1,2,0:0:0:0:
228,252,326208,6,0,P|196:192|244:124,1,140
344,192,326914,2,2,L|256:192,1,70
136,36,327620,5,0,0:0:0:0:
276,36,327973,1,0,0:0:0:0:
204,156,328326,2,2,L|204:72,1,70
384,192,329032,6,0,B|424:184|424:156|476:112|512:96,1,140
340,136,329738,1,2,0:0:0:0:
296,80,329914,1,2,0:0:0:0:
84,80,330444,5,0,0:0:0:0:
208,140,330797,1,0,0:0:0:0:
252,272,331150,1,2,0:0:0:0:
252,272,331326,1,2,0:0:0:0:
444,188,331855,5,0,0:0:0:0:
368,188,332208,1,0,0:0:0:0:
292,188,332561,1,2,0:0:0:0:
272,188,332738,1,2,0:0:0:0:
140,272,333267,6,0,P|68:248|64:176,1,140
192,196,333973,2,2,P|136:200|100:228,1,70
308,308,334679,2,0,P|368:288|416:208,1,140
411,227,335385,1,2,0:0:0:0:
416,156,335561,1,2,0:0:0:0:
224,52,336091,5,0,0:0:0:0:
224,52,336444,1,0,0:0:0:0:
224,192,336797,1,2,0:0:0:0:
224,260,336973,1,2,0:0:0:0:
436,264,337503,6,0,P|452:192|416:120,1,140
300,192,338208,1,2,0:0:0:0:
224,192,338385,1,2,0:0:0:0:
64,324,338914,5,0,0:0:0:0:
204,324,339267,1,0,0:0:0:0:
136,204,339620,1,2,0:0:0:0:
136,276,339797,1,2,0:0:0:0:
344,264,340326,6,0,L|344:104,1,140
204,124,341032,2,2,L|204:40,1,70
412,72,341738,6,0,B|352:36|352:36|280:76,1,140
412,144,342444,1,2,0:0:0:0:
412,212,342620,1,2,0:0:0:0:
340,212,343150,6,0,P|308:148|220:132,1,140
132,196,343855,2,2,P|120:216|120:284,1,70
168,60,344561,1,0,0:0:0:0:
308,80,344914,1,0,0:0:0:0:
184,148,345267,1,2,0:0:0:0:
248,176,345444,1,2,0:0:0:0:
104,328,345973,6,0,L|256:328,1,140
368,264,346679,2,2,L|280:264,1,70
108,176,347385,1,0,0:0:0:0:
152,44,347738,1,0,0:0:0:0:
184,180,348091,1,2,0:0:0:0:
196,248,348267,1,2,0:0:0:0:
248,296,348444,6,0,L|328:312,1,70
340,244,348797,2,0,L|268:204,1,70
324,136,349150,2,0,L|384:188,1,70
436,144,349503,2,2,L|404:72,1,70
352,36,349855,6,0,L|268:36,1,70
212,36,350208,2,0,L|212:112,1,70
212,176,350561,2,0,L|132:176,1,70
72,180,350914,2,2,L|72:272,1,70
76,320,351267,5,0,0:0:0:0:
148,316,351444,1,0,0:0:0:0:
212,284,351620,1,0,0:0:0:0:
268,240,351797,1,0,0:0:0:0:
304,180,351973,1,0,0:0:0:0:
336,116,352150,1,0,0:0:0:0:
380,60,352326,1,2,0:0:0:0:
444,32,352503,1,2,0:0:0:0:
444,100,352679,6,0,L|444:200,1,70
440,240,353032,2,0,L|376:304,1,70
324,312,353385,2,0,L|244:320,1,70
184,312,353738,2,2,L|112:260,1,70
256,192,354091,12,0,359208,0:0:0:0:
