osu file format v14

[General]
AudioFilename: Teminite & Panda Eyes - Highscore.mp3
AudioLeadIn: 0
PreviewTime: 95292
Countdown: 0
SampleSet: Soft
StackLeniency: 0.7
Mode: 0
LetterboxInBreaks: 0
WidescreenStoryboard: 0

[Editor]
Bookmarks: 4747,9110,26565,44019,61474,78928,96383,113837,133474,150928,168383,185837,205474,222928,240383
DistanceSpacing: 1
BeatDivisor: 16
GridSize: 4
TimelineZoom: 2.3

[Metadata]
Title:Highscore
TitleUnicode:Highscore
Artist:Panda Eyes & Teminite
ArtistUnicode:Panda Eyes & Teminite
Creator:Fort
Version:Standard
Source:
Tags:LGV894 glitch hop 110 style Fxtra over 9000!!!
BeatmapID:736217
BeatmapSetID:332532

[Difficulty]
HPDrainRate:3
CircleSize:3
OverallDifficulty:3.5
ApproachRate:4
SliderMultiplier:1.2
SliderTickRate:1

[Events]
//Background and Video events
0,0,"BG.png",0,0
//Break Periods
2,9310,9972
2,11492,12154
2,13674,14336
2,15856,16517
2,96583,103790
2,186037,193245
2,203292,204154
//Storyboard Layer 0 (Background)
//Storyboard Layer 1 (Fail)
//Storyboard Layer 2 (Pass)
//Storyboard Layer 3 (Foreground)
//Storyboard Sound Samples

[TimingPoints]
4747,545.454545454546,4,2,2,100,1,0
9110,-76.9230769230769,4,2,2,70,0,0
9656,-76.9230769230769,4,2,2,25,0,0
11292,-76.9230769230769,4,2,2,70,0,0
11837,-76.9230769230769,4,2,2,40,0,0
13474,-76.9230769230769,4,2,2,70,0,0
14019,-76.9230769230769,4,2,2,50,0,0
15656,-76.9230769230769,4,2,2,80,0,0
17837,-76.9230769230769,4,2,2,80,0,0
26565,-76.9230769230769,4,2,3,100,0,0
28747,-76.9230769230769,4,2,2,100,0,0
35292,-76.9230769230769,4,2,3,100,0,0
35360,-76.9230769230769,4,2,2,100,0,0
43474,-76.9230769230769,4,2,1,100,0,0
44019,-76.9230769230769,4,2,30,100,0,1
44087,-76.9230769230769,4,2,1,100,0,1
44565,-76.9230769230769,4,2,1,100,0,0
52201,-76.9230769230769,4,2,20,100,0,0
52235,-76.9230769230769,4,2,1,100,0,0
60860,-76.9230769230769,4,2,2,100,0,0
60997,-76.9230769230769,4,2,1,100,0,0
61474,-76.9230769230769,4,2,1,100,0,0
78315,-76.9230769230769,4,2,20,100,0,0
78451,-76.9230769230769,4,2,1,100,0,0
78928,-76.9230769230769,4,2,1,100,0,0
96383,-76.9230769230769,4,2,30,50,0,0
96451,-76.9230769230769,4,2,1,100,0,0
113837,-76.9230769230769,4,2,30,100,0,1
113906,-76.9230769230769,4,2,1,100,0,1
121951,-76.9230769230769,4,2,20,100,0,1
122087,-76.9230769230769,4,2,1,100,0,1
122292,-76.9230769230769,4,2,4,100,0,1
122326,-76.9230769230769,4,2,1,100,0,1
122565,-76.9230769230769,4,2,30,100,0,1
122633,-76.9230769230769,4,2,1,100,0,1
129110,-76.9230769230769,4,2,2,100,0,0
133474,-76.9230769230769,4,2,30,100,0,1
133542,-76.9230769230769,4,2,1,100,0,1
137837,-76.9230769230769,4,2,30,100,0,1
137872,-76.9230769230769,4,2,1,100,0,1
142201,-76.9230769230769,4,2,30,100,0,1
142235,-76.9230769230769,4,2,1,100,0,1
146565,-76.9230769230769,4,2,30,100,0,1
146599,-76.9230769230769,4,2,1,100,0,1
149837,-76.9230769230769,4,2,1,100,0,1
150383,-76.9230769230769,4,2,1,100,0,1
150928,-76.9230769230769,4,2,1,100,0,0
153383,-76.9230769230769,4,2,4,100,0,1
153417,-76.9230769230769,4,2,1,100,0,1
155019,-76.9230769230769,4,2,1,100,0,0
157747,-76.9230769230769,4,2,4,100,0,1
157781,-76.9230769230769,4,2,1,100,0,1
159110,-76.9230769230769,4,2,20,100,0,1
159144,-76.9230769230769,4,2,1,100,0,1
159383,-76.9230769230769,4,2,1,100,0,0
159928,-76.9230769230769,4,2,4,70,0,0
159962,-76.9230769230769,4,2,1,100,0,0
160474,-76.9230769230769,4,2,4,70,0,0
160508,-76.9230769230769,4,2,1,100,0,0
161019,-76.9230769230769,4,2,4,70,0,0
161053,-76.9230769230769,4,2,1,100,0,0
161565,-76.9230769230769,4,2,4,70,0,0
161599,-76.9230769230769,4,2,1,100,0,0
162110,-76.9230769230769,4,2,4,70,0,1
162144,-76.9230769230769,4,2,1,100,0,1
162656,-76.9230769230769,4,2,4,70,0,1
162690,-76.9230769230769,4,2,1,100,0,1
163201,-76.9230769230769,4,2,4,70,0,1
163235,-76.9230769230769,4,2,1,100,0,1
163747,-76.9230769230769,4,2,4,70,0,0
163781,-76.9230769230769,4,2,1,100,0,0
164292,-76.9230769230769,4,2,4,70,0,0
164326,-76.9230769230769,4,2,1,100,0,0
164837,-76.9230769230769,4,2,4,70,0,0
164872,-76.9230769230769,4,2,1,100,0,0
165383,-76.9230769230769,4,2,4,70,0,0
165417,-76.9230769230769,4,2,1,100,0,0
165928,-76.9230769230769,4,2,4,70,0,0
165962,-76.9230769230769,4,2,1,100,0,0
166474,-76.9230769230769,4,2,4,70,0,1
166508,-76.9230769230769,4,2,1,100,0,1
167019,-76.9230769230769,4,2,4,70,0,1
167053,-76.9230769230769,4,2,1,100,0,1
167565,-76.9230769230769,4,2,4,70,0,1
167599,-76.9230769230769,4,2,1,100,0,1
167837,-76.9230769230769,4,2,20,100,0,1
167872,-76.9230769230769,4,2,1,100,0,1
168110,-76.9230769230769,4,2,4,70,0,0
168144,-76.9230769230769,4,2,1,100,0,0
168383,-76.9230769230769,4,2,1,100,0,1
176565,-76.9230769230769,4,2,20,100,0,1
176599,-76.9230769230769,4,2,1,100,0,1
177383,-76.9230769230769,4,2,4,70,0,1
177417,-76.9230769230769,4,2,1,100,0,1
179019,-76.9230769230769,4,2,4,70,0,1
179053,-76.9230769230769,4,2,1,100,0,1
179565,-76.9230769230769,4,2,4,70,0,1
179599,-76.9230769230769,4,2,1,100,0,1
180110,-76.9230769230769,4,2,4,70,0,1
180144,-76.9230769230769,4,2,1,100,0,1
180656,-76.9230769230769,4,2,4,70,0,1
180690,-76.9230769230769,4,2,1,100,0,1
181201,-76.9230769230769,4,2,4,70,0,1
181235,-76.9230769230769,4,2,1,100,0,1
182292,-76.9230769230769,4,2,4,70,0,1
182326,-76.9230769230769,4,2,1,100,0,1
182837,-76.9230769230769,4,2,4,70,0,1
182872,-76.9230769230769,4,2,1,100,0,1
183383,-76.9230769230769,4,2,4,70,0,1
183417,-76.9230769230769,4,2,1,100,0,1
184474,-76.9230769230769,4,2,4,70,0,1
184508,-76.9230769230769,4,2,1,100,0,1
185837,-76.9230769230769,4,2,2,100,0,0
185872,-76.9230769230769,4,2,1,100,0,0
203292,-76.9230769230769,4,2,1,100,0,0
205474,-76.9230769230769,4,2,1,100,0,0
222928,-76.9230769230769,4,2,1,100,0,0
240383,-76.9230769230769,4,2,1,100,0,0

[Colours]
Combo1 : 241,79,10
Combo2 : 153,203,253
Combo3 : 54,115,228
Combo4 : 98,46,207
Combo5 : 227,149,43
Combo6 : 37,203,33
Combo7 : 16,190,182
Combo8 : 255,0,0

[HitObjects]
84,124,9110,5,4,0:0:0:0:
140,184,11292,5,4,0:0:0:0:
184,112,13474,5,4,0:0:0:0:
248,172,15656,5,4,0:0:0:0:
432,72,17837,6,0,L|456:244,1,155.999992858887,4|0,0:0|0:0,0:0:0:0:
352,344,18928,1,0,0:0:0:0:
208,284,19474,2,0,P|200:236|220:120,2,155.999992858887,0|4|0,0:0|0:0|0:0,0:0:0:0:
180,356,20837,1,0,0:0:0:0:
104,332,21110,2,0,B|100:288|100:288|77:229|77:229|72:172,1,155.999992858887,0|0,0:0|0:0,0:0:0:0:
96,24,22201,6,0,P|112:64|240:60,1,155.999992858887,4|0,0:0|0:0,0:0:0:0:
270,31,23019,2,0,L|374:27,1,77.9999964294435
472,124,23837,1,0,0:0:0:0:
424,272,24383,2,0,L|264:252,1,155.999992858887,4|0,0:0|0:0,0:0:0:0:
200,290,25201,1,0,0:0:0:0:
142,343,25474,2,0,P|121:299|178:215,1,155.999992858887
324,180,26565,6,0,B|336:144|328:100|328:100|336:56|376:36,1,155.999992858887,4|0,0:0|0:0,0:0:0:0:
448,44,27383,1,0,0:0:0:0:
496,108,27656,2,0,P|496:152|488:188,2,77.9999964294435,0|0|0,0:0|0:0|0:0,0:0:0:0:
360,32,28747,2,0,B|328:40|288:28|288:28|232:48|172:28,1,155.999992858887,4|0,0:0|0:0,0:0:0:0:
132,20,29565,2,0,P|137:71|159:96,1,77.9999964294435
80,232,30383,1,0,0:0:0:0:
224,168,30928,6,0,B|268:148|268:148|396:160,1,155.999992858887,4|0,0:0|0:0,0:0:0:0:
444,196,31747,1,0,0:0:0:0:
508,240,32019,2,0,P|456:272|368:216,2,155.999992858887,0|0|4,0:0|0:0|0:0,0:0:0:0:
496,84,33656,1,0,0:0:0:0:
356,16,34201,2,0,L|248:24,1,77.9999964294435,0|0,0:0|0:0,0:0:0:0:
200,32,34747,1,4,0:0:0:0:
72,120,35292,6,0,B|68:192|68:192|88:276,1,155.999992858887,6|0,0:0|0:0,0:0:0:0:
228,340,36383,1,0,0:0:0:0:
376,296,36928,2,0,P|384:252|344:152,2,155.999992858887,0|4|0,0:0|0:0|0:0,0:0:0:0:
236,224,38565,2,0,P|184:212|72:240,1,155.999992858887,0|0,0:0|0:0,0:0:0:0:
72,76,39656,6,0,P|140:64|256:72,1,155.999992858887,4|0,0:0|0:0,0:0:0:0:
376,112,40747,1,0,0:0:0:0:
268,224,41292,2,0,B|220:260|220:260|180:356,2,155.999992858887,0|4|0,0:0|0:0|0:0,0:0:0:0:
424,224,42928,1,0,0:0:0:0:
480,80,43474,1,4,0:0:0:0:
332,32,44019,6,0,B|308:48|280:44|280:44|264:48|264:48|212:24|160:64,1,155.999992858887,6|8,0:0|0:0,0:0:0:0:
224,116,44837,1,0,0:0:0:0:
172,172,45110,2,0,L|176:268,2,77.9999964294435,2|0|8,0:0|0:0|0:0,0:0:0:0:
124,320,46201,2,0,P|180:336|256:280,1,155.999992858887,6|8,0:0|0:0,0:0:0:0:
276,207,47019,1,0,0:0:0:0:
300,132,47292,2,0,L|460:120,1,155.999992858887,2|8,0:0|0:0,0:0:0:0:
328,32,48383,6,0,L|168:20,1,155.999992858887,6|8,0:0|0:0,0:0:0:0:
108,64,49201,1,0,0:0:0:0:
64,128,49474,2,0,P|41:107|30:62,2,77.9999964294435,2|0|0,0:0|0:0|0:0,0:0:0:0:
103,279,50565,6,0,P|141:255|147:150,1,155.999992858887,6|8,0:0|0:0,0:0:0:0:
128,77,51383,1,0,0:0:0:0:
206,73,51656,2,0,L|366:57,1,155.999992858887,2|4,0:0|0:0,0:0:0:0:
437,75,52474,1,0,0:0:0:0:
469,145,52747,6,0,B|471:167|472:194|472:194|465:211|465:211|487:261|455:302,1,155.999992858887,6|8,0:0|0:0,0:0:0:0:
397,342,53565,1,0,0:0:0:0:
323,366,53837,2,0,P|319:330|347:282,1,77.9999964294435,2|0,0:0|0:0,0:0:0:0:
317,216,54383,2,0,P|345:176|289:76,2,155.999992858887,8|6|8,0:0|0:0|0:0,0:0:0:0:
272,152,55747,1,0,0:0:0:0:
219,209,56019,2,0,B|183:213|183:213|35:201,1,155.999992858887,2|8,0:0|0:0,0:0:0:0:
16,60,57110,6,0,B|52:56|52:56|200:68,1,155.999992858887,6|8,0:0|0:0,0:0:0:0:
243,36,57928,1,0,0:0:0:0:
317,14,58201,2,0,L|401:22,1,77.9999964294435,2|0,0:0|0:0,0:0:0:0:
468,48,58747,2,0,P|480:92|448:220,1,155.999992858887,8|6,0:0|0:0,0:0:0:0:
336,292,59837,2,0,P|340:328|360:372,2,77.9999964294435,8|0|2,0:0|0:0|0:0,0:0:0:0:
120,356,61474,6,0,B|124:316|104:280|104:280|96:232|124:188,1,155.999992858887,6|8,0:0|0:0,0:0:0:0:
204,80,62565,2,0,P|160:96|60:36,2,155.999992858887,2|8|6,0:0|0:0|0:0,0:0:0:0:
360,84,64201,2,0,P|424:84|460:168,1,155.999992858887,8|2,0:0|0:0,0:0:0:0:
444,234,65019,1,0,0:0:0:0:
396,296,65292,2,0,L|304:288,1,77.9999964294435,8|0,0:0|0:0,0:0:0:0:
257,338,65837,6,0,P|285:302|233:194,1,155.999992858887,6|8,0:0|0:0,0:0:0:0:
213,271,66656,1,0,0:0:0:0:
170,205,66928,2,0,B|174:157|210:137|210:137|214:93|174:65,1,155.999992858887,2|8,0:0|0:0,0:0:0:0:
114,33,67747,1,0,0:0:0:0:
45,70,68019,2,0,B|41:102|41:102|45:118|45:118|45:142|45:142|49:158|49:158|41:230,1,155.999992858887,6|8,0:0|0:0,0:0:0:0:
160,328,69110,2,0,L|260:312,2,77.9999964294435,2|0|8,0:0|0:0|0:0,0:0:0:0:
88,296,69928,1,0,0:0:0:0:
148,244,70201,6,0,B|260:228|260:228|328:240,1,155.999992858887,6|8,0:0|0:0,0:0:0:0:
376,256,71019,1,0,0:0:0:0:
404,328,71292,2,0,P|436:304|412:188,1,155.999992858887,2|8,0:0|0:0,0:0:0:0:
308,100,72383,2,0,B|168:108|168:108|144:120,2,155.999992858887,6|8|2,0:0|0:0|0:0,0:0:0:0:
464,76,74019,1,8,0:0:0:0:
316,28,74565,6,0,P|296:80|336:196,1,155.999992858887,6|8,0:0|0:0,0:0:0:0:
372,232,75383,1,0,0:0:0:0:
336,300,75656,2,0,L|228:296,1,77.9999964294435,2|0,0:0|0:0,0:0:0:0:
192,336,76201,1,8,0:0:0:0:
64,244,76747,2,0,P|56:196|96:80,1,155.999992858887,6|8,0:0|0:0,0:0:0:0:
228,32,77837,2,0,L|396:48,1,155.999992858887,2|4,0:0|0:0,0:0:0:0:
472,176,78928,6,0,P|480:224|456:328,1,155.999992858887,6|8,0:0|0:0,0:0:0:0:
382,353,79747,1,0,0:0:0:0:
304,356,80019,2,0,L|200:344,1,77.9999964294435,2|0,0:0|0:0,0:0:0:0:
152,368,80565,2,0,B|141:335|160:300|160:300|157:237|157:237|166:204,1,155.999992858887,8|6,0:0|0:0,0:0:0:0:
224,72,81656,2,0,P|260:96|354:42,2,155.999992858887,8|2|8,0:0|0:0|0:0,0:0:0:0:
158,29,83019,1,0,0:0:0:0:
79,28,83292,6,0,B|76:61|96:84|96:84|65:119|65:119|73:150|60:176,1,155.999992858887,6|8,0:0|0:0,0:0:0:0:
38,241,84110,1,0,0:0:0:0:
72,311,84383,2,0,P|105:285|117:248,1,77.9999964294435,2|0,0:0|0:0,0:0:0:0:
194,246,84928,2,0,P|179:204|149:180,2,77.9999964294435,8|0|6,0:0|0:0|0:0,0:0:0:0:
317,341,86019,2,0,B|402:331|402:331|436:358|485:344,2,155.999992858887,8|2|8,0:0|0:0|0:0,0:0:0:0:
456,268,87656,6,0,B|460:236|460:236|450:158|450:158|420:148|400:116,1,155.999992858887,6|8,0:0|0:0,0:0:0:0:
472,80,88474,1,0,0:0:0:0:
397,58,88747,2,0,P|353:82|341:138,2,77.9999964294435,2|0|8,0:0|0:0|0:0,0:0:0:0:
244,24,89837,2,0,B|204:36|204:36|76:24,1,155.999992858887,6|8,0:0|0:0,0:0:0:0:
28,72,90656,1,0,0:0:0:0:
12,148,90928,2,0,L|24:240,2,77.9999964294435,2|0|8,0:0|0:0|0:0,0:0:0:0:
168,124,92019,6,0,B|212:124|212:124|252:112|252:112|332:116,1,155.999992858887,6|8,0:0|0:0,0:0:0:0:
386,160,92837,1,0,0:0:0:0:
461,138,93110,2,0,P|457:194|365:234,1,155.999992858887,2|8,0:0|0:0,0:0:0:0:
279,359,94201,2,0,B|223:371|223:371|111:351,1,155.999992858887,6|8,0:0|0:0,0:0:0:0:
60,312,95019,1,0,0:0:0:0:
38,237,95292,2,0,P|26:199|37:160,2,77.9999964294435,2|0|0,0:0|0:0|0:0,0:0:0:0:
105,198,96110,1,0,0:0:0:0:
111,120,96383,5,4,0:0:0:0:
168,288,105110,6,0,P|184:248|132:152,1,155.999992858887,6|8,0:0|0:0,0:0:0:0:
64,124,105928,1,0,0:0:0:0:
108,60,106201,2,0,P|66:46|16:64,2,77.9999964294435,2|0|8,0:0|0:0|0:0,0:0:0:0:
264,64,107292,2,0,P|303:81|362:64,1,77.9999964294435,6|0,0:0|0:0,0:0:0:0:
409,46,107837,2,0,P|445:27|485:31,2,77.9999964294435,8|0|2,0:0|0:0|0:0,0:0:0:0:
460,104,108656,1,0,0:0:0:0:
511,164,108928,2,0,P|476:180|438:178,1,77.9999964294435,8|0,0:0|0:0,0:0:0:0:
419,254,109474,6,0,P|379:230|386:118,2,155.999992858887,6|8|2,0:0|0:0|0:0,0:0:0:0:
300,357,111110,1,8,0:0:0:0:
158,291,111656,2,0,B|160:248|160:248|152:207,1,77.9999964294435,6|0,0:0|0:0,0:0:0:0:
131,138,112201,2,0,P|122:98|130:46,1,77.9999964294435,8|0,0:0|0:0,0:0:0:0:
190,18,112747,2,0,L|362:6,1,155.999992858887,2|8,0:0|0:0,0:0:0:0:
490,64,113837,6,0,P|501:120|471:229,1,155.999992858887,6|8,0:0|0:0,0:0:0:0:
415,260,114656,1,0,0:0:0:0:
350,303,114928,2,0,L|256:298,1,77.9999964294435,2|0,0:0|0:0,0:0:0:0:
204,337,115474,2,0,B|181:289|210:248|210:248|245:228|254:199,1,155.999992858887,8|6,0:0|0:0,0:0:0:0:
182,169,116292,1,0,0:0:0:0:
130,109,116565,2,0,P|105:145|114:208,2,77.9999964294435,8|0|2,0:0|0:0|0:0,0:0:0:0:
269,39,117656,1,8,0:0:0:0:
424,49,118201,6,0,B|430:106|430:106|392:147|420:202,1,155.999992858887,6|8,0:0|0:0,0:0:0:0:
486,160,119019,2,0,B|511:210|473:251|473:251|479:308,1,155.999992858887
421,360,119837,2,0,L|338:353,1,77.9999964294435,8|0,0:0|0:0,0:0:0:0:
287,298,120383,5,6,0:0:0:0:
218,336,120656,1,0,0:0:0:0:
140,333,120928,1,8,0:0:0:0:
76,287,121201,1,0,0:0:0:0:
45,215,121474,2,0,B|50:179|40:138|40:138|33:98|49:53,1,155.999992858887,2|4,0:0|0:0,0:0:0:0:
115,24,122292,1,2,0:0:0:0:
191,36,122565,6,0,B|248:49|248:49|353:33,1,155.999992858887,6|8,0:0|0:0,0:0:0:0:
476,117,123656,2,0,B|485:194|485:194|459:233|469:275,2,155.999992858887,2|8|6,0:0|0:0|0:0,0:0:0:0:
320,132,125292,1,8,0:0:0:0:
262,277,125837,2,0,B|232:271|232:271|161:304|117:239,1,155.999992858887,2|8,0:0|0:0,0:0:0:0:
189,205,126656,1,0,0:0:0:0:
266,194,126928,6,0,B|315:208|315:208|365:259|331:335,2,155.999992858887,6|8|2,0:0|0:0|0:0,0:0:0:0:
122,131,128565,1,8,0:0:0:0:
87,61,128837,1,0,0:0:0:0:
151,17,129110,6,0,L|309:10,1,155.999992858887,6|2,0:0|0:0,0:0:0:0:
409,128,130201,2,0,L|251:121,1,155.999992858887,2|2,0:0|0:0,0:0:0:0:
139,227,131292,2,0,L|297:220,2,155.999992858887,2|2|2,0:0|0:0|0:0,0:0:0:0:
92,289,132656,1,0,0:0:0:0:
97,366,132928,1,4,0:0:0:0:
20,229,133474,6,0,B|44:192|44:192|43:175|43:175|56:153|56:153|62:127|62:127|91:82,1,155.999992858887,6|8,0:0|0:0,0:0:0:0:
138,34,134292,1,0,0:0:0:0:
196,85,134565,1,2,0:0:0:0:
273,91,134837,1,0,0:0:0:0:
339,50,135110,2,0,P|352:96|343:129,1,77.9999964294435,8|0,0:0|0:0,0:0:0:0:
423,129,135656,6,0,P|403:177|288:178,1,155.999992858887,6|8,0:0|0:0,0:0:0:0:
232,176,136474,1,0,0:0:0:0:
153,179,136747,1,2,0:0:0:0:
104,239,137019,1,0,0:0:0:0:
114,316,137292,2,0,P|146:348|187:355,1,77.9999964294435,8|0,0:0|0:0,0:0:0:0:
183,277,137837,6,0,P|243:284|333:233,1,155.999992858887,6|8,0:0|0:0,0:0:0:0:
371,177,138656,1,0,0:0:0:0:
388,101,138928,2,0,L|379:18,2,77.9999964294435,2|0|8,0:0|0:0|0:0,0:0:0:0:
243,158,140019,6,0,P|205:172|108:103,1,155.999992858887,6|8,0:0|0:0,0:0:0:0:
58,61,140837,1,0,0:0:0:0:
133,40,141110,1,2,0:0:0:0:
193,89,141383,1,0,0:0:0:0:
270,78,141656,2,0,P|307:99|323:138,1,77.9999964294435
312,207,142201,6,0,B|301:240|316:277|316:277|340:326|310:373,1,155.999992858887,4|8,0:0|0:0,0:0:0:0:
246,322,143019,1,0,0:0:0:0:
166,325,143292,1,2,0:0:0:0:
94,356,143565,1,0,0:0:0:0:
19,335,143837,2,0,P|9:291|14:251,1,77.9999964294435,8|0,0:0|0:0,0:0:0:0:
88,277,144383,6,0,B|98:231|69:204|69:204|94:171|77:120,1,155.999992858887,6|8,0:0|0:0,0:0:0:0:
7,158,145201,1,0,0:0:0:0:
15,80,145474,1,2,0:0:0:0:
87,49,145747,1,0,0:0:0:0:
153,88,146019,2,0,P|195:109|234:107,1,77.9999964294435,8|0,0:0|0:0,0:0:0:0:
297,78,146565,6,0,P|305:122|214:189,1,155.999992858887,6|8,0:0|0:0,0:0:0:0:
159,224,147383,1,0,0:0:0:0:
124,293,147656,2,0,L|137:372,2,77.9999964294435,2|0|8,0:0|0:0|0:0,0:0:0:0:
27,170,148747,6,0,B|35:126|35:126|25:13,1,155.999992858887,6|8,0:0|0:0,0:0:0:0:
180,30,149837,1,2,0:0:0:0:
293,137,150383,2,0,L|279:233,1,77.9999964294435,0|0,0:0|0:0,0:0:0:0:
210,244,150928,6,0,P|248:285|346:259,2,155.999992858887,6|8|2,0:0|0:0|0:0,0:0:0:0:
134,265,152292,1,0,0:0:0:0:
143,187,152565,2,0,B|146:145|146:145|132:82,1,77.9999964294435,8|0,0:0|0:0,0:0:0:0:
60,104,153110,6,0,P|75:61|109:38,1,77.9999964294435,6|0,0:0|0:0,0:0:0:0:
178,43,153656,1,8,0:0:0:0:
236,94,153928,1,0,0:0:0:0:
311,72,154201,2,0,L|398:54,2,77.9999964294435,2|0|8,0:0|0:0|0:0,0:0:0:0:
295,148,155019,1,0,0:0:0:0:
313,223,155292,6,0,B|318:264|359:284|359:284|342:319|354:370,2,155.999992858887,6|8|2,0:0|0:0|0:0,0:0:0:0:
389,206,156656,1,0,0:0:0:0:
447,257,156928,2,0,P|466:219|458:175,1,77.9999964294435,8|0,0:0|0:0,0:0:0:0:
415,121,157474,5,6,0:0:0:0:
339,139,157747,1,0,0:0:0:0:
261,136,158019,2,0,P|252:86|253:34,2,77.9999964294435,8|0|2,0:0|0:0|0:0,0:0:0:0:
197,180,158837,1,0,0:0:0:0:
175,254,159110,2,0,L|188:360,1,77.9999964294435,4|0,0:0|0:0,0:0:0:0:
107,344,159656,6,0,L|97:249,1,77.9999964294435,6|8,0:0|0:0,0:0:0:0:
47,207,160201,1,8,0:0:0:0:
110,161,160474,1,8,0:0:0:0:
110,82,160747,1,2,0:0:0:0:
186,98,161019,1,8,0:0:0:0:
230,34,161292,1,8,0:0:0:0:
267,102,161565,1,8,0:0:0:0:
228,169,161837,6,0,B|220:206|220:206|225:276,1,77.9999964294435,6|0,0:0|0:0,0:0:0:0:
266,310,162383,1,8,0:0:0:0:
334,348,162656,2,0,L|423:342,2,77.9999964294435,0|2|0,0:0|0:0|0:0,0:0:0:0:
265,310,163474,1,8,0:0:0:0:
197,349,163747,1,0,0:0:0:0:
124,376,164019,6,0,P|118:340|139:296,1,77.9999964294435,6|8,0:0|0:0,0:0:0:0:
78,246,164565,2,0,P|93:204|84:145,1,77.9999964294435,8|8,0:0|0:0,0:0:0:0:
59,100,165110,1,2,0:0:0:0:
126,60,165383,2,0,P|93:29|59:23,2,77.9999964294435,8|8|8,0:0|0:0|0:0,0:0:0:0:
173,121,166201,6,0,P|200:89|203:51,1,77.9999964294435,6|0,0:0|0:0,0:0:0:0:
272,16,166747,2,0,P|283:57|279:104,1,77.9999964294435,8|0,0:0|0:0,0:0:0:0:
359,87,167292,2,0,P|348:133|326:164,1,77.9999964294435,2|0,0:0|0:0,0:0:0:0:
261,193,167837,1,4,0:0:0:0:
243,269,168110,1,0,0:0:0:0:
275,339,168383,6,0,B|312:358|312:358|439:338,2,155.999992858887,4|8|2,0:0|0:0|0:0,0:0:0:0:
200,364,169747,1,0,0:0:0:0:
123,376,170019,2,0,P|126:339|152:303,1,77.9999964294435,8|0,0:0|0:0,0:0:0:0:
96,247,170565,2,0,P|130:183|90:113,1,155.999992858887,6|8,0:0|0:0,0:0:0:0:
51,181,171383,2,0,P|17:225|15:255,2,77.9999964294435,0|2|0,0:0|0:0|0:0,0:0:0:0:
20,109,172201,1,8,0:0:0:0:
154,26,172747,6,0,L|324:33,1,155.999992858887,6|8,0:0|0:0,0:0:0:0:
364,178,173837,2,0,L|194:171,1,155.999992858887,2|8,0:0|0:0,0:0:0:0:
143,313,174928,2,0,P|134:269|26:248,1,155.999992858887,6|8,0:0|0:0,0:0:0:0:
31,162,175747,1,0,0:0:0:0:
21,84,176019,2,0,L|183:63,1,155.999992858887,2|4,0:0|0:0,0:0:0:0:
251,81,176837,1,0,0:0:0:0:
311,31,177110,6,0,P|331:70|321:119,1,77.9999964294435,6|8,0:0|0:0,0:0:0:0:
314,180,177656,2,0,B|312:228|312:228|336:346,2,155.999992858887,8|2|8,0:0|0:0|0:0,0:0:0:0:
389,160,179019,1,8,0:0:0:0:
437,98,179292,6,0,P|463:131|459:195,1,77.9999964294435,6|0,0:0|0:0,0:0:0:0:
431,235,179837,2,0,P|428:276|468:327,1,77.9999964294435,8|0,0:0|0:0,0:0:0:0:
381,354,180383,2,0,L|286:346,1,77.9999964294435,2|0,0:0|0:0,0:0:0:0:
246,294,180928,2,0,L|156:300,1,77.9999964294435,8|0,0:0|0:0,0:0:0:0:
106,347,181474,6,0,P|89:305|153:222,1,155.999992858887,6|8,0:0|0:0,0:0:0:0:
210,176,182292,1,8,0:0:0:0:
181,103,182565,2,0,L|94:89,2,77.9999964294435,2|8|8,0:0|0:0|0:0,0:0:0:0:
249,65,183383,1,8,0:0:0:0:
323,87,183656,6,0,L|332:266,1,155.999992858887,6|8,0:0|0:0,0:0:0:0:
373,308,184474,1,0,0:0:0:0:
409,377,184747,2,0,P|442:344|414:242,2,155.999992858887,2|12|6,0:0|0:0|0:0,0:0:0:0:
84,115,194565,6,0,P|126:155|239:148,1,155.999992858887,6|8,0:0|0:0,0:0:0:0:
355,81,195656,2,0,P|399:65|444:163,1,155.999992858887,2|8,0:0|0:0,0:0:0:0:
392,284,196747,2,0,B|362:297|362:297|284:274|284:274|226:278,1,155.999992858887,6|8,0:0|0:0,0:0:0:0:
100,342,197837,2,0,P|72:297|84:183,1,155.999992858887,2|8,0:0|0:0,0:0:0:0:
113,127,198656,1,0,0:0:0:0:
60,69,198928,6,0,P|112:47|191:109,1,155.999992858887,6|8,0:0|0:0,0:0:0:0:
229,249,200019,2,0,P|281:271|360:209,2,155.999992858887,2|8|6,0:0|0:0|0:0,0:0:0:0:
86,184,201656,1,8,0:0:0:0:
218,101,202201,2,0,L|399:84,1,155.999992858887,2|8,0:0|0:0,0:0:0:0:
405,100,205474,6,0,L|239:95,1,155.999992858887,6|8,0:0|0:0,0:0:0:0:
195,152,206292,1,0,0:0:0:0:
137,204,206565,2,0,P|117:166|127:115,2,77.9999964294435,2|0|8,0:0|0:0|0:0,0:0:0:0:
188,263,207383,1,0,0:0:0:0:
170,339,207656,2,0,P|212:338|263:246,2,155.999992858887,6|8|2,0:0|0:0|0:0,0:0:0:0:
103,297,209019,1,0,0:0:0:0:
42,346,209292,2,0,P|25:307|32:264,1,77.9999964294435,8|0,0:0|0:0,0:0:0:0:
24,194,209837,6,0,L|193:175,1,155.999992858887,6|8,0:0|0:0,0:0:0:0:
326,125,210928,2,0,P|343:180|343:235,1,77.9999964294435,2|0,0:0|0:0,0:0:0:0:
333,277,211474,2,0,B|317:317|317:317|269:348,1,77.9999964294435,8|0,0:0|0:0,0:0:0:0:
211,351,212019,2,0,L|34:326,2,155.999992858887,6|8|2,0:0|0:0|0:0,0:0:0:0:
235,276,213383,1,0,0:0:0:0:
221,199,213656,2,0,L|205:104,1,77.9999964294435,8|0,0:0|0:0,0:0:0:0:
129,122,214201,6,0,P|143:75|248:56,2,155.999992858887,6|8|2,0:0|0:0|0:0,0:0:0:0:
40,250,215837,2,0,P|70:284|192:286,1,155.999992858887,8|6,0:0|0:0,0:0:0:0:
317,357,216928,1,8,0:0:0:0:
458,290,217474,2,0,P|469:225|434:121,1,155.999992858887,2|8,0:0|0:0,0:0:0:0:
331,32,218565,6,0,L|159:24,1,155.999992858887,6|8,0:0|0:0,0:0:0:0:
45,111,219656,2,0,P|42:165|61:282,1,155.999992858887,2|8,0:0|0:0,0:0:0:0:
183,356,220747,2,0,L|370:342,1,155.999992858887,6|8,0:0|0:0,0:0:0:0:
414,360,221565,1,0,0:0:0:0:
491,358,221837,2,0,B|490:297|432:281|432:281|444:244|428:199,1,155.999992858887,2|8,0:0|0:0,0:0:0:0:
378,86,222928,6,0,P|408:132|512:109,2,155.999992858887,6|8|2,0:0|0:0|0:0,0:0:0:0:
352,11,224292,1,0,0:0:0:0:
290,59,224565,1,8,0:0:0:0:
139,19,225110,2,0,L|157:193,1,155.999992858887,6|8,0:0|0:0,0:0:0:0:
104,233,225928,1,0,0:0:0:0:
47,178,226201,2,0,P|24:228|103:312,1,155.999992858887,2|8,0:0|0:0,0:0:0:0:
229,289,227292,6,0,B|270:268|270:268|401:291,1,155.999992858887,6|8,0:0|0:0,0:0:0:0:
440,240,228110,2,0,P|457:283|440:335,2,77.9999964294435,0|2|0,0:0|0:0|0:0,0:0:0:0:
379,190,228928,1,8,0:0:0:0:
401,35,229474,2,0,L|238:31,1,155.999992858887,6|8,0:0|0:0,0:0:0:0:
189,86,230292,1,0,0:0:0:0:
118,52,230565,2,0,P|108:93|128:135,1,77.9999964294435,2|0,0:0|0:0,0:0:0:0:
176,179,231110,2,0,P|186:220|166:262,1,77.9999964294435,8|0,0:0|0:0,0:0:0:0:
117,306,231656,6,0,P|74:321|10:236,2,155.999992858887,6|8|2,0:0|0:0|0:0,0:0:0:0:
265,355,233292,2,0,P|296:324|340:322,1,77.9999964294435,8|0,0:0|0:0,0:0:0:0:
391,364,233837,2,0,P|407:326|339:242,1,155.999992858887,6|8,0:0|0:0,0:0:0:0:
269,218,234656,1,0,0:0:0:0:
195,243,234928,2,0,B|141:256|141:256|41:231,1,155.999992858887,2|8,0:0|0:0,0:0:0:0:
55,75,236019,6,0,B|109:62|109:62|209:87,1,155.999992858887,6|8,0:0|0:0,0:0:0:0:
272,128,236837,1,0,0:0:0:0:
332,177,237110,2,0,L|445:160,2,77.9999964294435,2|0|8,0:0|0:0|0:0,0:0:0:0:
256,313,238201,2,0,L|88:284,2,155.999992858887,6|8|2,0:0|0:0|0:0,0:0:0:0:
410,292,239837,1,8,0:0:0:0:
256,192,240383,12,0,242565,0:0:0:0:
