osu file format v14

[General]
AudioFilename: Teminite & Panda Eyes - Highscore.mp3
AudioLeadIn: 0
PreviewTime: 95292
Countdown: 0
SampleSet: Soft
StackLeniency: 0.5
Mode: 0
LetterboxInBreaks: 0
WidescreenStoryboard: 0

[Editor]
Bookmarks: 4747,9110,26565,44019,61474,78928,96383,113837,133474,135110,150928,168383,185837,205474,222928,240383
DistanceSpacing: 1.4
BeatDivisor: 4
GridSize: 8
TimelineZoom: 1.3

[Metadata]
Title:Highscore
TitleUnicode:Highscore
Artist:Panda Eyes & Teminite
ArtistUnicode:Panda Eyes & Teminite
Creator:Fort
Version:LGV's Insane
Source:
Tags:LGV894 glitch hop 110 style Fxtra over 9000!!!
BeatmapID:760034
BeatmapSetID:332532

[Difficulty]
HPDrainRate:5.5
CircleSize:4
OverallDifficulty:6.8
ApproachRate:8
SliderMultiplier:1.5
SliderTickRate:1

[Events]
//Background and Video events
0,0,"BG.png",0,0
//Break Periods
//Storyboard Layer 0 (Background)
//Storyboard Layer 1 (Fail)
//Storyboard Layer 2 (Pass)
//Storyboard Layer 3 (Foreground)
//Storyboard Sound Samples

[TimingPoints]
4747,545.454545454546,4,2,2,100,1,0
9110,-133.333333333333,4,2,2,70,0,0
9656,-133.333333333333,4,2,2,25,0,0
11292,-133.333333333333,4,2,2,70,0,0
11837,-133.333333333333,4,2,2,40,0,0
13474,-133.333333333333,4,2,2,70,0,0
14019,-133.333333333333,4,2,2,50,0,0
15656,-133.333333333333,4,2,2,80,0,0
17837,-133.333333333333,4,2,2,80,0,0
26565,-100,4,2,3,100,0,0
28747,-100,4,2,2,100,0,0
35292,-100,4,2,3,100,0,0
35360,-100,4,2,2,100,0,0
43474,-66.6666666666667,4,2,1,100,0,0
44019,-66.6666666666667,4,2,30,100,0,1
44087,-66.6666666666667,4,2,1,100,0,1
44565,-66.6666666666667,4,2,1,100,0,0
52201,-66.6666666666667,4,2,20,100,0,0
52235,-66.6666666666667,4,2,1,100,0,0
60860,-66.6666666666667,4,2,2,100,0,0
60997,-66.6666666666667,4,2,1,100,0,0
61474,-66.6666666666667,4,2,1,100,0,0
78315,-66.6666666666667,4,2,20,100,0,0
78451,-66.6666666666667,4,2,1,100,0,0
78928,-66.6666666666667,4,2,1,100,0,0
96383,-66.6666666666667,4,2,30,50,0,0
96451,-66.6666666666667,4,2,1,100,0,0
113837,-66.6666666666667,4,2,30,100,0,1
113906,-66.6666666666667,4,2,1,100,0,1
121951,-66.6666666666667,4,2,20,100,0,1
122087,-66.6666666666667,4,2,1,100,0,1
122292,-66.6666666666667,4,2,4,100,0,1
122326,-66.6666666666667,4,2,1,100,0,1
122565,-66.6666666666667,4,2,30,100,0,1
122633,-66.6666666666667,4,2,1,100,0,1
129110,-100,4,2,2,100,0,0
133474,-66.6666666666667,4,2,30,100,0,1
133542,-66.6666666666667,4,2,1,100,0,1
137837,-66.6666666666667,4,2,30,100,0,1
137872,-66.6666666666667,4,2,1,100,0,1
142201,-66.6666666666667,4,2,30,100,0,1
142235,-66.6666666666667,4,2,1,100,0,1
146565,-66.6666666666667,4,2,30,100,0,1
146599,-66.6666666666667,4,2,1,100,0,1
149837,-200,4,2,1,100,0,1
150383,-100,4,2,1,100,0,1
150928,-66.6666666666667,4,2,1,100,0,0
153383,-66.6666666666667,4,2,4,100,0,1
153417,-66.6666666666667,4,2,1,100,0,1
155019,-66.6666666666667,4,2,1,100,0,0
157747,-66.6666666666667,4,2,4,100,0,1
157781,-66.6666666666667,4,2,1,100,0,1
159110,-66.6666666666667,4,2,20,100,0,1
159144,-66.6666666666667,4,2,1,100,0,1
159383,-66.6666666666667,4,2,1,100,0,0
159928,-66.6666666666667,4,2,4,70,0,0
159962,-66.6666666666667,4,2,1,100,0,0
160474,-66.6666666666667,4,2,4,70,0,0
160508,-66.6666666666667,4,2,1,100,0,0
161019,-66.6666666666667,4,2,4,70,0,0
161053,-66.6666666666667,4,2,1,100,0,0
161565,-66.6666666666667,4,2,4,70,0,0
161599,-66.6666666666667,4,2,1,100,0,0
162110,-66.6666666666667,4,2,4,70,0,1
162144,-66.6666666666667,4,2,1,100,0,1
162656,-66.6666666666667,4,2,4,70,0,1
162690,-66.6666666666667,4,2,1,100,0,1
163201,-66.6666666666667,4,2,4,70,0,1
163235,-66.6666666666667,4,2,1,100,0,1
163747,-66.6666666666667,4,2,4,70,0,0
163781,-66.6666666666667,4,2,1,100,0,0
164292,-66.6666666666667,4,2,4,70,0,0
164326,-66.6666666666667,4,2,1,100,0,0
164837,-66.6666666666667,4,2,4,70,0,0
164872,-66.6666666666667,4,2,1,100,0,0
165383,-66.6666666666667,4,2,4,70,0,0
165417,-66.6666666666667,4,2,1,100,0,0
165928,-66.6666666666667,4,2,4,70,0,0
165962,-66.6666666666667,4,2,1,100,0,0
166474,-66.6666666666667,4,2,4,70,0,1
166508,-66.6666666666667,4,2,1,100,0,1
167019,-66.6666666666667,4,2,4,70,0,1
167053,-66.6666666666667,4,2,1,100,0,1
167565,-66.6666666666667,4,2,4,70,0,1
167599,-66.6666666666667,4,2,1,100,0,1
167837,-66.6666666666667,4,2,20,100,0,1
167872,-66.6666666666667,4,2,1,100,0,1
168110,-66.6666666666667,4,2,4,70,0,0
168144,-66.6666666666667,4,2,1,100,0,0
168383,-66.6666666666667,4,2,1,100,0,1
176565,-66.6666666666667,4,2,20,100,0,1
176599,-66.6666666666667,4,2,1,100,0,1
177383,-66.6666666666667,4,2,4,70,0,1
177417,-66.6666666666667,4,2,1,100,0,1
177928,-66.6666666666667,4,2,4,70,0,1
177962,-66.6666666666667,4,2,1,100,0,1
178474,-66.6666666666667,4,2,4,70,0,1
178508,-66.6666666666667,4,2,1,100,0,1
179019,-66.6666666666667,4,2,4,70,0,1
179053,-66.6666666666667,4,2,1,100,0,1
179565,-66.6666666666667,4,2,4,70,0,1
179599,-66.6666666666667,4,2,1,100,0,1
180110,-66.6666666666667,4,2,4,70,0,1
180144,-66.6666666666667,4,2,1,100,0,1
180656,-66.6666666666667,4,2,4,70,0,1
180690,-66.6666666666667,4,2,1,100,0,1
181201,-66.6666666666667,4,2,4,70,0,1
181235,-66.6666666666667,4,2,1,100,0,1
181747,-66.6666666666667,4,2,4,70,0,1
181781,-66.6666666666667,4,2,1,100,0,1
182292,-66.6666666666667,4,2,4,70,0,1
182326,-66.6666666666667,4,2,1,100,0,1
182837,-66.6666666666667,4,2,4,70,0,1
182872,-66.6666666666667,4,2,1,100,0,1
183383,-66.6666666666667,4,2,4,70,0,1
183417,-66.6666666666667,4,2,1,100,0,1
183928,-66.6666666666667,4,2,4,70,0,1
183962,-66.6666666666667,4,2,1,100,0,1
184474,-66.6666666666667,4,2,4,70,0,1
184508,-66.6666666666667,4,2,1,100,0,1
185019,-66.6666666666667,4,2,4,70,0,1
185053,-66.6666666666667,4,2,1,100,0,1
185565,-66.6666666666667,4,2,4,70,0,1
185599,-66.6666666666667,4,2,1,100,0,1
185837,-76.9230769230769,4,2,2,100,0,0
185872,-76.9230769230769,4,2,1,100,0,0
203292,-100,4,2,1,100,0,0
205474,-66.6666666666667,4,2,30,100,0,1
205542,-66.6666666666667,4,2,1,100,0,1
209837,-66.6666666666667,4,2,30,100,0,1
209906,-66.6666666666667,4,2,1,100,0,1
213656,-66.6666666666667,4,2,20,100,0,1
213724,-66.6666666666667,4,2,1,100,0,1
214201,-66.6666666666667,4,2,30,100,0,1
214269,-66.6666666666667,4,2,1,100,0,1
218565,-66.6666666666667,4,2,30,100,0,1
218633,-66.6666666666667,4,2,1,100,0,1
221837,-66.6666666666667,4,2,1,100,0,0
222928,-66.6666666666667,4,2,1,100,0,1
240383,-100,4,2,0,100,0,0

[Colours]
Combo1 : 241,79,10
Combo2 : 153,203,253
Combo3 : 54,115,228
Combo4 : 98,46,207
Combo5 : 227,149,43
Combo6 : 37,203,33
Combo7 : 16,190,182
Combo8 : 255,0,0

[HitObjects]
132,111,9110,5,4,0:0:0:0:
221,179,9656,2,0,L|277:176,2,56.2500021457673
117,223,10474,2,0,L|61:226,2,56.2500021457673
206,291,11292,5,4,0:0:0:0:
316,311,11837,2,0,L|349:306,1,28.1250010728836
312,217,12110,2,0,L|345:220,1,28.1250010728836
407,262,12383,2,0,L|462:253,1,56.2500021457673
249,266,12928,2,0,L|193:257,1,56.2500021457673
322,135,13474,5,4,0:0:0:0:
395,188,14019,2,0,L|388:215,1,28.1250010728836
444,283,14292,2,0,L|425:303,1,28.1250010728836
339,330,14565,2,0,L|282:329,1,56.2500021457673
138,280,15110,2,0,L|195:281,1,56.2500021457673
280,229,15656,5,4,0:0:0:0:
191,119,16201,2,0,L|193:146,1,28.1250010728836
134,204,16474,2,0,L|136:231,1,28.1250010728836
81,292,16747,2,0,L|86:347,1,56.2500021457673
192,226,17292,2,0,L|136:231,1,56.2500021457673,2|0,0:0|0:0,0:0:0:0:
267,267,17837,5,2,0:0:0:0:
278,275,18519,2,0,L|275:240,2,28.1250010728836
336,332,18928,1,0,0:0:0:0:
334,200,19474,2,0,P|286:172|232:185,1,112.500004291535,0|4,0:0|0:0,0:0:0:0:
334,200,20701,6,0,L|363:194,2,28.1250010728836
275,246,21110,1,0,0:0:0:0:
237,73,21656,2,0,L|232:185,1,112.500004291535,0|4,0:0|0:0,0:0:0:0:
237,73,22883,6,0,L|202:66,2,28.1250010728836
309,96,23292,1,0,0:0:0:0:
284,242,23837,2,0,P|243:199|254:145,1,112.500004291535,0|4,0:0|0:0,0:0:0:0:
284,242,25065,6,0,L|286:269,2,28.1250010728836
273,167,25474,2,0,P|254:145|229:134,1,56.2500021457673
149,152,26019,2,0,P|124:141|106:120,1,56.2500021457673
174,77,26565,6,0,L|189:188,1,112.5,2|0,0:0|0:0,0:0:0:0:
206,212,27110,2,0,P|243:214|276:199,1,75
142,159,27656,2,0,P|125:125|95:104,1,75
129,237,28201,2,0,P|108:267|104:304,1,75
194,298,28747,6,0,L|313:288,1,112.5,4|0,0:0|0:0,0:0:0:0:
366,340,29292,2,0,L|361:377,1,37.5
407,272,29565,2,0,L|402:234,1,37.5
351,175,29837,2,0,L|276:166,1,75
276,91,30383,2,0,L|201:102,1,75
137,141,30928,6,0,P|116:188|136:245,1,112.5,4|0,0:0|0:0,0:0:0:0:
203,286,31474,2,0,P|227:288|247:283,1,37.5
310,237,31747,2,0,P|328:234|347:236,1,37.5
403,295,32019,2,0,P|423:264|427:227,1,75
388,162,32565,2,0,L|313:165,1,75
264,223,33110,6,0,L|258:110,1,112.5,4|0,0:0|0:0,0:0:0:0:
212,45,33656,2,0,P|193:42|174:45,1,37.5
131,114,33928,2,0,P|138:131|149:145,1,37.5
186,220,34201,2,0,P|179:256|155:284,1,75
230,152,34747,2,0,P|265:139|301:146,1,75,2|0,0:0|0:0,0:0:0:0:
271,223,35292,5,2,0:0:0:0:
278,240,35974,2,0,L|281:202,3,37.5
240,293,36928,2,0,L|251:143,1,150,0|4,0:0|0:0,0:0:0:0:
240,293,38156,6,0,P|221:290|204:293,3,37.5
300,260,39110,2,0,P|225:249|152:260,1,150,0|4,0:0|0:0,0:0:0:0:
300,260,40337,6,0,L|297:222,3,37.5
338,313,41291,2,0,L|326:163,1,150,0|4,0:0|0:0,0:0:0:0:
338,313,42519,6,0,P|356:315|373:312,2,37.5
267,268,42928,2,0,P|210:260|156:268,1,112.5
122,343,43474,6,0,L|127:174,1,168.750006437302,4|0,0:0|0:0,0:0:0:0:
54,144,44019,6,0,B|94:164|134:144|134:144|174:123|215:144,1,168.750006437302,6|0,0:0|0:0,0:0:0:0:
278,192,44565,6,0,P|305:198|333:197,1,56.2500021457673,8|0,0:0|0:0,0:0:0:0:
453,158,44837,2,0,P|426:151|398:153,1,56.2500021457673
333,197,45110,6,0,L|342:272,1,56.2500021457673,2|0,0:0|0:0,0:0:0:0:
308,325,45383,2,0,L|314:380,1,56.2500021457673
316,190,45656,2,0,L|325:265,1,56.2500021457673,8|0,0:0|0:0,0:0:0:0:
291,318,45928,2,0,L|297:373,1,56.2500021457673
298,182,46201,6,0,P|221:157|164:213,1,168.750006437302,6|0,0:0|0:0,0:0:0:0:
298,182,46747,6,0,P|304:154|303:126,1,56.2500021457673,8|0,0:0|0:0,0:0:0:0:
211,29,47019,2,0,P|232:49|257:62,1,56.2500021457673
334,56,47292,6,0,P|357:41|384:33,1,56.2500021457673,2|0,0:0|0:0,0:0:0:0:
458,61,47565,2,0,P|484:53|508:38,1,56.2500021457673
329,70,47837,2,0,P|352:55|379:47,1,56.2500021457673,8|0,0:0|0:0,0:0:0:0:
453,75,48110,2,0,P|479:67|503:52,1,56.2500021457673
326,82,48383,6,0,B|330:208|330:208|318:166,1,168.750006437302,6|0,0:0|0:0,0:0:0:0:
326,81,48928,6,0,P|350:68|377:62,1,56.2500021457673,8|0,0:0|0:0,0:0:0:0:
246,81,49201,2,0,P|221:94|194:100,1,56.2500021457673
119,126,49474,6,0,L|62:120,1,56.2500021457673,2|0,0:0|0:0,0:0:0:0:
234,181,49747,2,0,L|177:175,1,56.2500021457673
122,116,50019,2,0,L|65:110,1,56.2500021457673,8|0,0:0|0:0,0:0:0:0:
238,172,50292,2,0,L|181:166,1,56.2500021457673
127,107,50565,6,0,B|102:108|82:120|69:135|67:167|49:193|20:188|11:168|29:149|56:136,1,168.750006437302,6|0,0:0|0:0,0:0:0:0:
127,107,51110,6,0,P|156:107|182:116,1,56.2500021457673,8|0,0:0|0:0,0:0:0:0:
238,172,51383,2,0,P|252:196|257:224,1,56.2500021457673
258,95,51656,6,0,L|324:86,1,56.2500021457673,2|0,0:0|0:0,0:0:0:0:
126,124,51928,2,0,L|192:115,1,56.2500021457673
256,108,52201,2,0,L|322:99,1,56.2500021457673,4|0,0:0|0:0,0:0:0:0:
124,137,52473,2,0,L|190:128,1,56.2500021457673
254,118,52747,6,0,P|290:190|370:190,1,168.750006437302,6|0,0:0|0:0,0:0:0:0:
254,118,53292,6,0,L|197:122,1,56.2500021457673,8|0,0:0|0:0,0:0:0:0:
324,82,53565,2,0,L|380:77,1,56.2500021457673
450,112,53837,6,0,P|453:139|447:167,1,56.2500021457673,2|0,0:0|0:0,0:0:0:0:
418,240,54110,2,0,P|411:267|415:295,1,56.2500021457673
432,108,54383,2,0,P|435:135|429:163,1,56.2500021457673,8|0,0:0|0:0,0:0:0:0:
400,236,54656,2,0,P|393:263|397:291,1,56.2500021457673
355,169,54928,6,0,P|319:96|239:96,1,168.750006437302,6|0,0:0|0:0,0:0:0:0:
355,169,55474,6,0,L|412:165,1,56.2500021457673,8|0,0:0|0:0,0:0:0:0:
285,205,55747,2,0,L|229:208,1,56.2500021457673
164,103,56019,6,0,L|167:159,1,56.2500021457673,2|0,0:0|0:0,0:0:0:0:
159,237,56292,2,0,L|162:293,1,56.2500021457673
154,105,56565,2,0,L|157:161,1,56.2500021457673,8|0,0:0|0:0,0:0:0:0:
149,239,56838,2,0,L|152:295,1,56.2500021457673
236,329,57110,6,0,B|260:296|263:247|234:216|234:216|235:267,1,168.750006437302,6|0,0:0|0:0,0:0:0:0:
236,329,57656,6,0,B|292:328,1,56.2500021457673,8|0,0:0|0:0,0:0:0:0:
167,367,57928,2,0,B|110:369,1,56.2500021457673
61,306,58201,6,0,P|57:278|63:250,1,56.2500021457673,2|0,0:0|0:0,0:0:0:0:
104,125,58474,2,0,P|108:153|102:181,1,56.2500021457673
71,311,58747,2,0,P|67:283|73:255,1,56.2500021457673,8|0,0:0|0:0,0:0:0:0:
114,130,59020,2,0,P|117:157|111:185,1,56.2500021457673
155,250,59292,6,0,B|202:234|202:234|264:265|264:265|311:250,1,168.750006437302,6|0,0:0|0:0,0:0:0:0:
269,184,59837,6,0,B|252:130,1,56.2500021457673,8|0,0:0|0:0,0:0:0:0:
193,319,60110,2,0,B|211:372,1,56.2500021457673
256,192,60383,12,6,61474,0:0:0:0:
139,38,62019,6,0,P|125:62|120:90,1,56.2500021457673,8|0,0:0|0:0,0:0:0:0:
128,168,62292,2,0,P|123:195|109:219,1,56.2500021457673
149,43,62565,2,0,P|135:67|130:95,1,56.2500021457673,2|0,0:0|0:0,0:0:0:0:
138,173,62838,2,0,P|133:200|119:224,1,56.2500021457673
57,273,63110,6,0,L|1:264,1,56.2500021457673,8|0,0:0|0:0,0:0:0:0:
184,312,63383,2,0,L|129:304,1,56.2500021457673
264,348,63656,6,0,L|277:232,1,112.500004291535,6|0,0:0|0:0,0:0:0:0:
264,348,64201,6,0,L|206:356,1,56.2500021457673,8|0,0:0|0:0,0:0:0:0:
332,297,64474,2,0,L|389:288,1,56.2500021457673
276,236,64747,2,0,L|218:244,1,56.2500021457673,2|0,0:0|0:0,0:0:0:0:
344,185,65020,2,0,L|399:176,1,56.2500021457673
287,125,65292,6,0,P|263:111|235:106,1,56.2500021457673,8|0,0:0|0:0,0:0:0:0:
159,127,65565,2,0,P|131:122|107:108,1,56.2500021457673
59,45,65837,6,0,P|63:106|36:152,1,112.500004291535,6|0,0:0|0:0,0:0:0:0:
59,45,66383,6,0,P|81:30|109:22,1,56.2500021457673,8|0,0:0|0:0,0:0:0:0:
26,163,66656,2,0,P|43:142|68:128,1,56.2500021457673
155,115,66928,2,0,P|164:89|182:67,1,56.2500021457673,2|0,0:0|0:0,0:0:0:0:
120,249,67201,2,0,P|114:221|120:194,1,56.2500021457673
174,306,67474,6,0,P|200:315|221:333,1,56.2500021457673,8|0,0:0|0:0,0:0:0:0:
300,341,67747,2,0,P|326:332|347:313,1,56.2500021457673
406,365,68019,6,0,B|386:325|406:285|406:285|427:245|406:204,1,168.750006437302,6|0,0:0|0:0,0:0:0:0:
338,245,68565,6,0,B|214:262|214:262|257:267,1,168.750006437302,8|0,0:0|0:0,0:0:0:0:
193,328,69110,6,0,P|145:276|188:197,1,168.750006437302,2|0,0:0|0:0,0:0:0:0:
256,267,69656,6,0,P|215:215|212:105,1,168.750006437302,8|0,0:0|0:0,0:0:0:0:
149,63,70201,6,0,P|90:42|39:56,1,112.500004291535,6|0,0:0|0:0,0:0:0:0:
149,63,70747,6,0,P|163:38|168:9,1,56.2500021457673,8|0,0:0|0:0,0:0:0:0:
192,128,71019,2,0,P|221:125|247:117,1,56.2500021457673
160,199,71292,2,0,P|174:221|196:241,1,56.2500021457673,2|0,0:0|0:0,0:0:0:0:
149,63,71837,6,0,P|135:39|113:20,1,56.2500021457673,8|0,0:0|0:0,0:0:0:0:
118,134,72110,2,0,P|90:135|64:144,1,56.2500021457673
160,199,72383,6,0,P|134:248|123:303,1,112.500004291535,6|0,0:0|0:0,0:0:0:0:
297,124,72928,5,8,0:0:0:0:
84,145,73201,2,0,L|140:140,1,56.2500021457673
240,69,73474,2,0,L|185:75,1,56.2500021457673,2|0,0:0|0:0,0:0:0:0:
381,206,74019,6,0,P|379:177|370:151,1,56.2500021457673,8|0,0:0|0:0,0:0:0:0:
297,123,74292,2,0,P|273:139|254:160,1,56.2500021457673
281,234,74565,6,0,P|239:197|184:197,1,112.500004291535,6|0,0:0|0:0,0:0:0:0:
293,310,75110,5,8,0:0:0:0:
184,196,75383,2,0,P|186:224|195:250,1,56.2500021457673
215,124,75656,2,0,P|213:95|204:69,1,56.2500021457673,2|0,0:0|0:0,0:0:0:0:
262,298,76201,6,0,P|286:311|314:316,1,56.2500021457673,8|0,0:0|0:0,0:0:0:0:
427,245,76474,2,0,P|403:260|385:282,1,56.2500021457673
377,360,76747,6,0,L|307:206,1,168.750006437302,6|0,0:0|0:0,0:0:0:0:
276,134,77292,6,0,P|264:212|186:228,1,168.750006437302,8|0,0:0|0:0,0:0:0:0:
176,139,77837,6,0,B|212:162|212:162|128:70,1,168.750006437302,2|0,0:0|0:0,0:0:0:0:
73,12,78383,5,4,0:0:0:0:
176,139,78656,2,0,P|199:123|218:102,1,56.2500021457673
164,45,78928,6,0,L|275:59,1,112.500004291535,2|0,0:0|0:0,0:0:0:0:
432,79,79474,5,8,0:0:0:0:
451,154,79610,2,0,P|448:181|439:208,1,56.2500021457673,2|0,0:0|0:0,0:0:0:0:
467,282,79883,2,0,P|425:245|370:245,1,112.500004291535,2|0,0:0|0:0,0:0:0:0:
296,270,80292,2,0,P|240:269|199:232,1,112.500004291535,2|8,0:0|0:0,0:0:0:0:
202,153,80701,2,0,L|179:101,2,56.2500021457673,2|0|2,0:0|0:0|0:0,0:0:0:0:
269,196,81110,6,0,P|324:196|365:233,1,112.500004291535,6|0,0:0|0:0,0:0:0:0:
199,232,81656,6,0,P|193:204|193:176,2,56.2500021457673,8|2|0,0:0|0:0|0:0,0:0:0:0:
262,279,82065,2,0,L|365:231,1,112.500004291535,2|0,0:0|0:0,0:0:0:0:
434,196,82474,1,2,0:0:0:0:
199,232,82747,1,8,0:0:0:0:
190,310,82883,2,0,P|169:328|144:342,2,56.2500021457673,2|0|2,0:0|0:0|0:0,0:0:0:0:
199,232,83292,6,0,B|206:149|206:149|210:177,1,112.500004291535,6|0,0:0|0:0,0:0:0:0:
167,27,83837,6,0,P|220:41|250:87,1,112.500004291535,8|0,0:0|0:0,0:0:0:0:
287,158,84247,2,0,B|313:171|340:158|340:158|366:144|394:158,1,112.500004291535,2|2,0:0|0:0,0:0:0:0:
207,158,84656,2,0,P|182:170|154:177,1,56.2500021457673,2|0,0:0|0:0,0:0:0:0:
136,100,84928,1,8,0:0:0:0:
167,27,85065,2,0,P|215:52|268:37,1,112.500004291535,0|2,0:0|0:0,0:0:0:0:
328,91,85474,6,0,P|367:162|321:227,1,168.750006437302,6|0,0:0|0:0,0:0:0:0:
249,255,86019,6,0,P|329:257|364:329,1,168.750006437302,8|0,0:0|0:0,0:0:0:0:
209,323,86565,6,0,P|169:251|215:186,1,168.750006437302,2|0,0:0|0:0,0:0:0:0:
283,150,87110,6,0,B|303:190|283:230|283:230|262:270|283:311,1,168.750006437302,8|0,0:0|0:0,0:0:0:0:
360,132,87656,6,0,P|330:85|276:71,1,112.500004291535,6|0,0:0|0:0,0:0:0:0:
350,210,88201,6,0,P|404:197|436:151,1,112.500004291535,8|0,0:0|0:0,0:0:0:0:
482,90,88610,2,0,L|494:201,1,112.500004291535,2|0,0:0|0:0,0:0:0:0:
453,269,89019,2,0,P|425:274|396:273,1,56.2500021457673,2|0,0:0|0:0,0:0:0:0:
350,210,89292,1,8,0:0:0:0:
321,283,89428,1,2,0:0:0:0:
296,48,89837,6,0,P|340:79|352:133,1,112.500004291535,6|0,0:0|0:0,0:0:0:0:
220,46,90383,5,8,0:0:0:0:
170,195,90656,1,2,0:0:0:0:
245,171,90792,2,0,P|253:144|255:116,1,56.2500021457673,2|0,0:0|0:0,0:0:0:0:
220,46,91065,1,2,0:0:0:0:
146,73,91201,2,0,P|137:99|135:127,1,56.2500021457673,2|0,0:0|0:0,0:0:0:0:
170,195,91474,6,0,P|196:204|224:206,1,56.2500021457673,8|2,0:0|0:0,0:0:0:0:
297,173,91747,2,0,P|318:155|333:132,1,56.2500021457673
291,252,92019,6,0,L|285:365,1,112.500004291535,6|0,0:0|0:0,0:0:0:0:
217,224,92565,6,0,P|251:183|306:176,1,112.500004291535,8|0,0:0|0:0,0:0:0:0:
382,150,92974,2,0,P|403:100|385:48,1,112.500004291535,2|0,0:0|0:0,0:0:0:0:
323,97,93383,1,2,0:0:0:0:
165,82,93656,6,0,P|154:108|151:136,1,56.2500021457673,8|0,0:0|0:0,0:0:0:0:
169,212,93928,2,0,P|166:239|155:266,1,56.2500021457673,2|0,0:0|0:0,0:0:0:0:
204,329,94201,6,0,B|223:335|246:333|263:319|263:319|286:333|326:336|353:313|353:313|333:348,1,168.750006437302,2|0,0:0|0:0,0:0:0:0:
204,329,94747,6,0,P|146:268|174:194,1,168.750006437302,8|0,0:0|0:0,0:0:0:0:
223,253,95292,6,0,B|253:222|252:183|234:155|234:155|302:251|302:251|333:226|388:221|434:259|432:311,1,393.750015020371,2|0,0:0|0:0,0:0:0:0:
353,313,96383,6,0,B|361:195|361:195|348:146,1,168.750006437302,6|0,0:0|0:0,0:0:0:0:
300,83,96928,2,0,P|219:62|168:124,1,168.750006437302,8|0,0:0|0:0,0:0:0:0:
162,200,97474,2,0,P|215:185|245:138,1,112.500004291535,2|0,0:0|0:0,0:0:0:0:
162,274,98019,2,0,P|243:255|302:197,1,168.750006437302,8|0,0:0|0:0,0:0:0:0:
306,118,98565,6,0,P|329:168|381:189,1,112.500004291535,2|0,0:0|0:0,0:0:0:0:
336,38,99110,2,0,P|280:33|235:67,1,112.500004291535,8|0,0:0|0:0,0:0:0:0:
209,222,99656,2,0,P|164:254|109:250,1,112.500004291535,2|0,0:0|0:0,0:0:0:0:
133,94,100201,2,0,B|144:52|144:52|143:178,1,168.750006437302,8|0,0:0|0:0,0:0:0:0:
109,250,100747,6,0,B|129:263|152:266|171:262|192:237|223:228|243:248|237:270|212:274|182:268,1,168.750006437302,6|0,0:0|0:0,0:0:0:0:
109,250,101292,2,0,P|62:184|101:113,1,168.750006437302,8|0,0:0|0:0,0:0:0:0:
143,178,101837,2,0,B|169:165|196:178|196:178|222:192|250:178,1,112.500004291535,2|0,0:0|0:0,0:0:0:0:
330,35,102383,2,0,L|325:204,1,168.750006437302,8|0,0:0|0:0,0:0:0:0:
327,282,102928,6,0,P|378:260|402:210,1,112.500004291535,2|0,0:0|0:0,0:0:0:0:
298,92,103474,2,0,P|246:113|222:163,1,112.500004291535,8|0,0:0|0:0,0:0:0:0:
373,121,104019,2,0,P|375:65|339:22,1,112.500004291535,2|0,0:0|0:0,0:0:0:0:
277,167,104565,2,0,P|356:159|398:228,1,168.750006437302,8|0,0:0|0:0,0:0:0:0:
441,293,105110,6,0,P|368:259|305:308,1,168.750006437302,6|0,0:0|0:0,0:0:0:0:
272,380,105656,2,0,L|260:209,1,168.750006437302,8|0,0:0|0:0,0:0:0:0:
207,153,106201,2,0,B|214:70|214:70|218:98,1,112.500004291535,2|0,0:0|0:0,0:0:0:0:
198,255,106747,2,0,P|270:288|333:237,1,168.750006437302,8|0,0:0|0:0,0:0:0:0:
319,160,107292,6,0,P|364:129|419:136,1,112.500004291535,2|0,0:0|0:0,0:0:0:0:
259,210,107837,2,0,P|215:178|161:186,1,112.500004291535,8|0,0:0|0:0,0:0:0:0:
12,240,108383,2,0,B|95:239|95:239|67:246,1,112.500004291535,2|0,0:0|0:0,0:0:0:0:
128,101,108928,2,0,L|71:96,3,56.2500021457673,8|0|0|0,0:0|0:0|0:0|0:0,0:0:0:0:
128,101,109474,6,0,P|190:50|263:83,1,168.750006437302,6|0,0:0|0:0,0:0:0:0:
199,129,110019,2,0,B|179:169|199:209|199:209|220:249|198:290,1,168.750006437302,8|0,0:0|0:0,0:0:0:0:
268,167,110565,2,0,P|313:136|368:143,1,112.500004291535,2|0,0:0|0:0,0:0:0:0:
133,250,111110,2,0,P|53:258|10:190,1,168.750006437302,8|0,0:0|0:0,0:0:0:0:
46,120,111656,6,0,L|157:134,1,112.500004291535,2|0,0:0|0:0,0:0:0:0:
315,134,112201,2,0,L|426:119,1,112.500004291535,8|0,0:0|0:0,0:0:0:0:
478,268,112747,2,0,L|366:253,1,112.500004291535,2|0,0:0|0:0,0:0:0:0:
250,146,113292,2,0,L|277:142,7,28.1250010728836,8|0|0|0|0|0|0|0,0:0|0:0|0:0|0:0|0:0|0:0|0:0|0:0,0:0:0:0:
249,146,113837,6,0,P|240:172|239:200,2,56.2500021457673,6|0|0,0:0|0:0|0:0,0:0:0:0:
328,299,114247,2,0,P|310:278|287:263,2,56.2500021457673,0|8|0,0:0|0:0|0:0,0:0:0:0:
208,274,114656,2,0,P|182:286|155:291,2,56.2500021457673,0|0|2,0:0|0:0|0:0,0:0:0:0:
77,304,115065,2,0,P|51:292|24:287,2,56.2500021457673
102,230,115474,2,0,P|103:202|112:175,1,56.2500021457673,8|0,0:0|0:0,0:0:0:0:
162,113,115747,2,0,P|171:86|172:58,1,56.2500021457673
87,130,116019,5,2,0:0:0:0:
112,175,116155,1,0,0:0:0:0:
165,194,116291,1,0,0:0:0:0:
216,171,116428,1,0,0:0:0:0:
246,123,116565,2,0,L|239:67,1,56.2500021457673,8|0,0:0|0:0,0:0:0:0:
293,183,116837,1,0,0:0:0:0:
346,164,116974,1,0,0:0:0:0:
394,191,117110,2,0,L|401:246,1,56.2500021457673,2|0,0:0|0:0,0:0:0:0:
406,114,117382,1,0,0:0:0:0:
357,85,117519,1,0,0:0:0:0:
300,92,117656,2,0,P|274:104|253:122,1,56.2500021457673,8|0,0:0|0:0,0:0:0:0:
153,209,117928,2,0,P|178:197|200:180,1,56.2500021457673
178,103,118201,6,0,P|154:87|128:78,2,56.2500021457673,6|0|0,0:0|0:0|0:0,0:0:0:0:
245,143,118610,2,0,P|268:158|294:167,2,56.2500021457673,0|8|0,0:0|0:0|0:0,0:0:0:0:
248,63,119019,2,0,P|257:36|272:13,1,56.2500021457673
245,143,119292,2,0,P|263:164|275:189,1,56.2500021457673,2|0,0:0|0:0,0:0:0:0:
258,266,119565,1,0,0:0:0:0:
335,251,119701,2,0,P|362:246|390:247,1,56.2500021457673,0|8,0:0|0:0,0:0:0:0:
444,304,119974,1,0,0:0:0:0:
376,343,120110,2,0,P|348:348|320:347,1,56.2500021457673
257,300,120383,5,2,0:0:0:0:
261,243,120519,1,0,0:0:0:0:
264,187,120655,1,0,0:0:0:0:
267,131,120792,1,0,0:0:0:0:
283,77,120928,1,8,0:0:0:0:
335,58,121064,1,0,0:0:0:0:
386,79,121200,1,0,0:0:0:0:
409,129,121337,1,0,0:0:0:0:
389,182,121474,6,0,P|388:209|393:237,1,56.2500021457673,2|0,0:0|0:0,0:0:0:0:
416,103,121747,2,0,L|431:78,3,28.1250010728836
416,103,122019,2,0,P|389:100|361:104,1,56.2500021457673,4|0,0:0|0:0,0:0:0:0:
289,139,122292,2,0,P|261:142|233:138,1,56.2500021457673
161,104,122565,6,0,P|203:199|116:256,1,225.000008583069,6|8,0:0|0:0,0:0:0:0:
161,104,123247,6,0,L|217:98,2,56.2500021457673
116,256,123656,2,0,L|171:261,1,56.2500021457673,2|0,0:0|0:0,0:0:0:0:
329,84,124201,2,0,B|351:68|380:61|380:61|378:73|378:73|402:56|421:47|421:47|420:59|420:59|430:52|443:49|443:49|456:49,1,168.750006437302,8|0,0:0|0:0,0:0:0:0:
329,84,124747,6,0,B|302:97|284:121|276:145|291:184|281:225|245:234|225:213|236:183|262:153,1,225.000008583069,6|8,0:0|0:0,0:0:0:0:
329,84,125428,6,0,P|357:79|385:82,2,56.2500021457673
263,153,125837,2,0,P|242:230|301:284,1,168.750006437302,2|0,0:0|0:0,0:0:0:0:
404,194,126383,2,0,B|442:173|442:173|320:207,1,168.750006437302,8|0,0:0|0:0,0:0:0:0:
432,104,126928,6,0,P|503:138|497:217,1,168.750006437302,6|0,0:0|0:0,0:0:0:0:
432,104,127474,6,0,L|438:48,1,56.2500021457673,8|0,0:0|0:0,0:0:0:0:
497,217,127747,2,0,L|492:272,1,56.2500021457673
432,104,128019,2,0,P|361:137|368:216,1,168.750006437302,2|0,0:0|0:0,0:0:0:0:
443,242,128565,2,0,L|275:254,1,168.750006437302,8|0,0:0|0:0,0:0:0:0:
197,262,129110,5,0,0:0:0:0:
256,192,129247,12,4,133474,0:0:0:0:
393,123,134019,5,8,0:0:0:0:
343,98,134155,1,0,0:0:0:0:
291,117,134291,1,0,0:0:0:0:
270,168,134428,1,0,0:0:0:0:
300,215,134565,6,2,L|356:211,1,56.2500021457673
431,235,134837,2,0,L|487:231,1,56.2500021457673
296,235,135110,2,0,L|352:231,1,56.2500021457673,8|0,0:0|0:0,0:0:0:0:
427,255,135383,2,0,L|483:251,1,56.2500021457673
394,328,135656,6,0,L|383:159,1,168.750006437302,6|0,0:0|0:0,0:0:0:0:
316,117,136201,5,8,0:0:0:0:
312,173,136338,1,0,0:0:0:0:
308,229,136474,1,0,0:0:0:0:
305,285,136610,1,0,0:0:0:0:
266,326,136747,6,0,P|238:331|210:328,1,56.2500021457673,2|0,0:0|0:0,0:0:0:0:
142,289,137019,2,0,P|114:286|86:291,1,56.2500021457673
273,304,137292,2,0,P|245:309|217:306,1,56.2500021457673,8|0,0:0|0:0,0:0:0:0:
149,267,137565,2,0,P|121:264|93:269,1,56.2500021457673
219,226,137837,6,0,P|227:143|212:60,1,168.750006437302,6|0,0:0|0:0,0:0:0:0:
159,276,138383,5,8,0:0:0:0:
205,304,138519,1,0,0:0:0:0:
259,294,138655,1,0,0:0:0:0:
292,250,138792,1,0,0:0:0:0:
295,194,138928,6,0,P|279:171|258:152,1,56.2500021457673,2|0,0:0|0:0,0:0:0:0:
144,98,139201,2,0,P|160:121|180:139,1,56.2500021457673
299,186,139474,2,0,P|283:163|262:144,1,56.2500021457673,8|0,0:0|0:0,0:0:0:0:
147,90,139747,2,0,P|163:112|185:131,1,56.2500021457673
167,206,140019,6,0,L|273:75,1,168.750006437302,6|0,0:0|0:0,0:0:0:0:
345,42,140565,5,8,0:0:0:0:
400,45,140701,1,0,0:0:0:0:
436,87,140837,1,0,0:0:0:0:
429,142,140974,1,0,0:0:0:0:
405,192,141110,6,0,P|402:220|407:248,1,56.2500021457673,2|0,0:0|0:0,0:0:0:0:
506,333,141383,2,0,P|484:316|458:307,1,56.2500021457673
395,194,141656,2,0,P|392:222|397:250,1,56.2500021457673,8|0,0:0|0:0,0:0:0:0:
496,335,141929,2,0,P|473:318|447:308,1,56.2500021457673
370,327,142201,6,0,P|290:335|247:267,1,168.750006437302,6|0,0:0|0:0,0:0:0:0:
370,327,142747,6,0,P|397:322|425:324,1,56.2500021457673,8|0,0:0|0:0,0:0:0:0:
247,267,143019,2,0,P|219:271|191:269,1,56.2500021457673
126,223,143292,5,2,0:0:0:0:
126,168,143428,1,0,0:0:0:0:
127,111,143564,1,0,0:0:0:0:
128,55,143701,1,0,0:0:0:0:
167,14,143837,2,0,P|194:9|222:11,1,56.2500021457673,8|0,0:0|0:0,0:0:0:0:
289,53,144110,2,0,P|294:80|292:108,1,56.2500021457673
244,172,144383,6,0,B|204:192|164:172|164:172|124:151|83:173,1,168.750006437302,6|0,0:0|0:0,0:0:0:0:
244,172,144928,6,0,L|189:163,1,56.2500021457673,8|0,0:0|0:0,0:0:0:0:
83,173,145201,2,0,L|28:164,1,56.2500021457673
154,97,145474,5,2,0:0:0:0:
152,153,145610,1,0,0:0:0:0:
149,209,145746,1,0,0:0:0:0:
147,265,145883,1,0,0:0:0:0:
180,310,146019,2,0,P|207:315|235:313,1,56.2500021457673,8|0,0:0|0:0,0:0:0:0:
312,295,146292,2,0,P|339:292|367:297,1,56.2500021457673
432,252,146565,6,0,B|419:127|419:127|433:168,1,168.750006437302,6|0,0:0|0:0,0:0:0:0:
432,252,147110,6,0,P|404:256|376:254,1,56.2500021457673,8|0,0:0|0:0,0:0:0:0:
302,226,147383,2,0,P|273:224|246:228,1,56.2500021457673
173,259,147656,5,2,0:0:0:0:
174,202,147792,1,0,0:0:0:0:
176,146,147928,1,0,0:0:0:0:
177,90,148065,1,0,0:0:0:0:
148,40,148201,2,0,P|120:38|93:42,1,56.2500021457673,8|0,0:0|0:0,0:0:0:0:
3,139,148474,2,0,P|19:116|30:90,1,56.2500021457673
41,209,148747,6,0,P|121:205|153:132,1,168.750006437302,6|0,0:0|0:0,0:0:0:0:
41,209,149292,6,0,L|43:265,1,56.2500021457673,8|0,0:0|0:0,0:0:0:0:
153,132,149565,2,0,L|155:75,1,56.2500021457673
256,192,149837,12,4,150928,0:0:0:0:
122,164,151474,6,0,L|66:169,2,56.2500021457673,8|0|0,0:0|0:0|0:0,0:0:0:0:
189,206,151883,2,0,P|243:213|288:181,1,112.500004291535
310,104,152292,2,0,P|312:76|308:49,1,56.2500021457673
363,162,152565,2,0,P|386:177|412:188,1,56.2500021457673,8|0,0:0|0:0,0:0:0:0:
433,57,152837,2,0,P|408:69|386:87,1,56.2500021457673
288,181,153110,6,0,P|234:186|190:152,1,112.500004291535,2|0,0:0|0:0,0:0:0:0:
193,72,153519,1,0,0:0:0:0:
271,66,153656,2,0,P|294:80|314:99,1,56.2500021457673,8|0,0:0|0:0,0:0:0:0:
337,176,153928,2,0,P|336:203|330:230,1,56.2500021457673
260,268,154201,2,0,B|234:281|207:268|207:268|181:254|153:268,1,112.500004291535,2|2,0:0|0:0,0:0:0:0:
122,341,154610,1,0,0:0:0:0:
199,360,154747,2,0,P|226:355|253:345,1,56.2500021457673,8|0,0:0|0:0,0:0:0:0:
260,268,155019,2,0,P|269:241|284:218,1,56.2500021457673
345,167,155292,6,0,B|366:152|401:153|425:171|425:171|422:158|427:142,1,112.500004291535,2|0,0:0|0:0,0:0:0:0:
381,229,155701,1,0,0:0:0:0:
404,304,155837,2,0,L|400:363,1,56.2500021457673,8|0,0:0|0:0,0:0:0:0:
304,238,156110,1,0,0:0:0:0:
327,313,156246,2,0,L|323:372,1,56.2500021457673,0|2,0:0|0:0,0:0:0:0:
227,250,156519,1,0,0:0:0:0:
227,250,156656,1,0,0:0:0:0:
227,250,156792,1,0,0:0:0:0:
250,325,156928,2,0,L|246:381,1,56.2500021457673,8|0,0:0|0:0,0:0:0:0:
264,173,157201,2,0,L|261:230,1,56.2500021457673
271,84,157474,6,0,P|316:53|371:60,1,112.500004291535,2|0,0:0|0:0,0:0:0:0:
432,110,157883,1,0,0:0:0:0:
455,184,158019,2,0,L|458:240,1,56.2500021457673,8|0,0:0|0:0,0:0:0:0:
404,298,158292,2,0,L|407:354,1,56.2500021457673
377,220,158565,2,0,B|351:207|324:220|324:220|298:234|270:220,1,112.500004291535,2|0,0:0|0:0,0:0:0:0:
212,164,158974,1,0,0:0:0:0:
213,85,159110,2,0,P|222:58|237:35,2,56.2500021457673,4|0|0,0:0|0:0|0:0,0:0:0:0:
236,262,159656,6,0,B|267:251|267:251|308:271|308:271|339:262,1,112.500004291535,6|0,0:0|0:0,0:0:0:0:
414,233,160065,1,0,0:0:0:0:
464,293,160201,2,0,P|475:318|481:345,2,56.2500021457673,8|0|0,0:0|0:0|0:0,0:0:0:0:
509,172,160610,2,0,P|489:191|473:214,1,56.2500021457673,0|2,0:0|0:0,0:0:0:0:
346,235,160883,2,0,P|373:244|401:247,2,56.2500021457673
267,239,161292,2,0,P|246:257|230:280,1,56.2500021457673,8|0,0:0|0:0,0:0:0:0:
302,171,161565,2,0,P|295:143|284:118,1,56.2500021457673
204,124,161837,6,0,B|121:132|121:132|148:123,1,112.500004291535,2|0,0:0|0:0,0:0:0:0:
284,118,162247,1,0,0:0:0:0:
318,188,162383,2,0,P|315:215|306:242,1,56.2500021457673,8|0,0:0|0:0,0:0:0:0:
244,292,162656,2,0,P|218:303|191:309,1,56.2500021457673
112,298,162928,2,0,P|163:278|189:229,1,112.500004291535,2|0,0:0|0:0,0:0:0:0:
110,215,163337,1,0,0:0:0:0:
84,140,163474,2,0,P|93:113|108:90,1,56.2500021457673,8|0,0:0|0:0,0:0:0:0:
186,76,163747,2,0,P|214:77|241:72,1,56.2500021457673
296,16,164019,6,0,B|290:93|290:93|299:126,1,112.500004291535,2|0,0:0|0:0,0:0:0:0:
303,206,164428,1,0,0:0:0:0:
232,170,164565,2,0,P|203:168|176:173,2,56.2500021457673,8|0|0,0:0|0:0|0:0,0:0:0:0:
299,127,164974,2,0,P|327:128|354:123,1,56.2500021457673,0|2,0:0|0:0,0:0:0:0:
421,80,165247,2,0,P|436:56|445:30,2,56.2500021457673
428,158,165656,2,0,P|440:182|458:204,1,56.2500021457673,8|0,0:0|0:0,0:0:0:0:
354,123,165928,2,0,P|325:121|298:126,1,56.2500021457673
311,204,166201,6,0,P|277:160|223:150,1,112.500004291535,2|0,0:0|0:0,0:0:0:0:
148,173,166610,1,0,0:0:0:0:
109,242,166747,2,0,L|112:298,1,56.2500021457673,8|0,0:0|0:0,0:0:0:0:
68,165,167019,2,0,L|64:108,1,56.2500021457673
107,34,167292,2,0,P|161:26|206:57,1,112.500004291535,2|0,0:0|0:0,0:0:0:0:
225,134,167701,1,0,0:0:0:0:
199,208,167837,2,0,P|180:228|157:244,2,56.2500021457673,4|0|0,0:0|0:0|0:0,0:0:0:0:
108,63,168383,6,0,L|220:58,1,112.500004291535,6|0,0:0|0:0,0:0:0:0:
299,54,168792,1,0,0:0:0:0:
377,49,168928,2,0,L|433:46,1,56.2500021457673,8|0,0:0|0:0,0:0:0:0:
411,128,169201,1,0,0:0:0:0:
332,125,169337,2,0,L|275:122,1,56.2500021457673,0|2,0:0|0:0,0:0:0:0:
298,202,169610,1,0,0:0:0:0:
298,202,169747,1,0,0:0:0:0:
298,202,169883,1,0,0:0:0:0:
376,197,170019,2,0,L|432:194,1,56.2500021457673,8|0,0:0|0:0,0:0:0:0:
410,276,170292,2,0,L|353:273,1,56.2500021457673
276,255,170565,6,0,P|254:204|273:152,1,112.500004291535,2|0,0:0|0:0,0:0:0:0:
334,102,170974,1,0,0:0:0:0:
412,100,171110,2,0,L|468:97,1,56.2500021457673,8|0,0:0|0:0,0:0:0:0:
258,106,171383,2,0,L|201:108,1,56.2500021457673
147,165,171656,2,0,B|134:191|147:218|147:218|161:244|147:272,1,112.500004291535,2|0,0:0|0:0,0:0:0:0:
216,182,172065,1,0,0:0:0:0:
283,141,172201,2,0,P|310:136|338:137,1,56.2500021457673,8|0,0:0|0:0,0:0:0:0:
468,161,172474,2,0,P|441:166|413:164,1,56.2500021457673
351,215,172747,6,0,L|344:327,1,112.500004291535,2|0,0:0|0:0,0:0:0:0:
284,378,173156,1,0,0:0:0:0:
205,373,173292,2,0,P|179:363|155:348,1,56.2500021457673,8|0,0:0|0:0,0:0:0:0:
141,270,173565,1,0,0:0:0:0:
183,204,173701,2,0,P|188:177|186:149,1,56.2500021457673,0|2,0:0|0:0,0:0:0:0:
125,97,173974,1,0,0:0:0:0:
192,57,174110,2,0,L|265:65,1,56.2500021457673
290,130,174383,2,0,P|313:115|339:105,1,56.2500021457673,8|0,0:0|0:0,0:0:0:0:
290,210,174656,2,0,P|315:222|336:240,1,56.2500021457673
208,191,174928,6,0,P|261:176|289:130,1,112.500004291535,2|0,0:0|0:0,0:0:0:0:
287,50,175337,1,0,0:0:0:0:
209,36,175474,2,0,L|153:42,1,56.2500021457673,8|0,0:0|0:0,0:0:0:0:
107,106,175747,2,0,L|51:112,1,56.2500021457673
175,147,176019,2,0,L|187:258,1,112.500004291535,2|0,0:0|0:0,0:0:0:0:
196,337,176428,1,0,0:0:0:0:
265,374,176565,2,0,P|292:376|320:371,1,56.2500021457673,4|0,0:0|0:0,0:0:0:0:
359,245,176837,2,0,P|343:268|334:295,1,56.2500021457673
395,344,177110,6,0,P|448:329|476:283,1,112.500004291535,6|0,0:0|0:0,0:0:0:0:
455,205,177519,1,0,0:0:0:0:
384,169,177656,2,0,P|356:166|328:171,1,56.2500021457673,8|0,0:0|0:0,0:0:0:0:
296,242,177928,1,0,0:0:0:0:
232,289,178065,2,0,P|204:291|176:286,1,56.2500021457673,0|2,0:0|0:0,0:0:0:0:
144,214,178337,1,0,0:0:0:0:
158,158,178474,1,0,0:0:0:0:
173,103,178610,1,0,0:0:0:0:
188,48,178747,2,0,P|215:45|243:50,1,56.2500021457673,8|0,0:0|0:0,0:0:0:0:
321,157,179019,2,0,P|305:134|296:108,1,56.2500021457673
323,33,179292,6,0,B|354:22|354:22|395:42|395:42|426:33,1,112.500004291535,2|0,0:0|0:0,0:0:0:0:
503,55,179701,1,0,0:0:0:0:
452,115,179837,2,0,P|442:141|440:169,1,56.2500021457673,8|0,0:0|0:0,0:0:0:0:
376,216,180110,2,0,P|373:243|364:270,1,56.2500021457673
404,339,180383,2,0,P|368:296|314:290,1,112.500004291535,2|0,0:0|0:0,0:0:0:0:
242,325,180792,1,0,0:0:0:0:
240,246,180928,2,0,P|230:219|214:196,1,56.2500021457673,8|0,0:0|0:0,0:0:0:0:
137,178,181201,2,0,P|109:172|81:175,1,56.2500021457673
87,253,181474,6,0,P|139:268|167:316,1,112.500004291535,2|0,0:0|0:0,0:0:0:0:
242,292,181883,1,0,0:0:0:0:
301,343,182019,2,0,P|328:348|356:345,1,56.2500021457673,8|0,0:0|0:0,0:0:0:0:
406,283,182292,1,0,0:0:0:0:
420,205,182428,2,0,L|416:148,1,56.2500021457673,0|2,0:0|0:0,0:0:0:0:
387,74,182701,1,0,0:0:0:0:
310,61,182837,2,0,P|282:63|255:72,1,56.2500021457673
212,199,183110,2,0,P|224:174|230:147,1,56.2500021457673,8|0,0:0|0:0,0:0:0:0:
139,45,183383,2,0,P|155:68|177:86,1,56.2500021457673
230,147,183656,6,0,P|221:92|251:47,1,112.500004291535,2|0,0:0|0:0,0:0:0:0:
327,27,184065,1,0,0:0:0:0:
346,103,184201,2,0,L|343:159,1,56.2500021457673,8|0,0:0|0:0,0:0:0:0:
398,215,184474,2,0,L|395:271,1,56.2500021457673
381,349,184747,2,0,P|353:301|300:285,1,112.500004291535,2|0,0:0|0:0,0:0:0:0:
224,304,185156,1,0,0:0:0:0:
176,331,185292,1,8,0:0:0:0:
124,315,185428,1,0,0:0:0:0:
100,266,185565,1,0,0:0:0:0:
120,215,185701,1,0,0:0:0:0:
171,195,185837,6,0,P|183:143|154:99,1,97.4999955368044,4|0,0:0|0:0,0:0:0:0:
94,224,186383,2,0,L|45:229,2,48.7499977684022,8|0|0,0:0|0:0|0:0,0:0:0:0:
225,258,186928,2,0,P|292:238|353:275,1,146.249993305207,2|0,0:0|0:0,0:0:0:0:
403,324,187474,6,0,B|423:308|429:274|418:248|418:248|431:230|431:230|420:210|424:189,1,146.249993305207,8|0,0:0|0:0,0:0:0:0:
462,130,188019,6,0,P|410:117|366:146,1,97.4999955368044,2|0,0:0|0:0,0:0:0:0:
261,274,188565,2,0,P|238:282|214:285,2,48.7499977684022,8|0|0,0:0|0:0|0:0,0:0:0:0:
372,195,189110,2,0,L|387:49,1,146.249993305207,2|0,0:0|0:0,0:0:0:0:
316,23,189656,6,0,B|308:40|285:48|262:46|262:46|248:64|248:64|230:55|208:53|187:59,1,146.249993305207,8|0,0:0|0:0,0:0:0:0:
210,128,190201,6,0,P|162:128|126:96,1,97.4999955368044,2|0,0:0|0:0,0:0:0:0:
92,207,190747,2,0,L|98:255,2,48.7499977684022,8|0|0,0:0|0:0|0:0,0:0:0:0:
196,308,191292,2,0,P|255:344|316:309,1,146.249993305207,2|0,0:0|0:0,0:0:0:0:
354,249,191837,6,0,B|354:235|358:221|369:212|369:212|349:206|349:207|373:187|375:149|360:118,1,146.249993305207,8|0,0:0|0:0,0:0:0:0:
304,77,192383,6,0,B|238:83|238:83|207:77,1,97.4999955368044,2|0,0:0|0:0,0:0:0:0:
78,104,192928,2,0,B|29:95,2,48.7499977684022,8|0|0,0:0|0:0|0:0,0:0:0:0:
181,193,193474,6,0,P|162:260|95:279,1,146.249993305207,2|0,0:0|0:0,0:0:0:0:
110,208,194019,6,0,P|128:140|195:121,1,146.249993305207,8|0,0:0|0:0,0:0:0:0:
258,154,194565,6,0,L|354:142,1,97.4999955368044,6|0,0:0|0:0,0:0:0:0:
336,266,195110,2,0,L|287:260,2,48.7499977684022,8|0|0,0:0|0:0|0:0,0:0:0:0:
454,197,195656,2,0,B|436:162|454:127|454:127|471:92|454:57,1,146.249993305207,2|0,0:0|0:0,0:0:0:0:
391,92,196201,6,0,B|360:82|320:89|296:109|296:109|286:96|273:85|253:78,1,146.249993305207,8|0,0:0|0:0,0:0:0:0:
236,149,196747,6,0,P|274:177|322:175,1,97.4999955368044,2|0,0:0|0:0,0:0:0:0:
194,224,197292,2,0,P|171:228|146:225,2,48.7499977684022,8|0|0,0:0|0:0|0:0,0:0:0:0:
296,106,197837,2,0,P|365:112|395:175,1,146.249993305207,2|0,0:0|0:0,0:0:0:0:
458,216,198383,6,0,P|388:222|358:285,1,146.249993305207,8|0,0:0|0:0,0:0:0:0:
407,336,198928,6,0,L|309:336,1,97.4999955368044,2|0,0:0|0:0,0:0:0:0:
150,272,199474,2,0,L|92:289,2,48.7499977684022,8|0|0,0:0|0:0|0:0,0:0:0:0:
262,194,200019,2,0,L|247:49,1,146.249993305207,2|0,0:0|0:0,0:0:0:0:
185,15,200565,6,0,P|135:35|119:136,1,146.249993305207,8|0,0:0|0:0,0:0:0:0:
163,170,201110,6,0,L|149:266,1,97.4999955368044,2|0,0:0|0:0,0:0:0:0:
268,190,201656,2,0,L|261:141,2,48.7499977684022,8|0|0,0:0|0:0|0:0,0:0:0:0:
377,271,202201,6,0,B|390:260|401:238|399:220|399:220|421:222|421:222|418:202|431:173|443:160,1,146.249993305207,2|0,0:0|0:0,0:0:0:0:
497,209,202747,6,0,B|521:180|519:140|499:115|499:115|510:95|510:95|501:88|498:77,1,146.249993305207,8|0,0:0|0:0,0:0:0:0:
256,192,203292,12,4,205474,0:0:0:0:
27,174,206019,6,0,L|82:164,1,56.2500021457673,8|0,0:0|0:0,0:0:0:0:
67,52,206292,2,0,L|122:61,1,56.2500021457673
159,167,206565,2,0,L|214:157,1,56.2500021457673,2|0,0:0|0:0,0:0:0:0:
199,45,206838,2,0,L|254:54,1,56.2500021457673
291,159,207110,2,0,L|346:149,1,56.2500021457673,8|0,0:0|0:0,0:0:0:0:
331,37,207383,2,0,L|386:46,1,56.2500021457673
458,133,207656,6,0,P|458:213|385:252,1,168.750006437302,6|0,0:0|0:0,0:0:0:0:
391,173,208201,5,8,0:0:0:0:
349,136,208337,1,0,0:0:0:0:
294,136,208473,1,0,0:0:0:0:
252,172,208610,1,0,0:0:0:0:
227,222,208747,6,0,P|222:249|225:277,1,56.2500021457673,2|0,0:0|0:0,0:0:0:0:
266,154,209019,2,0,P|270:126|267:98,1,56.2500021457673
211,217,209292,2,0,P|206:244|209:272,1,56.2500021457673,8|0,0:0|0:0,0:0:0:0:
250,149,209564,2,0,P|254:121|251:93,1,56.2500021457673
189,44,209837,6,0,B|150:51|125:40|125:40|99:64|99:64|79:50|54:46|33:51,1,168.750006437302,6|0,0:0|0:0,0:0:0:0:
47,129,210383,5,8,0:0:0:0:
49,185,210519,1,0,0:0:0:0:
51,241,210656,1,0,0:0:0:0:
54,297,210792,1,0,0:0:0:0:
86,342,210928,6,0,P|113:346|141:343,1,56.2500021457673,2|0,0:0|0:0,0:0:0:0:
217,259,211201,2,0,P|244:255|272:260,1,56.2500021457673
366,322,211474,2,0,L|371:377,1,56.2500021457673,8|0,0:0|0:0,0:0:0:0:
386,191,211747,2,0,L|392:247,1,56.2500021457673
422,72,212019,6,0,B|393:89|363:92|339:79|339:79|317:97|317:97|301:84|286:78|268:78,1,168.750006437302,6|0,0:0|0:0,0:0:0:0:
261,156,212565,5,8,0:0:0:0:
220,193,212701,1,0,0:0:0:0:
165,193,212837,1,0,0:0:0:0:
123,157,212974,1,0,0:0:0:0:
120,100,213110,6,0,L|127:44,1,56.2500021457673,2|0,0:0|0:0,0:0:0:0:
128,232,213383,2,0,L|136:177,1,56.2500021457673
130,104,213656,2,0,L|137:48,1,56.2500021457673,4|0,0:0|0:0,0:0:0:0:
138,236,213929,2,0,L|145:180,1,56.2500021457673
151,352,214201,6,0,B|192:345|192:345|275:358|275:358|316:352,1,168.750006437302,6|0,0:0|0:0,0:0:0:0:
396,351,214747,5,8,0:0:0:0:
441,320,214883,1,0,0:0:0:0:
456,267,215019,1,0,0:0:0:0:
432,217,215156,1,0,0:0:0:0:
377,203,215292,6,0,L|321:211,1,56.2500021457673,2|0,0:0|0:0,0:0:0:0:
505,165,215565,2,0,L|450:174,1,56.2500021457673
388,126,215837,2,0,L|332:119,1,56.2500021457673,8|0,0:0|0:0,0:0:0:0:
497,254,216110,2,0,L|441:247,1,56.2500021457673
459,98,216383,6,0,L|292:122,1,168.750006437302,6|0,0:0|0:0,0:0:0:0:
219,153,216928,5,8,0:0:0:0:
183,195,217064,1,0,0:0:0:0:
182,250,217200,1,0,0:0:0:0:
219,292,217337,1,0,0:0:0:0:
274,304,217474,6,0,P|301:300|327:288,1,56.2500021457673,2|0,0:0|0:0,0:0:0:0:
405,280,217747,2,0,P|432:282|458:293,1,56.2500021457673
267,199,218019,2,0,P|292:210|320:212,1,56.2500021457673,8|0,0:0|0:0,0:0:0:0:
399,205,218292,2,0,P|424:193|452:189,1,56.2500021457673
365,286,218565,6,0,L|353:117,1,168.750006437302,6|0,0:0|0:0,0:0:0:0:
314,49,219110,5,8,0:0:0:0:
259,53,219246,1,0,0:0:0:0:
219,91,219382,1,0,0:0:0:0:
216,147,219519,1,0,0:0:0:0:
247,193,219656,6,0,L|303:196,1,56.2500021457673,2|0,0:0|0:0,0:0:0:0:
117,220,219928,2,0,L|174:224,1,56.2500021457673
249,212,220201,2,0,L|305:215,1,56.2500021457673,8|0,0:0|0:0,0:0:0:0:
119,239,220473,2,0,L|175:242,1,56.2500021457673
374,270,220747,6,0,B|390:252|399:215|389:191|389:191|414:169|414:169|400:148|406:119,1,168.750006437302,6|0,0:0|0:0,0:0:0:0:
485,127,221292,5,8,0:0:0:0:
471,73,221428,1,0,0:0:0:0:
427,40,221564,1,0,0:0:0:0:
371,47,221701,1,0,0:0:0:0:
332,87,221837,6,0,B|281:140|285:223|338:293|338:293|289:253|204:289|212:353,1,393.750015020371,2|0,0:0|0:0,0:0:0:0:
290,354,222928,6,0,B|172:346|172:346|123:359,1,168.750006437302,6|0,0:0|0:0,0:0:0:0:
289,355,223474,6,0,B|274:300,1,56.2500021457673,8|0,0:0|0:0,0:0:0:0:
273,221,223747,2,0,B|258:166,1,56.2500021457673
167,101,224019,6,0,P|139:104|113:116,1,56.2500021457673,2|0,0:0|0:0,0:0:0:0:
57,171,224292,2,0,P|31:182|3:186,1,56.2500021457673
171,114,224565,2,0,P|143:117|117:129,1,56.2500021457673,8|0,0:0|0:0,0:0:0:0:
61,184,224838,2,0,P|35:195|7:199,1,56.2500021457673
185,43,225110,6,0,B|236:53|252:100|239:137|239:137|266:131|283:137,1,168.750006437302,6|0,0:0|0:0,0:0:0:0:
257,212,225656,6,0,P|229:216|201:211,1,56.2500021457673,8|0,0:0|0:0,0:0:0:0:
90,195,225928,2,0,P|62:190|34:194,1,56.2500021457673
171,114,226201,6,0,P|198:118|226:114,1,56.2500021457673,2|0,0:0|0:0,0:0:0:0:
301,138,226474,2,0,P|316:160|339:177,1,56.2500021457673
193,27,226747,2,0,P|218:38|246:42,1,56.2500021457673,8|0,0:0|0:0,0:0:0:0:
321,64,227019,2,0,P|342:82|368:92,1,56.2500021457673
458,133,227292,6,0,P|458:213|385:252,1,168.750006437302,6|0,0:0|0:0,0:0:0:0:
458,133,227837,6,0,L|460:76,1,56.2500021457673,8|0,0:0|0:0,0:0:0:0:
388,252,228110,2,0,L|390:308,1,56.2500021457673
335,136,228383,6,0,P|307:131|279:135,1,56.2500021457673,2|0,0:0|0:0,0:0:0:0:
194,208,228656,2,0,P|166:212|138:207,1,56.2500021457673
346,158,228928,2,0,P|321:146|293:143,1,56.2500021457673,8|0,0:0|0:0,0:0:0:0:
200,223,229201,2,0,P|174:234|146:236,1,56.2500021457673
225,106,229474,6,0,B|244:128|251:154|245:183|245:183|239:213|246:239|266:261,1,168.750006437302,6|0,0:0|0:0,0:0:0:0:
170,163,230019,6,0,L|114:156,1,56.2500021457673,8|0,0:0|0:0,0:0:0:0:
323,204,230292,2,0,L|378:210,1,56.2500021457673
225,106,230565,6,0,P|240:128|263:145,1,56.2500021457673,2|0,0:0|0:0,0:0:0:0:
267,262,230837,2,0,P|251:239|228:222,1,56.2500021457673
216,117,231110,2,0,P|237:135|263:145,1,56.2500021457673,8|0,0:0|0:0,0:0:0:0:
275,250,231383,2,0,P|253:231|227:221,1,56.2500021457673
171,319,231656,6,0,P|193:241|135:184,1,168.750006437302,6|0,0:0|0:0,0:0:0:0:
171,319,232201,6,0,L|227:314,1,56.2500021457673,8|0,0:0|0:0,0:0:0:0:
193,180,232474,2,0,L|136:184,1,56.2500021457673
248,237,232747,2,0,L|304:232,1,56.2500021457673,2|0,0:0|0:0,0:0:0:0:
270,98,233020,2,0,L|213:102,1,56.2500021457673
324,156,233292,2,0,L|380:151,1,56.2500021457673,8|0,0:0|0:0,0:0:0:0:
346,17,233565,2,0,L|289:21,1,56.2500021457673
213,102,233837,6,0,B|206:143|206:143|219:226|219:226|213:267,1,168.750006437302,6|0,0:0|0:0,0:0:0:0:
213,102,234383,6,0,B|157:92,1,56.2500021457673,8|0,0:0|0:0,0:0:0:0:
212,268,234656,2,0,B|267:277,1,56.2500021457673
198,110,234928,2,0,B|141:111,1,56.2500021457673,2|0,0:0|0:0,0:0:0:0:
199,259,235201,2,0,B|252:278,1,56.2500021457673
184,122,235474,2,0,B|129:132,1,56.2500021457673,8|0,0:0|0:0,0:0:0:0:
188,248,235747,2,0,B|237:276,1,56.2500021457673
272,362,236019,6,0,B|259:335|259:308|272:282|272:282|286:255|286:228|272:201,1,168.750006437302,6|0,0:0|0:0,0:0:0:0:
341,322,236565,6,0,P|369:327|397:323,1,56.2500021457673,8|0,0:0|0:0,0:0:0:0:
207,242,236837,2,0,P|178:236|150:240,1,56.2500021457673
304,339,237110,2,0,P|330:352|358:355,1,56.2500021457673,2|0,0:0|0:0,0:0:0:0:
195,227,237382,2,0,P|169:214|141:212,1,56.2500021457673
264,347,237656,2,0,P|286:366|312:376,1,56.2500021457673,8|0,0:0|0:0,0:0:0:0:
188,210,237928,2,0,P|166:191|140:181,1,56.2500021457673
311,375,238201,6,0,P|381:336|381:255,1,168.750006437302,6|0,0:0|0:0,0:0:0:0:
311,375,238747,6,0,L|255:368,1,56.2500021457673,8|0,0:0|0:0,0:0:0:0:
381,255,239019,2,0,L|436:248,1,56.2500021457673
320,89,239292,5,2,0:0:0:0:
256,192,239428,12,4,240383,0:0:0:0:
