osu file format v14

[General]
AudioFilename: Teminite & Panda Eyes - Highscore.mp3
AudioLeadIn: 0
PreviewTime: 95292
Countdown: 0
SampleSet: Soft
StackLeniency: 0.7
Mode: 0
LetterboxInBreaks: 0
WidescreenStoryboard: 0

[Editor]
Bookmarks: 4747,9110,26565,44019,61474,78928,96383,113837,133474,150928,168383,185837,205474,222928,240383
DistanceSpacing: 1.1
BeatDivisor: 16
GridSize: 4
TimelineZoom: 2.3

[Metadata]
Title:Highscore
TitleUnicode:Highscore
Artist:Panda Eyes & Teminite
ArtistUnicode:Panda Eyes & Teminite
Creator:Fort
Version:Hyper
Source:
Tags:LGV894 glitch hop 110 style Fxtra over 9000!!!
BeatmapID:736216
BeatmapSetID:332532

[Difficulty]
HPDrainRate:5
CircleSize:4
OverallDifficulty:5.5
ApproachRate:6.5
SliderMultiplier:1.5
SliderTickRate:1

[Events]
//Background and Video events
0,0,"BG.png",0,0
//Break Periods
2,9310,10317
2,11492,12499
2,13674,14681
2,15856,16862
2,96583,104135
2,186037,193590
2,203492,204499
//Storyboard Layer 0 (Background)
//Storyboard Layer 1 (Fail)
//Storyboard Layer 2 (Pass)
//Storyboard Layer 3 (Foreground)
//Storyboard Sound Samples

[TimingPoints]
4747,545.454545454546,4,2,2,100,1,0
9110,-100,4,2,2,70,0,0
9656,-100,4,2,2,25,0,0
11292,-100,4,2,2,70,0,0
11837,-100,4,2,2,40,0,0
13474,-100,4,2,2,70,0,0
14019,-100,4,2,2,50,0,0
15656,-100,4,2,2,80,0,0
17837,-100,4,2,2,80,0,0
26565,-100,4,2,3,100,0,0
28747,-100,4,2,2,100,0,0
35292,-100,4,2,3,100,0,0
35360,-100,4,2,2,100,0,0
43474,-100,4,2,1,100,0,0
44019,-76.9230769230769,4,2,30,100,0,1
44087,-76.9230769230769,4,2,1,100,0,1
44565,-76.9230769230769,4,2,1,100,0,0
52201,-76.9230769230769,4,2,20,100,0,0
52235,-76.9230769230769,4,2,1,100,0,0
60860,-76.9230769230769,4,2,2,100,0,0
60997,-76.9230769230769,4,2,1,100,0,0
61474,-76.9230769230769,4,2,1,100,0,0
78315,-76.9230769230769,4,2,20,100,0,0
78451,-76.9230769230769,4,2,1,100,0,0
78928,-76.9230769230769,4,2,1,100,0,0
96383,-76.9230769230769,4,2,30,50,0,0
96451,-76.9230769230769,4,2,1,100,0,0
113837,-76.9230769230769,4,2,30,100,0,1
113906,-76.9230769230769,4,2,1,100,0,1
121951,-76.9230769230769,4,2,20,100,0,1
122087,-76.9230769230769,4,2,1,100,0,1
122292,-76.9230769230769,4,2,4,100,0,1
122326,-76.9230769230769,4,2,1,100,0,1
122565,-76.9230769230769,4,2,30,100,0,1
122633,-76.9230769230769,4,2,1,100,0,1
129110,-76.9230769230769,4,2,2,100,0,0
133474,-76.9230769230769,4,2,30,100,0,1
133542,-76.9230769230769,4,2,1,100,0,1
137837,-76.9230769230769,4,2,30,100,0,1
137872,-76.9230769230769,4,2,1,100,0,1
142201,-76.9230769230769,4,2,30,100,0,1
142235,-76.9230769230769,4,2,1,100,0,1
146565,-76.9230769230769,4,2,30,100,0,1
146599,-76.9230769230769,4,2,1,100,0,1
149837,-76.9230769230769,4,2,1,100,0,1
150383,-76.9230769230769,4,2,1,100,0,1
150928,-76.9230769230769,4,2,1,100,0,0
153383,-76.9230769230769,4,2,4,100,0,1
153417,-76.9230769230769,4,2,1,100,0,1
155019,-76.9230769230769,4,2,1,100,0,0
157747,-76.9230769230769,4,2,4,100,0,1
157781,-76.9230769230769,4,2,1,100,0,1
159110,-76.9230769230769,4,2,20,100,0,1
159144,-76.9230769230769,4,2,1,100,0,1
159383,-76.9230769230769,4,2,1,100,0,0
159928,-76.9230769230769,4,2,4,70,0,0
159962,-76.9230769230769,4,2,1,100,0,0
160474,-76.9230769230769,4,2,4,70,0,0
160508,-76.9230769230769,4,2,1,100,0,0
161019,-76.9230769230769,4,2,4,70,0,0
161053,-76.9230769230769,4,2,1,100,0,0
161565,-76.9230769230769,4,2,4,70,0,0
161599,-76.9230769230769,4,2,1,100,0,0
162110,-76.9230769230769,4,2,4,70,0,1
162144,-76.9230769230769,4,2,1,100,0,1
162656,-76.9230769230769,4,2,4,70,0,1
162690,-76.9230769230769,4,2,1,100,0,1
163201,-76.9230769230769,4,2,4,70,0,1
163235,-76.9230769230769,4,2,1,100,0,1
163747,-76.9230769230769,4,2,4,70,0,0
163781,-76.9230769230769,4,2,1,100,0,0
164292,-76.9230769230769,4,2,4,70,0,0
164326,-76.9230769230769,4,2,1,100,0,0
164837,-76.9230769230769,4,2,4,70,0,0
164872,-76.9230769230769,4,2,1,100,0,0
165383,-76.9230769230769,4,2,4,70,0,0
165417,-76.9230769230769,4,2,1,100,0,0
165928,-76.9230769230769,4,2,4,70,0,0
165962,-76.9230769230769,4,2,1,100,0,0
166474,-76.9230769230769,4,2,4,70,0,1
166508,-76.9230769230769,4,2,1,100,0,1
167019,-76.9230769230769,4,2,4,70,0,1
167053,-76.9230769230769,4,2,1,100,0,1
167565,-76.9230769230769,4,2,4,70,0,1
167599,-76.9230769230769,4,2,1,100,0,1
167837,-76.9230769230769,4,2,20,100,0,1
167872,-76.9230769230769,4,2,1,100,0,1
168110,-76.9230769230769,4,2,4,70,0,0
168144,-76.9230769230769,4,2,1,100,0,0
168383,-76.9230769230769,4,2,1,100,0,1
176565,-76.9230769230769,4,2,20,100,0,1
176599,-76.9230769230769,4,2,1,100,0,1
177383,-76.9230769230769,4,2,4,70,0,1
177417,-76.9230769230769,4,2,1,100,0,1
177928,-76.9230769230769,4,2,4,70,0,1
177962,-76.9230769230769,4,2,1,100,0,1
178474,-76.9230769230769,4,2,4,70,0,1
178508,-76.9230769230769,4,2,1,100,0,1
179019,-76.9230769230769,4,2,4,70,0,1
179053,-76.9230769230769,4,2,1,100,0,1
179565,-76.9230769230769,4,2,4,70,0,1
179599,-76.9230769230769,4,2,1,100,0,1
180110,-76.9230769230769,4,2,4,70,0,1
180144,-76.9230769230769,4,2,1,100,0,1
180656,-76.9230769230769,4,2,4,70,0,1
180690,-76.9230769230769,4,2,1,100,0,1
181201,-76.9230769230769,4,2,4,70,0,1
181235,-76.9230769230769,4,2,1,100,0,1
181747,-76.9230769230769,4,2,4,70,0,1
181781,-76.9230769230769,4,2,1,100,0,1
182292,-76.9230769230769,4,2,4,70,0,1
182326,-76.9230769230769,4,2,1,100,0,1
182837,-76.9230769230769,4,2,4,70,0,1
182872,-76.9230769230769,4,2,1,100,0,1
183383,-76.9230769230769,4,2,4,70,0,1
183417,-76.9230769230769,4,2,1,100,0,1
183928,-76.9230769230769,4,2,4,70,0,1
183962,-76.9230769230769,4,2,1,100,0,1
184474,-76.9230769230769,4,2,4,70,0,1
184508,-76.9230769230769,4,2,1,100,0,1
185019,-76.9230769230769,4,2,4,70,0,1
185053,-76.9230769230769,4,2,1,100,0,1
185565,-76.9230769230769,4,2,4,70,0,1
185599,-76.9230769230769,4,2,1,100,0,1
185837,-76.9230769230769,4,2,2,100,0,0
185872,-76.9230769230769,4,2,1,100,0,0
203292,-76.9230769230769,4,2,1,100,0,0
205474,-76.9230769230769,4,2,1,100,0,0
222928,-76.9230769230769,4,2,1,100,0,0
240383,-76.9230769230769,4,2,1,100,0,0

[Colours]
Combo1 : 241,79,10
Combo2 : 153,203,253
Combo3 : 54,115,228
Combo4 : 98,46,207
Combo5 : 227,149,43
Combo6 : 37,203,33
Combo7 : 16,190,182
Combo8 : 255,0,0

[HitObjects]
144,328,9110,5,4,0:0:0:0:
144,328,11292,5,4,0:0:0:0:
144,328,13474,5,4,0:0:0:0:
144,328,15656,5,4,0:0:0:0:
144,328,17837,6,0,B|136:288|136:288|141:255|141:255|128:172,1,150,4|0,0:0|0:0,0:0:0:0:
144,16,18928,1,0,0:0:0:0:
236,152,19474,1,0,0:0:0:0:
232,164,20019,6,0,B|240:200|240:200|240:236|240:236|260:316,1,150,4|0,0:0|0:0,0:0:0:0:
404,232,21110,1,0,0:0:0:0:
292,352,21656,1,0,0:0:0:0:
440,324,22201,6,0,P|472:312|496:208,1,150,4|0,0:0|0:0,0:0:0:0:
512,44,23292,1,0,0:0:0:0:
376,136,23837,1,0,0:0:0:0:
224,76,24383,6,0,P|192:72|120:156,1,150,4|0,0:0|0:0,0:0:0:0:
240,264,25474,1,0,0:0:0:0:
400,232,26019,1,0,0:0:0:0:
296,104,26565,6,0,P|252:88|152:120,1,150,4|0,0:0|0:0,0:0:0:0:
124,184,27383,1,0,0:0:0:0:
140,256,27656,2,0,P|176:264|216:260,1,75,0|0,0:0|0:0,0:0:0:0:
276,300,28201,2,0,P|316:260|356:252,2,75,0|0|4,0:0|0:0|0:0,0:0:0:0:
416,152,29292,5,0,0:0:0:0:
416,152,29565,2,0,L|408:88,2,37.5,0|0|0,0:0|0:0|0:0,0:0:0:0:
416,228,30110,1,0,0:0:0:0:
464,284,30383,2,0,P|460:336|456:360,2,75,0|0|4,0:0|0:0|0:0,0:0:0:0:
224,356,31474,5,0,0:0:0:0:
224,356,31747,2,0,L|176:352,2,37.5,0|0|0,0:0|0:0|0:0,0:0:0:0:
288,312,32292,1,0,0:0:0:0:
272,240,32565,2,0,L|252:156,1,75,0|0,0:0|0:0,0:0:0:0:
228,96,33110,1,4,0:0:0:0:
360,20,33656,5,0,0:0:0:0:
360,20,33928,2,0,L|352:80,2,37.5,0|0|0,0:0|0:0|0:0,0:0:0:0:
424,112,34474,1,0,0:0:0:0:
408,224,34747,2,0,L|320:220,1,75,4|0,0:0|0:0,0:0:0:0:
272,264,35292,6,0,P|284:232|236:128,1,150,6|0,0:0|0:0,0:0:0:0:
76,108,36383,1,0,0:0:0:0:
80,272,36928,1,0,0:0:0:0:
224,356,37474,6,0,P|264:364|368:336,1,150,4|0,0:0|0:0,0:0:0:0:
400,176,38565,1,0,0:0:0:0:
276,68,39110,1,0,0:0:0:0:
436,100,39656,6,0,P|472:132|464:228,1,150,4|0,0:0|0:0,0:0:0:0:
304,188,40747,1,0,0:0:0:0:
228,336,41292,1,0,0:0:0:0:
88,280,41837,6,0,P|80:252|104:136,1,150,4|0,0:0|0:0,0:0:0:0:
264,100,42928,1,0,0:0:0:0:
264,100,43474,1,4,0:0:0:0:
28,44,44019,6,0,P|80:60|140:32,1,97.4999955368044,6|0,0:0|0:0,0:0:0:0:
180,136,44565,1,8,0:0:0:0:
264,68,44837,2,0,L|272:16,2,48.7499977684022,0|0|2,0:0|0:0|0:0,0:0:0:0:
336,148,45383,1,0,0:0:0:0:
464,136,45656,2,0,P|472:175|470:238,1,97.4999955368044,8|0,0:0|0:0,0:0:0:0:
420,328,46201,6,0,L|324:312,1,97.4999955368044,6|0,0:0|0:0,0:0:0:0:
220,344,46747,2,0,L|160:328,1,48.7499977684022,8|0,0:0|0:0,0:0:0:0:
148,284,47019,2,0,P|160:236|156:216,1,48.7499977684022,0|0,0:0|0:0,0:0:0:0:
152,184,47292,1,2,0:0:0:0:
44,168,47565,1,0,0:0:0:0:
44,168,47701,1,0,0:0:0:0:
44,168,47837,1,8,0:0:0:0:
84,68,48110,1,0,0:0:0:0:
192,52,48383,6,0,L|312:68,1,97.4999955368044,6|0,0:0|0:0,0:0:0:0:
368,136,48928,1,8,0:0:0:0:
292,200,49201,2,0,L|240:180,2,48.7499977684022,0|0|2,0:0|0:0|0:0,0:0:0:0:
396,232,49747,1,0,0:0:0:0:
304,284,50019,2,0,P|300:316|304:380,1,97.4999955368044,8|0,0:0|0:0,0:0:0:0:
180,244,50565,6,0,P|144:208|96:188,1,97.4999955368044,6|0,0:0|0:0,0:0:0:0:
28,112,51110,2,0,P|44:96|52:68,1,48.7499977684022
104,56,51383,2,0,P|96:28|96:0,2,48.7499977684022,0|0|2,0:0|0:0|0:0,0:0:0:0:
190,119,51928,1,0,0:0:0:0:
241,103,52065,1,0,0:0:0:0:
262,58,52201,2,0,L|254:10,2,48.7499977684022,4|0|0,0:0|0:0|0:0,0:0:0:0:
365,137,52747,6,0,L|473:141,1,97.4999955368044,6|0,0:0|0:0,0:0:0:0:
344,296,53292,2,0,L|232:284,1,97.4999955368044,8|0,0:0|0:0,0:0:0:0:
164,356,53837,1,2,0:0:0:0:
32,244,54110,1,0,0:0:0:0:
32,244,54247,1,0,0:0:0:0:
32,244,54383,2,0,P|16:176|8:120,1,97.4999955368044,8|0,0:0|0:0,0:0:0:0:
32,100,54792,1,0,0:0:0:0:
68,60,54928,6,0,L|196:72,1,97.4999955368044,6|0,0:0|0:0,0:0:0:0:
244,144,55474,1,8,0:0:0:0:
344,108,55747,2,0,L|352:44,2,48.7499977684022,0|0|2,0:0|0:0|0:0,0:0:0:0:
380,208,56292,1,0,0:0:0:0:
380,208,56428,1,0,0:0:0:0:
380,208,56565,2,0,P|332:220|280:280,1,97.4999955368044,8|0,0:0|0:0,0:0:0:0:
276,300,56974,1,0,0:0:0:0:
268,352,57110,6,0,L|152:344,1,97.4999955368044,6|0,0:0|0:0,0:0:0:0:
112,256,57656,2,0,L|136:152,1,97.4999955368044,8|0,0:0|0:0,0:0:0:0:
128,108,58065,1,0,0:0:0:0:
128,108,58201,1,2,0:0:0:0:
196,28,58474,1,0,0:0:0:0:
304,40,58747,1,8,0:0:0:0:
388,108,59019,1,0,0:0:0:0:
412,212,59292,6,0,L|392:312,1,97.4999955368044,6|0,0:0|0:0,0:0:0:0:
348,336,59701,1,0,0:0:0:0:
300,356,59837,1,8,0:0:0:0:
248,264,60110,2,0,L|192:256,2,48.7499977684022,0|0|2,0:0|0:0|0:0,0:0:0:0:
256,168,61474,6,0,B|145:144|145:144|64:156,1,194.999991073609,6|8,0:0|0:0,0:0:0:0:
80,48,62292,1,0,0:0:0:0:
124,224,62565,1,2,0:0:0:0:
68,312,62837,1,0,0:0:0:0:
164,360,63110,2,0,L|300:344,1,97.4999955368044,8|0,0:0|0:0,0:0:0:0:
312,360,63519,1,0,0:0:0:0:
364,368,63656,6,0,B|384:324|384:324|392:244|392:244|424:184,1,194.999991073609,6|8,0:0|0:0,0:0:0:0:
480,276,64474,1,0,0:0:0:0:
320,172,64747,1,2,0:0:0:0:
300,68,65019,1,0,0:0:0:0:
144,80,65292,2,0,L|168:216,1,97.4999955368044,8|0,0:0|0:0,0:0:0:0:
152,228,65701,1,0,0:0:0:0:
124,272,65837,6,0,L|16:264,1,97.4999955368044,6|0,0:0|0:0,0:0:0:0:
188,352,66383,1,8,0:0:0:0:
280,272,66656,1,0,0:0:0:0:
384,336,66928,2,0,P|400:288|396:240,1,97.4999955368044,2|0,0:0|0:0,0:0:0:0:
436,140,67474,1,8,0:0:0:0:
380,48,67747,1,0,0:0:0:0:
380,48,67883,1,0,0:0:0:0:
380,48,68019,6,0,L|256:40,1,97.4999955368044,6|0,0:0|0:0,0:0:0:0:
96,128,68565,2,0,L|220:120,1,97.4999955368044,8|0,0:0|0:0,0:0:0:0:
368,216,69110,2,0,L|244:208,1,97.4999955368044,2|0,0:0|0:0,0:0:0:0:
96,288,69656,2,0,L|220:280,1,97.4999955368044,8|0,0:0|0:0,0:0:0:0:
232,320,70065,1,0,0:0:0:0:
272,356,70201,6,0,L|384:348,1,97.4999955368044,6|0,0:0|0:0,0:0:0:0:
476,336,70747,1,8,0:0:0:0:
328,232,71019,1,0,0:0:0:0:
456,148,71292,2,0,P|456:96|448:48,1,97.4999955368044,2|0,0:0|0:0,0:0:0:0:
280,24,71837,6,0,P|256:48|248:72,1,48.7499977684022
180,112,72110,2,0,P|188:132|204:164,1,48.7499977684022
260,216,72383,6,0,L|256:336,1,97.4999955368044,6|0,0:0|0:0,0:0:0:0:
148,320,72928,1,8,0:0:0:0:
365,247,73201,1,0,0:0:0:0:
120,180,73474,2,0,P|92:168|16:164,1,97.4999955368044,2|0,0:0|0:0,0:0:0:0:
148,36,74019,6,0,P|164:52|172:80,1,48.7499977684022
208,156,74292,2,0,P|212:188|228:208,1,48.7499977684022
292,160,74565,6,0,B|340:148|340:148|416:160,1,97.4999955368044,6|0,0:0|0:0,0:0:0:0:
476,216,75110,1,8,0:0:0:0:
248,240,75383,1,0,0:0:0:0:
248,87,75656,2,0,P|241:43|206:5,1,97.4999955368044,2|0,0:0|0:0,0:0:0:0:
100,132,76201,6,0,P|108:156|108:180,1,48.7499977684022
44,240,76474,2,0,P|36:264|36:288,1,48.7499977684022
116,324,76747,6,0,B|188:308|188:308|232:312,1,97.4999955368044,6|0,0:0|0:0,0:0:0:0:
316,340,77292,2,0,P|348:336|380:264,1,97.4999955368044,8|0,0:0|0:0,0:0:0:0:
364,180,77837,2,0,P|352:120|360:64,2,97.4999955368044,2|0|4,0:0|0:0|0:0,0:0:0:0:
464,220,78656,1,0,0:0:0:0:
464,220,78792,1,0,0:0:0:0:
464,220,78928,6,0,P|476:160|472:96,1,97.4999955368044,6|0,0:0|0:0,0:0:0:0:
428,28,79474,1,8,0:0:0:0:
360,108,79747,1,0,0:0:0:0:
276,40,80019,2,0,L|168:28,1,97.4999955368044,2|0,0:0|0:0,0:0:0:0:
88,88,80565,1,8,0:0:0:0:
104,268,81110,6,0,L|228:260,1,97.4999955368044,6|0,0:0|0:0,0:0:0:0:
284,332,81656,1,8,0:0:0:0:
244,168,81928,1,0,0:0:0:0:
348,276,82201,2,0,P|376:284|444:268,1,97.4999955368044,2|0,0:0|0:0,0:0:0:0:
504,180,82747,1,8,0:0:0:0:
368,48,83292,6,0,L|250:62,1,97.4999955368044,6|0,0:0|0:0,0:0:0:0:
180,112,83837,2,0,P|100:112|24:76,2,146.249993305207,8|0|0,0:0|0:0|0:0,0:0:0:0:
216,212,84928,1,8,0:0:0:0:
160,304,85201,1,0,0:0:0:0:
52,333,85474,6,0,L|32:237,1,97.4999955368044,6|0,0:0|0:0,0:0:0:0:
140,128,86019,2,0,L|120:224,1,97.4999955368044,8|0,0:0|0:0,0:0:0:0:
200,356,86565,2,0,L|220:260,1,97.4999955368044,2|0,0:0|0:0,0:0:0:0:
319,220,87110,1,8,0:0:0:0:
403,285,87383,1,0,0:0:0:0:
488,220,87656,6,0,P|496:168|464:96,1,97.4999955368044,6|0,0:0|0:0,0:0:0:0:
408,52,88201,1,8,0:0:0:0:
316,104,88474,1,0,0:0:0:0:
220,60,88747,2,0,P|212:104|228:164,1,97.4999955368044,2|0,0:0|0:0,0:0:0:0:
268,252,89292,1,8,0:0:0:0:
64,184,89837,6,0,L|76:284,1,97.4999955368044,6|0,0:0|0:0,0:0:0:0:
148,360,90383,1,8,0:0:0:0:
0,304,90656,1,0,0:0:0:0:
192,292,90928,2,0,B|216:308|224:328|224:328|248:320|276:332,1,97.4999955368044,2|0,0:0|0:0,0:0:0:0:
376,300,91474,1,8,0:0:0:0:
288,180,91747,1,0,0:0:0:0:
288,180,91883,1,0,0:0:0:0:
288,180,92019,6,0,L|156:152,1,97.4999955368044,6|0,0:0|0:0,0:0:0:0:
92,196,92565,2,0,L|72:92,1,97.4999955368044,8|0,0:0|0:0,0:0:0:0:
136,12,93110,1,2,0:0:0:0:
200,100,93383,1,0,0:0:0:0:
284,28,93656,2,0,P|288:56|316:128,1,97.4999955368044,8|0,0:0|0:0,0:0:0:0:
360,148,94065,1,0,0:0:0:0:
396,184,94201,6,0,L|376:280,1,97.4999955368044,6|0,0:0|0:0,0:0:0:0:
284,224,94747,2,0,L|264:320,1,97.4999955368044,8|0,0:0|0:0,0:0:0:0:
265,320,95156,1,0,0:0:0:0:
265,320,95292,5,2,0:0:0:0:
364,364,95565,1,0,0:0:0:0:
468,340,95837,1,0,0:0:0:0:
512,244,96110,1,0,0:0:0:0:
480,140,96383,5,4,0:0:0:0:
92,136,105110,6,0,P|140:160|204:144,1,97.4999955368044,6|0,0:0|0:0,0:0:0:0:
260,232,105656,2,0,P|288:224|360:236,1,97.4999955368044,8|0,0:0|0:0,0:0:0:0:
460,248,106201,2,0,L|440:352,2,97.4999955368044,2|0|8,0:0|0:0|0:0,0:0:0:0:
452,36,107292,5,6,0:0:0:0:
360,96,107565,1,0,0:0:0:0:
252,88,107837,2,0,L|156:64,1,97.4999955368044,8|0,0:0|0:0,0:0:0:0:
64,184,108383,2,0,L|160:160,1,97.4999955368044,2|0,0:0|0:0,0:0:0:0:
260,196,108928,1,8,0:0:0:0:
132,368,109474,6,0,L|32:352,2,97.4999955368044,6|0|8,0:0|0:0|0:0,0:0:0:0:
216,300,110292,1,0,0:0:0:0:
316,344,110565,2,0,L|424:332,1,97.4999955368044,2|0,0:0|0:0,0:0:0:0:
484,252,111110,2,0,P|488:188|476:144,1,97.4999955368044,8|0,0:0|0:0,0:0:0:0:
260,72,111656,5,6,0:0:0:0:
368,184,111928,1,0,0:0:0:0:
180,128,112201,1,8,0:0:0:0:
372,88,112474,1,0,0:0:0:0:
248,208,112747,1,2,0:0:0:0:
248,52,113019,1,0,0:0:0:0:
276,192,113292,2,0,L|256:316,1,97.4999955368044,8|0,0:0|0:0,0:0:0:0:
176,356,113837,6,0,P|148:324|80:320,1,97.4999955368044,6|0,0:0|0:0,0:0:0:0:
32,228,114383,1,8,0:0:0:0:
96,144,114656,2,0,P|124:180|124:192,2,48.7499977684022,0|0|2,0:0|0:0|0:0,0:0:0:0:
144,48,115201,1,0,0:0:0:0:
252,52,115474,2,0,L|372:44,1,97.4999955368044,8|0,0:0|0:0,0:0:0:0:
400,64,115883,1,0,0:0:0:0:
448,44,116019,6,0,L|460:160,1,97.4999955368044,6|0,0:0|0:0,0:0:0:0:
352,152,116565,2,0,L|364:268,1,97.4999955368044,8|0,0:0|0:0,0:0:0:0:
392,292,116974,1,0,0:0:0:0:
392,292,117110,2,0,P|316:288|288:296,1,97.4999955368044,2|0,0:0|0:0,0:0:0:0:
252,196,117656,1,8,0:0:0:0:
112,360,117928,1,0,0:0:0:0:
40,276,118201,6,0,P|32:224|56:76,1,194.999991073609,6|8,0:0|0:0,0:0:0:0:
152,44,119019,1,0,0:0:0:0:
152,44,119292,2,0,P|172:56|212:120,1,97.4999955368044,2|0,0:0|0:0,0:0:0:0:
208,224,119837,2,0,P|208:260|224:324,1,97.4999955368044,8|0,0:0|0:0,0:0:0:0:
340,140,120383,6,0,L|440:124,2,97.4999955368044,6|0|8,0:0|0:0|0:0,0:0:0:0:
340,336,121201,1,0,0:0:0:0:
340,336,121337,1,0,0:0:0:0:
340,336,121474,2,0,L|220:328,1,97.4999955368044,2|0,0:0|0:0,0:0:0:0:
196,352,121883,1,0,0:0:0:0:
144,364,122019,2,0,P|128:296|128:248,1,97.4999955368044,4|2,0:0|0:0,0:0:0:0:
84,168,122565,6,0,P|140:184|208:160,2,97.4999955368044,6|0|8,0:0|0:0|0:0,0:0:0:0:
32,76,123383,1,0,0:0:0:0:
116,8,123656,2,0,L|220:24,1,97.4999955368044,2|0,0:0|0:0,0:0:0:0:
408,100,124201,2,0,L|296:112,1,97.4999955368044,8|0,0:0|0:0,0:0:0:0:
248,200,124747,6,0,P|245:258|254:318,1,97.4999955368044,6|0,0:0|0:0,0:0:0:0:
208,128,125292,1,8,0:0:0:0:
124,252,125565,1,0,0:0:0:0:
12,156,125837,2,0,P|8:104|20:48,1,97.4999955368044,2|0,0:0|0:0,0:0:0:0:
36,256,126383,1,8,0:0:0:0:
104,96,126656,1,0,0:0:0:0:
136,272,126928,6,0,L|252:280,1,97.4999955368044,6|0,0:0|0:0,0:0:0:0:
336,312,127474,2,0,P|352:252|344:200,2,97.4999955368044,8|0|2,0:0|0:0|0:0,0:0:0:0:
432,356,128292,1,0,0:0:0:0:
488,264,128565,2,0,L|472:160,1,97.4999955368044,8|0,0:0|0:0,0:0:0:0:
436,68,129110,6,0,P|376:96|252:40,1,194.999991073609,6|2,0:0|0:0,0:0:0:0:
76,164,130201,2,0,P|136:136|260:192,1,194.999991073609,2|2,0:0|0:0,0:0:0:0:
404,328,131292,2,0,L|268:344,2,97.4999955368044,2|0|2,0:0|0:0|0:0,0:0:0:0:
456,232,132110,1,0,0:0:0:0:
440,124,132383,2,0,L|336:112,1,97.4999955368044,2|0,0:0|0:0,0:0:0:0:
240,140,132928,2,0,L|264:264,1,97.4999955368044,4|0,0:0|0:0,0:0:0:0:
236,284,133337,1,0,0:0:0:0:
196,320,133474,6,0,L|84:312,1,97.4999955368044,6|0,0:0|0:0,0:0:0:0:
48,220,134019,2,0,P|44:164|52:104,1,97.4999955368044,8|0,0:0|0:0,0:0:0:0:
76,76,134428,1,0,0:0:0:0:
76,76,134565,1,2,0:0:0:0:
272,152,134837,1,0,0:0:0:0:
128,176,135110,1,8,0:0:0:0:
196,20,135383,1,0,0:0:0:0:
372,120,135656,6,0,L|356:228,1,97.4999955368044,6|0,0:0|0:0,0:0:0:0:
332,320,136201,1,8,0:0:0:0:
224,220,136474,1,0,0:0:0:0:
224,220,136610,1,0,0:0:0:0:
224,220,136747,1,2,0:0:0:0:
180,308,137019,1,0,0:0:0:0:
192,120,137292,1,8,0:0:0:0:
324,228,137565,1,0,0:0:0:0:
196,336,137837,6,0,L|80:320,1,97.4999955368044,6|0,0:0|0:0,0:0:0:0:
40,220,138383,1,8,0:0:0:0:
136,152,138656,2,0,P|112:132|104:108,1,48.7499977684022
176,88,138928,2,0,L|280:96,1,97.4999955368044,2|0,0:0|0:0,0:0:0:0:
400,200,139474,1,8,0:0:0:0:
256,276,139747,1,0,0:0:0:0:
408,340,140019,6,0,L|512:328,1,97.4999955368044,6|0,0:0|0:0,0:0:0:0:
324,304,140565,2,0,P|320:284|320:248,1,48.7499977684022
244,200,140837,2,0,P|240:220|236:256,1,48.7499977684022
228,336,141110,1,0,0:0:0:0:
140,276,141383,1,0,0:0:0:0:
108,172,141656,1,8,0:0:0:0:
156,76,141929,1,0,0:0:0:0:
252,28,142201,6,0,L|372:40,1,97.4999955368044,6|0,0:0|0:0,0:0:0:0:
349,37,142610,1,0,0:0:0:0:
349,37,142747,1,8,0:0:0:0:
316,204,143019,2,0,P|324:224|324:256,1,48.7499977684022
240,240,143292,2,0,P|228:192|232:136,1,97.4999955368044,2|0,0:0|0:0,0:0:0:0:
124,156,143837,1,0,0:0:0:0:
108,264,144110,2,0,P|104:292|88:316,1,48.7499977684022
29,260,144383,6,0,P|20:192|24:156,1,97.4999955368044,6|0,0:0|0:0,0:0:0:0:
140,32,144928,1,8,0:0:0:0:
140,32,145201,2,0,P|148:48|144:80,1,48.7499977684022
228,96,145474,2,0,P|224:120|188:192,1,97.4999955368044,2|0,0:0|0:0,0:0:0:0:
352,132,146019,2,0,P|356:156|392:228,1,97.4999955368044,8|0,0:0|0:0,0:0:0:0:
424,260,146428,1,0,0:0:0:0:
400,308,146565,6,0,L|288:288,1,97.4999955368044,6|0,0:0|0:0,0:0:0:0:
208,336,147110,1,8,0:0:0:0:
184,164,147383,1,0,0:0:0:0:
116,312,147656,2,0,L|16:296,1,97.4999955368044,2|0,0:0|0:0,0:0:0:0:
184,164,148201,2,0,L|284:148,1,97.4999955368044,8|0,0:0|0:0,0:0:0:0:
372,248,148747,6,0,P|336:288|268:288,1,97.4999955368044,6|0,0:0|0:0,0:0:0:0:
188,296,149292,2,0,P|128:280|80:296,1,97.4999955368044,8|0,0:0|0:0,0:0:0:0:
16,216,149837,2,0,L|32:108,1,97.4999955368044,2|0,0:0|0:0,0:0:0:0:
100,36,150383,1,0,0:0:0:0:
119,57,150519,1,0,0:0:0:0:
147,64,150656,1,0,0:0:0:0:
174,55,150792,1,0,0:0:0:0:
201,45,150928,6,0,L|309:61,1,97.4999955368044,6|0,0:0|0:0,0:0:0:0:
404,80,151474,1,8,0:0:0:0:
444,180,151747,2,0,L|456:232,2,48.7499977684022,0|0|2,0:0|0:0|0:0,0:0:0:0:
396,348,152292,1,0,0:0:0:0:
324,268,152565,2,0,L|336:156,1,97.4999955368044,8|0,0:0|0:0,0:0:0:0:
252,344,153110,6,0,P|200:316|140:332,1,97.4999955368044,6|0,0:0|0:0,0:0:0:0:
112,336,153519,1,0,0:0:0:0:
112,336,153656,1,8,0:0:0:0:
76,236,153928,1,0,0:0:0:0:
120,136,154201,2,0,P|124:96|104:40,1,97.4999955368044,2|0,0:0|0:0,0:0:0:0:
148,8,154610,1,0,0:0:0:0:
200,12,154747,2,0,L|328:32,1,97.4999955368044,8|0,0:0|0:0,0:0:0:0:
428,96,155292,6,0,P|432:160|412:232,1,97.4999955368044,6|0,0:0|0:0,0:0:0:0:
384,292,155837,1,8,0:0:0:0:
288,340,156110,2,0,P|264:348|236:348,2,48.7499977684022,0|0|2,0:0|0:0|0:0,0:0:0:0:
108,200,156656,1,0,0:0:0:0:
212,228,156928,2,0,P|208:168|188:132,1,97.4999955368044,8|0,0:0|0:0,0:0:0:0:
104,72,157474,5,6,0:0:0:0:
208,44,157747,2,0,L|284:56,2,48.7499977684022,0|0|8,0:0|0:0|0:0,0:0:0:0:
412,20,158292,1,0,0:0:0:0:
344,124,158565,2,0,P|344:168|372:224,1,97.4999955368044,2|0,0:0|0:0,0:0:0:0:
444,288,159110,1,4,0:0:0:0:
164,360,159656,6,0,L|152:236,1,97.4999955368044,6|8,0:0|0:0,0:0:0:0:
52,232,160201,1,8,0:0:0:0:
60,124,160474,1,8,0:0:0:0:
140,52,160747,1,2,0:0:0:0:
248,60,161019,1,8,0:0:0:0:
336,120,161292,2,0,L|468:104,1,97.4999955368044,8|8,0:0|0:0,0:0:0:0:
452,216,161837,6,0,L|352:228,1,97.4999955368044,6|0,0:0|0:0,0:0:0:0:
316,264,162247,1,0,0:0:0:0:
300,316,162383,1,8,0:0:0:0:
212,256,162656,1,0,0:0:0:0:
148,344,162928,2,0,L|88:352,2,48.7499977684022,2|0|0,0:0|0:0|0:0,0:0:0:0:
112,244,163474,1,8,0:0:0:0:
144,140,163747,1,0,0:0:0:0:
36,148,164019,6,0,L|24:48,1,97.4999955368044,6|8,0:0|0:0,0:0:0:0:
144,140,164565,2,0,L|152:36,1,97.4999955368044,8|8,0:0|0:0,0:0:0:0:
240,180,165110,2,0,L|272:76,1,97.4999955368044,2|8,0:0|0:0,0:0:0:0:
312,248,165656,2,0,L|360:148,1,97.4999955368044,8|8,0:0|0:0,0:0:0:0:
420,76,166201,5,6,0:0:0:0:
456,176,166474,1,0,0:0:0:0:
428,280,166747,1,8,0:0:0:0:
344,348,167019,2,0,L|232:336,1,97.4999955368044,0|2,0:0|0:0,0:0:0:0:
152,288,167565,2,0,L|80:300,2,48.7499977684022,0|0|4,0:0|0:0|0:0,0:0:0:0:
176,184,168110,1,0,0:0:0:0:
140,84,168383,6,0,L|20:72,2,97.4999955368044,4|0|8,0:0|0:0|0:0,0:0:0:0:
248,92,169201,2,0,P|252:64|244:40,2,48.7499977684022,0|0|2,0:0|0:0|0:0,0:0:0:0:
308,180,169747,1,0,0:0:0:0:
380,100,170019,2,0,L|492:100,1,97.4999955368044,8|0,0:0|0:0,0:0:0:0:
416,288,170565,6,0,L|304:288,1,97.4999955368044,6|0,0:0|0:0,0:0:0:0:
276,324,170974,1,0,0:0:0:0:
232,352,171110,2,0,L|136:332,1,97.4999955368044,8|0,0:0|0:0,0:0:0:0:
84,348,171519,1,0,0:0:0:0:
44,312,171656,2,0,L|36:232,2,48.7499977684022,2|0|0,0:0|0:0|0:0,0:0:0:0:
100,160,172201,1,8,0:0:0:0:
184,224,172474,1,0,0:0:0:0:
280,180,172747,6,0,P|304:136|312:88,2,97.4999955368044,6|0|8,0:0|0:0|0:0,0:0:0:0:
316,280,173565,2,0,L|296:332,2,48.7499977684022,0|0|2,0:0|0:0|0:0,0:0:0:0:
224,112,174110,1,0,0:0:0:0:
388,224,174383,2,0,P|408:248|412:320,1,97.4999955368044,8|0,0:0|0:0,0:0:0:0:
472,100,174928,6,0,L|364:92,1,97.4999955368044,6|0,0:0|0:0,0:0:0:0:
336,56,175337,1,0,0:0:0:0:
284,52,175474,2,0,L|172:72,1,97.4999955368044,8|0,0:0|0:0,0:0:0:0:
148,104,175883,1,0,0:0:0:0:
96,88,176019,1,2,0:0:0:0:
224,192,176292,1,0,0:0:0:0:
64,176,176565,1,4,0:0:0:0:
248,352,177110,6,0,L|348:324,1,97.4999955368044,6|8,0:0|0:0,0:0:0:0:
448,320,177656,1,8,0:0:0:0:
472,216,177928,1,8,0:0:0:0:
432,116,178201,2,0,L|324:100,1,97.4999955368044,2|8,0:0|0:0,0:0:0:0:
236,140,178747,1,8,0:0:0:0:
132,112,179019,1,8,0:0:0:0:
36,156,179292,6,0,P|32:216|40:264,1,97.4999955368044,6|0,0:0|0:0,0:0:0:0:
64,300,179701,1,0,0:0:0:0:
112,324,179837,1,8,0:0:0:0:
140,144,180110,1,0,0:0:0:0:
192,360,180383,2,0,P|200:328|168:264,1,97.4999955368044,2|0,0:0|0:0,0:0:0:0:
216,64,180928,2,0,L|226:160,1,97.4999955368044,8|0,0:0|0:0,0:0:0:0:
320,76,181474,6,0,B|340:80|340:80|392:72|392:72|424:80,1,97.4999955368044,6|8,0:0|0:0,0:0:0:0:
496,152,182019,2,0,P|512:204|496:248,1,97.4999955368044,8|8,0:0|0:0,0:0:0:0:
456,344,182565,1,2,0:0:0:0:
396,260,182837,1,8,0:0:0:0:
316,336,183110,2,0,L|208:336,1,97.4999955368044,8|8,0:0|0:0,0:0:0:0:
124,284,183656,6,0,P|112:228|116:180,1,97.4999955368044,6|0,0:0|0:0,0:0:0:0:
144,144,184065,1,0,0:0:0:0:
140,92,184201,2,0,L|268:80,1,97.4999955368044,8|0,0:0|0:0,0:0:0:0:
420,72,184747,1,2,0:0:0:0:
256,180,185019,1,0,0:0:0:0:
436,204,185292,2,0,P|448:248|444:304,2,97.4999955368044,12|0|6,0:0|0:0|0:0,0:0:0:0:
168,316,194565,5,6,0:0:0:0:
248,248,194837,2,0,P|252:192|232:140,2,97.4999955368044,0|8|0,0:0|0:0|0:0,0:0:0:0:
152,200,195656,2,0,P|140:160|168:12,1,194.999991073609,2|8,0:0|0:0,0:0:0:0:
276,16,196474,1,0,0:0:0:0:
360,80,196747,6,0,P|360:124|324:180,1,97.4999955368044,6|0,0:0|0:0,0:0:0:0:
376,268,197292,2,0,P|344:272|288:320,1,97.4999955368044,8|0,0:0|0:0,0:0:0:0:
212,380,197837,2,0,P|256:324|220:208,1,194.999991073609,2|8,0:0|0:0,0:0:0:0:
120,188,198656,1,0,0:0:0:0:
52,272,198928,5,6,0:0:0:0:
36,164,199201,2,0,P|52:136|108:104,2,97.4999955368044,0|8|0,0:0|0:0|0:0,0:0:0:0:
52,272,200019,2,0,P|84:296|232:296,1,194.999991073609,2|8,0:0|0:0,0:0:0:0:
260,192,200837,1,0,0:0:0:0:
152,188,201110,5,6,0:0:0:0:
52,144,201383,2,0,P|48:92|56:44,2,97.4999955368044,0|8|0,0:0|0:0|0:0,0:0:0:0:
280,160,202201,2,0,P|287:111|283:63,1,97.4999955368044,2|0,0:0|0:0,0:0:0:0:
200,316,202747,2,0,L|396:324,1,194.999991073609,8|0,0:0|0:0,0:0:0:0:
432,68,205474,6,0,L|316:64,1,97.4999955368044,6|0,0:0|0:0,0:0:0:0:
232,100,206019,2,0,P|224:140|240:204,1,97.4999955368044,8|0,0:0|0:0,0:0:0:0:
336,236,206565,2,0,L|452:240,2,97.4999955368044,2|0|8,0:0|0:0|0:0,0:0:0:0:
296,336,207383,1,0,0:0:0:0:
192,368,207656,6,0,P|176:336|28:296,1,194.999991073609,6|8,0:0|0:0,0:0:0:0:
120,88,208474,1,0,0:0:0:0:
152,132,208610,1,0,0:0:0:0:
204,148,208747,2,0,L|312:128,1,97.4999955368044,2|0,0:0|0:0,0:0:0:0:
394,181,209292,2,0,P|390:277|382:305,1,97.4999955368044,8|0,0:0|0:0,0:0:0:0:
300,336,209837,6,0,L|156:320,1,97.4999955368044,6|0,0:0|0:0,0:0:0:0:
104,220,210383,1,8,0:0:0:0:
268,232,210656,1,0,0:0:0:0:
136,348,210928,2,0,L|36:340,2,97.4999955368044,2|0|8,0:0|0:0|0:0,0:0:0:0:
232,296,211747,1,0,0:0:0:0:
292,208,212019,6,0,L|280:80,1,97.4999955368044,6|0,0:0|0:0,0:0:0:0:
200,44,212565,1,8,0:0:0:0:
108,96,212837,2,0,L|36:84,2,48.7499977684022,0|0|2,0:0|0:0|0:0,0:0:0:0:
116,204,213383,1,0,0:0:0:0:
132,312,213656,2,0,L|236:300,1,97.4999955368044,8|0,0:0|0:0,0:0:0:0:
400,364,214201,6,0,P|424:328|424:176,1,194.999991073609,6|8,0:0|0:0,0:0:0:0:
296,56,215019,1,0,0:0:0:0:
444,88,215292,2,0,P|476:112|512:164,1,97.4999955368044,2|0,0:0|0:0,0:0:0:0:
268,148,215837,2,0,P|236:124|200:72,1,97.4999955368044,8|0,0:0|0:0,0:0:0:0:
264,248,216383,6,0,L|284:368,1,97.4999955368044,6|0,0:0|0:0,0:0:0:0:
376,296,216928,1,8,0:0:0:0:
164,344,217201,1,0,0:0:0:0:
120,312,217337,1,0,0:0:0:0:
108,260,217474,2,0,L|132:144,1,97.4999955368044,2|0,0:0|0:0,0:0:0:0:
168,64,218019,2,0,L|64:52,1,97.4999955368044,8|0,0:0|0:0,0:0:0:0:
236,220,218565,6,0,L|360:200,1,97.4999955368044,6|0,0:0|0:0,0:0:0:0:
164,344,219110,2,0,L|60:332,2,97.4999955368044,8|0|2,0:0|0:0|0:0,0:0:0:0:
268,312,219928,1,0,0:0:0:0:
368,356,220201,2,0,P|380:328|372:256,1,97.4999955368044,8|0,0:0|0:0,0:0:0:0:
376,84,220747,6,0,P|344:128|216:108,1,194.999991073609,6|8,0:0|0:0,0:0:0:0:
124,56,221565,1,0,0:0:0:0:
124,56,221701,1,0,0:0:0:0:
124,56,221837,1,2,0:0:0:0:
292,352,222383,1,8,0:0:0:0:
292,352,222928,6,0,B|296:324|296:324|312:288|312:288|316:216,1,97.4999955368044,6|0,0:0|0:0,0:0:0:0:
420,268,223474,1,8,0:0:0:0:
440,220,223610,1,0,0:0:0:0:
436,168,223747,1,0,0:0:0:0:
420,116,223883,1,0,0:0:0:0:
384,76,224019,2,0,L|256:88,1,97.4999955368044,2|0,0:0|0:0,0:0:0:0:
184,112,224565,2,0,L|84:100,1,97.4999955368044,8|0,0:0|0:0,0:0:0:0:
260,16,225110,6,0,L|276:220,1,194.999991073609,6|8,0:0|0:0,0:0:0:0:
268,316,225928,2,0,L|344:336,2,48.7499977684022,0|0|2,0:0|0:0|0:0,0:0:0:0:
164,344,226474,1,0,0:0:0:0:
68,300,226747,1,8,0:0:0:0:
24,204,227019,1,0,0:0:0:0:
68,104,227292,6,0,B|104:84|104:84|196:80|196:80|264:52,1,194.999991073609,6|8,0:0|0:0,0:0:0:0:
360,52,228110,1,0,0:0:0:0:
360,52,228247,1,0,0:0:0:0:
360,52,228383,1,2,0:0:0:0:
424,136,228656,1,0,0:0:0:0:
396,240,228928,2,0,L|288:224,1,97.4999955368044,8|0,0:0|0:0,0:0:0:0:
288,332,229474,6,0,L|180:316,1,97.4999955368044,6|0,0:0|0:0,0:0:0:0:
88,288,230019,1,8,0:0:0:0:
68,184,230292,1,0,0:0:0:0:
68,184,230428,1,0,0:0:0:0:
68,184,230565,2,0,P|80:124|100:88,1,97.4999955368044,2|0,0:0|0:0,0:0:0:0:
200,64,231110,2,0,L|320:80,1,97.4999955368044,8|0,0:0|0:0,0:0:0:0:
404,96,231656,6,0,B|420:160|420:160|420:220|420:220|440:304,1,194.999991073609,6|8,0:0|0:0,0:0:0:0:
360,360,232474,1,0,0:0:0:0:
252,348,232747,2,0,P|240:292|244:240,1,97.4999955368044,2|0,0:0|0:0,0:0:0:0:
256,200,233156,1,0,0:0:0:0:
272,148,233292,2,0,L|168:128,1,97.4999955368044,8|0,0:0|0:0,0:0:0:0:
84,184,233837,6,0,P|124:144|109:11,1,194.999991073609,6|8,0:0|0:0,0:0:0:0:
32,88,234656,1,0,0:0:0:0:
0,184,234928,2,0,L|12:288,1,97.4999955368044,2|0,0:0|0:0,0:0:0:0:
56,308,235337,1,0,0:0:0:0:
104,336,235474,2,0,L|200:320,1,97.4999955368044,8|0,0:0|0:0,0:0:0:0:
296,272,236019,6,0,L|424:280,1,97.4999955368044,6|0,0:0|0:0,0:0:0:0:
468,200,236565,1,8,0:0:0:0:
468,148,236701,1,0,0:0:0:0:
444,100,236837,1,0,0:0:0:0:
408,60,236974,1,0,0:0:0:0:
356,52,237110,2,0,L|240:84,1,97.4999955368044,2|0,0:0|0:0,0:0:0:0:
208,72,237519,1,0,0:0:0:0:
156,60,237656,2,0,B|110:55|110:55|44:72,1,97.4999955368044,8|0,0:0|0:0,0:0:0:0:
24,108,238065,1,0,0:0:0:0:
12,160,238201,6,0,P|16:216|44:284,1,97.4999955368044,6|0,0:0|0:0,0:0:0:0:
192,364,238747,2,0,P|204:332|200:260,1,97.4999955368044,8|0,0:0|0:0,0:0:0:0:
202,269,239156,1,0,0:0:0:0:
202,269,239292,1,2,0:0:0:0:
362,261,239565,1,0,0:0:0:0:
368,104,239837,2,0,P|312:88|272:96,1,97.4999955368044,8|0,0:0|0:0,0:0:0:0:
176,144,240383,5,6,0:0:0:0:
256,192,240519,12,0,242565,0:0:0:0:
