osu file format v14

[General]
AudioFilename: Teminite & Panda Eyes - Highscore.mp3
AudioLeadIn: 0
PreviewTime: 95292
Countdown: 0
SampleSet: Soft
StackLeniency: 0.7
Mode: 0
LetterboxInBreaks: 0
WidescreenStoryboard: 0

[Editor]
Bookmarks: 4747,9110,26565,44019,61474,78928,96383,113837,133474,150928,168383,185837,205474,222928,240383
DistanceSpacing: 1.1
BeatDivisor: 16
GridSize: 4
TimelineZoom: 2.3

[Metadata]
Title:Highscore
TitleUnicode:Highscore
Artist:Panda Eyes & Teminite
ArtistUnicode:Panda Eyes & Teminite
Creator:Fort
Version:Extra
Source:
Tags:LGV894 glitch hop 110 style Fxtra over 9000!!!
BeatmapID:736214
BeatmapSetID:332532

[Difficulty]
HPDrainRate:5
CircleSize:4
OverallDifficulty:8.3
ApproachRate:9.3
SliderMultiplier:1.8
SliderTickRate:1

[Events]
//Background and Video events
0,0,"BG.png",0,0
//Break Periods
2,96583,104556
2,186037,194011
//Storyboard Layer 0 (Background)
//Storyboard Layer 1 (Fail)
//Storyboard Layer 2 (Pass)
//Storyboard Layer 3 (Foreground)
//Storyboard Sound Samples

[TimingPoints]
4747,545.454545454546,4,2,2,100,1,0
9110,-200,4,2,2,70,0,0
9656,-200,4,2,2,25,0,0
11292,-200,4,2,2,70,0,0
11837,-200,4,2,2,40,0,0
13474,-200,4,2,2,70,0,0
14019,-200,4,2,2,50,0,0
15656,-200,4,2,2,80,0,0
17837,-200,4,2,2,80,0,0
26565,-100,4,2,3,100,0,0
28747,-100,4,2,2,100,0,0
35292,-100,4,2,3,100,0,0
35360,-100,4,2,2,100,0,0
43474,-66.6666666666667,4,2,1,100,0,0
44019,-66.6666666666667,4,2,30,100,0,1
44087,-66.6666666666667,4,2,1,100,0,1
44565,-66.6666666666667,4,2,1,100,0,0
52201,-66.6666666666667,4,2,20,100,0,0
52235,-66.6666666666667,4,2,1,100,0,0
60860,-66.6666666666667,4,2,2,100,0,0
60997,-66.6666666666667,4,2,1,100,0,0
61474,-66.6666666666667,4,2,1,100,0,0
78315,-66.6666666666667,4,2,20,100,0,0
78451,-66.6666666666667,4,2,1,100,0,0
78928,-66.6666666666667,4,2,1,100,0,0
96383,-100,4,2,30,50,0,0
96451,-100,4,2,1,100,0,0
113837,-66.6666666666667,4,2,30,100,0,1
113906,-66.6666666666667,4,2,1,100,0,1
121951,-66.6666666666667,4,2,20,100,0,1
122087,-66.6666666666667,4,2,1,100,0,1
122292,-66.6666666666667,4,2,4,100,0,1
122326,-66.6666666666667,4,2,1,100,0,1
122565,-66.6666666666667,4,2,30,100,0,1
122633,-66.6666666666667,4,2,1,100,0,1
129110,-100,4,2,2,100,0,0
133474,-66.6666666666667,4,2,30,100,0,1
133542,-66.6666666666667,4,2,1,100,0,1
137837,-66.6666666666667,4,2,30,100,0,1
137872,-66.6666666666667,4,2,1,100,0,1
142201,-66.6666666666667,4,2,30,100,0,1
142235,-66.6666666666667,4,2,1,100,0,1
146565,-66.6666666666667,4,2,30,100,0,1
146599,-66.6666666666667,4,2,1,100,0,1
149837,-200,4,2,1,100,0,1
150383,-100,4,2,1,100,0,1
150928,-66.6666666666667,4,2,1,100,0,0
153383,-66.6666666666667,4,2,4,100,0,1
153417,-66.6666666666667,4,2,1,100,0,1
155019,-66.6666666666667,4,2,1,100,0,0
157747,-66.6666666666667,4,2,4,100,0,1
157781,-66.6666666666667,4,2,1,100,0,1
159110,-66.6666666666667,4,2,20,100,0,1
159144,-66.6666666666667,4,2,1,100,0,1
159383,-66.6666666666667,4,2,1,100,0,0
159928,-66.6666666666667,4,2,4,70,0,0
159962,-66.6666666666667,4,2,1,100,0,0
160474,-66.6666666666667,4,2,4,70,0,0
160508,-66.6666666666667,4,2,1,100,0,0
161019,-66.6666666666667,4,2,4,70,0,0
161053,-66.6666666666667,4,2,1,100,0,0
161565,-66.6666666666667,4,2,4,70,0,0
161599,-66.6666666666667,4,2,1,100,0,0
162110,-66.6666666666667,4,2,4,70,0,1
162144,-66.6666666666667,4,2,1,100,0,1
162656,-66.6666666666667,4,2,4,70,0,1
162690,-66.6666666666667,4,2,1,100,0,1
163201,-66.6666666666667,4,2,4,70,0,1
163235,-66.6666666666667,4,2,1,100,0,1
163747,-66.6666666666667,4,2,4,70,0,0
163781,-66.6666666666667,4,2,1,100,0,0
164292,-66.6666666666667,4,2,4,70,0,0
164326,-66.6666666666667,4,2,1,100,0,0
164837,-66.6666666666667,4,2,4,70,0,0
164872,-66.6666666666667,4,2,1,100,0,0
165383,-66.6666666666667,4,2,4,70,0,0
165417,-66.6666666666667,4,2,1,100,0,0
165928,-66.6666666666667,4,2,4,70,0,0
165962,-66.6666666666667,4,2,1,100,0,0
166474,-66.6666666666667,4,2,4,70,0,1
166508,-66.6666666666667,4,2,1,100,0,1
167019,-66.6666666666667,4,2,4,70,0,1
167053,-66.6666666666667,4,2,1,100,0,1
167565,-66.6666666666667,4,2,4,70,0,1
167599,-66.6666666666667,4,2,1,100,0,1
167837,-66.6666666666667,4,2,20,100,0,1
167872,-66.6666666666667,4,2,1,100,0,1
168110,-66.6666666666667,4,2,4,70,0,0
168144,-66.6666666666667,4,2,1,100,0,0
168383,-66.6666666666667,4,2,1,100,0,1
176565,-66.6666666666667,4,2,20,100,0,1
176599,-66.6666666666667,4,2,1,100,0,1
177383,-66.6666666666667,4,2,4,70,0,1
177417,-66.6666666666667,4,2,1,100,0,1
177928,-66.6666666666667,4,2,4,70,0,1
177962,-66.6666666666667,4,2,1,100,0,1
178474,-66.6666666666667,4,2,4,70,0,1
178508,-66.6666666666667,4,2,1,100,0,1
179019,-66.6666666666667,4,2,4,70,0,1
179053,-66.6666666666667,4,2,1,100,0,1
179565,-66.6666666666667,4,2,4,70,0,1
179599,-66.6666666666667,4,2,1,100,0,1
180110,-66.6666666666667,4,2,4,70,0,1
180144,-66.6666666666667,4,2,1,100,0,1
180656,-66.6666666666667,4,2,4,70,0,1
180690,-66.6666666666667,4,2,1,100,0,1
181201,-66.6666666666667,4,2,4,70,0,1
181235,-66.6666666666667,4,2,1,100,0,1
181747,-66.6666666666667,4,2,4,70,0,1
181781,-66.6666666666667,4,2,1,100,0,1
182292,-66.6666666666667,4,2,4,70,0,1
182326,-66.6666666666667,4,2,1,100,0,1
182837,-66.6666666666667,4,2,4,70,0,1
182872,-66.6666666666667,4,2,1,100,0,1
183383,-66.6666666666667,4,2,4,70,0,1
183417,-66.6666666666667,4,2,1,100,0,1
183928,-66.6666666666667,4,2,4,70,0,1
183962,-66.6666666666667,4,2,1,100,0,1
184474,-66.6666666666667,4,2,4,70,0,1
184508,-66.6666666666667,4,2,1,100,0,1
185019,-66.6666666666667,4,2,4,70,0,1
185053,-66.6666666666667,4,2,1,100,0,1
185565,-66.6666666666667,4,2,4,70,0,1
185599,-66.6666666666667,4,2,1,100,0,1
185837,-76.9230769230769,4,2,2,100,0,0
185872,-76.9230769230769,4,2,1,100,0,0
203292,-100,4,2,1,100,0,0
205474,-71.4285714285714,4,2,1,100,0,0
222928,-66.6666666666667,4,2,1,100,0,0
240383,-100,4,2,1,100,0,0

[Colours]
Combo1 : 241,79,10
Combo2 : 153,203,253
Combo3 : 54,115,228
Combo4 : 98,46,207
Combo5 : 227,149,43
Combo6 : 37,203,33
Combo7 : 16,190,182
Combo8 : 255,0,0

[HitObjects]
328,136,9110,5,4,0:0:0:0:
384,248,9656,6,0,L|380:300,2,45,0|0|0,0:0|0:0|0:0,0:0:0:0:
384,248,10474,1,0,0:0:0:0:
452,176,10747,2,0,L|460:128,1,45,0|0,0:0|0:0,0:0:0:0:
196,28,11292,5,4,0:0:0:0:
196,28,11837,6,0,L|200:56,4,22.5,0|0|0|0|0,0:0|0:0|0:0|0:0|0:0,0:0:0:0:
136,128,12656,2,0,L|140:180,2,45,0|0|0,0:0|0:0|0:0,0:0:0:0:
56,304,13474,5,4,0:0:0:0:
180,308,14019,6,0,L|172:336,4,22.5,0|0|0|0|0,0:0|0:0|0:0|0:0|0:0,0:0:0:0:
268,284,14837,2,0,L|264:236,2,45,0|0|0,0:0|0:0|0:0,0:0:0:0:
456,316,15656,5,4,0:0:0:0:
444,204,16201,6,0,L|468:200,4,22.5,0|0|0|0|0,0:0|0:0|0:0|0:0|0:0,0:0:0:0:
360,172,17019,1,0,0:0:0:0:
360,172,17292,2,0,L|316:180,1,45,0|0,0:0|0:0,0:0:0:0:
228,192,17837,5,4,0:0:0:0:
216,180,18519,5,0,0:0:0:0:
192,216,18656,1,0,0:0:0:0:
148,224,18792,1,0,0:0:0:0:
108,208,18928,1,0,0:0:0:0:
96,216,19474,5,0,0:0:0:0:
88,224,20019,5,4,0:0:0:0:
80,232,20701,5,0,0:0:0:0:
148,244,20838,1,0,0:0:0:0:
196,292,20974,1,0,0:0:0:0:
212,360,21110,1,0,0:0:0:0:
220,352,21656,5,0,0:0:0:0:
228,344,22201,5,4,0:0:0:0:
236,336,22883,5,0,0:0:0:0:
216,248,23019,1,0,0:0:0:0:
236,160,23156,1,0,0:0:0:0:
300,96,23292,1,0,0:0:0:0:
296,84,23837,5,0,0:0:0:0:
288,72,24383,5,4,0:0:0:0:
280,64,25065,5,0,0:0:0:0:
292,152,25201,1,0,0:0:0:0:
368,196,25337,1,0,0:0:0:0:
356,284,25474,1,0,0:0:0:0:
360,296,26019,5,0,0:0:0:0:
364,308,26565,6,0,L|256:312,1,90,4|0,0:0|0:0,0:0:0:0:
192,276,27110,1,0,0:0:0:0:
108,308,27383,1,0,0:0:0:0:
24,272,27656,2,0,P|20:228|36:168,2,90,0|0|0,0:0|0:0|0:0,0:0:0:0:
108,308,28474,1,0,0:0:0:0:
192,276,28747,5,4,0:0:0:0:
200,288,29292,6,0,L|208:236,1,45,0|0,0:0|0:0,0:0:0:0:
148,184,29565,2,0,L|156:132,1,45,0|0,0:0|0:0,0:0:0:0:
176,64,29837,5,0,0:0:0:0:
256,108,30110,1,0,0:0:0:0:
340,76,30383,1,0,0:0:0:0:
424,108,30656,1,0,0:0:0:0:
464,188,30928,5,4,0:0:0:0:
472,176,31474,6,0,L|480:228,1,45,0|0,0:0|0:0,0:0:0:0:
396,236,31747,2,0,L|388:288,1,45,0|0,0:0|0:0,0:0:0:0:
432,356,32019,5,0,0:0:0:0:
300,232,32292,1,0,0:0:0:0:
280,320,32565,1,0,0:0:0:0:
280,140,32837,1,0,0:0:0:0:
288,332,33110,5,4,0:0:0:0:
296,344,33656,6,0,L|236:348,1,45,0|0,0:0|0:0,0:0:0:0:
168,304,33928,2,0,L|108:300,1,45,0|0,0:0|0:0,0:0:0:0:
36,280,34201,5,0,0:0:0:0:
200,280,34474,1,0,0:0:0:0:
96,72,34747,1,4,0:0:0:0:
112,160,35019,1,0,0:0:0:0:
340,32,35292,6,0,L|232:28,1,90,6|0,0:0|0:0,0:0:0:0:
232,32,35974,5,0,0:0:0:0:
256,68,36110,1,0,0:0:0:0:
260,112,36247,1,0,0:0:0:0:
240,152,36383,1,0,0:0:0:0:
248,168,36928,5,0,0:0:0:0:
256,184,37474,6,0,L|256:288,1,90,4|0,0:0|0:0,0:0:0:0:
264,308,38156,5,0,0:0:0:0:
296,280,38292,1,0,0:0:0:0:
340,276,38428,1,0,0:0:0:0:
380,296,38565,1,0,0:0:0:0:
388,288,39110,5,0,0:0:0:0:
396,280,39656,6,0,L|380:176,1,90,4|0,0:0|0:0,0:0:0:0:
384,172,40337,5,0,0:0:0:0:
408,136,40474,1,0,0:0:0:0:
400,92,40610,1,0,0:0:0:0:
364,68,40747,1,0,0:0:0:0:
348,68,41292,5,0,0:0:0:0:
336,72,41837,6,0,L|232:88,1,90,4|0,0:0|0:0,0:0:0:0:
236,88,42519,5,0,0:0:0:0:
256,176,42656,1,0,0:0:0:0:
216,256,42793,1,0,0:0:0:0:
128,276,42928,6,0,L|24:264,1,90
38,265,43337,1,0,0:0:0:0:
200,344,43474,6,0,L|280:340,1,67.5000025749208,4|0,0:0|0:0,0:0:0:0:
356,336,43747,1,2,0:0:0:0:
356,336,43883,1,0,0:0:0:0:
480,364,44019,6,0,P|488:312|448:160,1,202.500007724762,6|0,0:0|0:0,0:0:0:0:
396,112,44565,5,8,0:0:0:0:
340,172,44701,1,0,0:0:0:0:
260,176,44837,1,0,0:0:0:0:
188,140,44974,1,0,0:0:0:0:
136,76,45110,6,0,P|136:40|144:0,1,67.5000025749208,2|0,0:0|0:0,0:0:0:0:
260,176,45383,2,0,P|260:212|252:252,1,67.5000025749208,0|0,0:0|0:0,0:0:0:0:
116,184,45656,5,8,0:0:0:0:
264,88,45792,1,0,0:0:0:0:
116,184,45928,1,0,0:0:0:0:
264,88,46064,1,0,0:0:0:0:
52,128,46201,6,0,P|36:168|144:264,1,202.500007724762,6|0,0:0|0:0,0:0:0:0:
144,348,46747,5,8,0:0:0:0:
212,308,46883,1,0,0:0:0:0:
292,304,47019,1,0,0:0:0:0:
364,344,47156,1,0,0:0:0:0:
440,316,47292,6,0,P|452:276|448:240,1,67.5000025749208,2|0,0:0|0:0,0:0:0:0:
276,108,47565,2,0,P|264:148|268:184,1,67.5000025749208,0|0,0:0|0:0,0:0:0:0:
472,120,47837,1,8,0:0:0:0:
348,156,47974,1,0,0:0:0:0:
388,64,48110,1,0,0:0:0:0:
368,264,48247,1,0,0:0:0:0:
300,80,48383,6,0,L|80:92,1,202.500007724762,6|0,0:0|0:0,0:0:0:0:
40,148,48928,5,8,0:0:0:0:
32,228,49065,1,0,0:0:0:0:
72,300,49201,1,0,0:0:0:0:
148,332,49337,1,0,0:0:0:0:
228,340,49474,6,0,L|304:332,1,67.5000025749208,2|0,0:0|0:0,0:0:0:0:
72,300,49747,2,0,L|-4:308,1,67.5000025749208,0|0,0:0|0:0,0:0:0:0:
200,160,50019,5,8,0:0:0:0:
148,332,50156,1,0,0:0:0:0:
200,160,50292,1,0,0:0:0:0:
148,332,50429,1,0,0:0:0:0:
176,176,50565,6,0,B|320:164|320:164|380:180,1,202.500007724762,6|0,0:0|0:0,0:0:0:0:
376,260,51110,5,8,0:0:0:0:
444,216,51247,1,0,0:0:0:0:
444,136,51383,1,0,0:0:0:0:
376,88,51519,1,0,0:0:0:0:
296,80,51656,6,0,L|228:88,1,67.5000025749208,2|0,0:0|0:0,0:0:0:0:
216,260,51928,2,0,L|284:252,1,67.5000025749208,0|0,0:0|0:0,0:0:0:0:
96,84,52201,5,4,0:0:0:0:
356,172,52337,1,0,0:0:0:0:
116,232,52474,1,0,0:0:0:0:
248,168,52610,1,0,0:0:0:0:
44,184,52747,6,0,P|32:228|80:312,1,135.000005149842,6|0,0:0|0:0,0:0:0:0:
224,356,53292,5,8,0:0:0:0:
292,308,53428,1,0,0:0:0:0:
396,340,53565,1,0,0:0:0:0:
464,292,53701,1,0,0:0:0:0:
348,196,53837,6,0,L|360:268,1,67.5000025749208,2|0,0:0|0:0,0:0:0:0:
472,204,54110,2,0,L|460:132,1,67.5000025749208,0|0,0:0|0:0,0:0:0:0:
248,208,54383,5,8,0:0:0:0:
384,108,54519,1,0,0:0:0:0:
248,208,54656,1,0,0:0:0:0:
384,108,54792,1,0,0:0:0:0:
208,128,54928,6,0,P|152:140|72:104,1,135.000005149842,6|0,0:0|0:0,0:0:0:0:
40,292,55474,5,8,0:0:0:0:
72,216,55610,1,0,0:0:0:0:
164,356,55747,1,0,0:0:0:0:
132,280,55883,1,0,0:0:0:0:
224,208,56019,6,0,L|216:288,1,67.5000025749208,2|0,0:0|0:0,0:0:0:0:
328,296,56292,2,0,L|320:376,1,67.5000025749208
344,196,56565,5,8,0:0:0:0:
412,344,56701,1,0,0:0:0:0:
388,112,56837,1,0,0:0:0:0:
420,264,56974,1,0,0:0:0:0:
416,88,57110,6,0,L|264:80,1,135.000005149842,6|0,0:0|0:0,0:0:0:0:
128,32,57656,5,8,0:0:0:0:
108,108,57792,1,0,0:0:0:0:
224,168,57928,1,0,0:0:0:0:
244,244,58064,1,0,0:0:0:0:
64,184,58201,6,0,P|36:156|24:112,1,67.5000025749208,2|0,0:0|0:0,0:0:0:0:
112,312,58474,2,0,P|150:301|194:313,1,67.5000025749208,0|0,0:0|0:0,0:0:0:0:
312,184,58747,1,8,0:0:0:0:
152,220,58883,1,0,0:0:0:0:
312,184,59019,1,0,0:0:0:0:
152,220,59155,1,0,0:0:0:0:
336,272,59292,6,0,L|476:256,1,135.000005149842,6|0,0:0|0:0,0:0:0:0:
460,96,59837,5,8,0:0:0:0:
408,160,59974,1,0,0:0:0:0:
328,164,60110,1,0,0:0:0:0:
264,116,60247,1,0,0:0:0:0:
264,116,60383,6,0,L|272:48,2,67.5000025749208,2|0|0,0:0|0:0|0:0,0:0:0:0:
248,196,60792,1,0,0:0:0:0:
89,133,60928,2,0,L|100:200,2,67.5000025749208,4|0|0,0:0|0:0|0:0,0:0:0:0:
68,56,61337,1,0,0:0:0:0:
228,208,61474,6,0,L|208:352,1,135.000005149842,6|0,0:0|0:0,0:0:0:0:
132,320,61883,1,0,0:0:0:0:
304,280,62019,5,8,0:0:0:0:
176,144,62156,1,0,0:0:0:0:
328,256,62292,1,0,0:0:0:0:
168,120,62428,1,0,0:0:0:0:
356,168,62565,2,0,L|432:160,1,67.5000025749208,2|0,0:0|0:0,0:0:0:0:
132,216,62837,2,0,L|56:208,1,67.5000025749208,0|0,0:0|0:0,0:0:0:0:
268,104,63110,5,8,0:0:0:0:
236,220,63247,1,0,0:0:0:0:
52,176,63383,1,0,0:0:0:0:
84,292,63520,1,0,0:0:0:0:
160,96,63656,6,0,L|20:80,1,135.000005149842,6|0,0:0|0:0,0:0:0:0:
25,80,64065,1,0,0:0:0:0:
240,16,64201,6,0,P|256:72|252:104,1,67.5000025749208,8|0,0:0|0:0,0:0:0:0:
216,232,64474,1,0,0:0:0:0:
376,200,64610,1,0,0:0:0:0:
300,320,64747,1,2,0:0:0:0:
300,320,64883,2,0,P|296:268|296:248,1,67.5000025749208,0|0,0:0|0:0,0:0:0:0:
340,96,65156,1,0,0:0:0:0:
456,184,65292,6,0,P|456:228|440:264,1,67.5000025749208,8|0,0:0|0:0,0:0:0:0:
164,328,65565,2,0,L|80:316,1,67.5000025749208,0|0,0:0|0:0,0:0:0:0:
152,140,65837,6,0,L|288:160,1,135.000005149842,6|0,0:0|0:0,0:0:0:0:
340,96,66247,1,0,0:0:0:0:
224,244,66383,5,8,0:0:0:0:
208,72,66519,1,0,0:0:0:0:
312,188,66656,1,0,0:0:0:0:
136,152,66792,1,0,0:0:0:0:
352,104,66928,1,2,0:0:0:0:
124,164,67065,2,0,L|112:244,2,67.5000025749208
52,20,67474,5,8,0:0:0:0:
204,232,67610,1,0,0:0:0:0:
164,52,67747,1,0,0:0:0:0:
24,248,67883,1,0,0:0:0:0:
152,140,68019,6,0,L|300:136,1,135.000005149842,6|0,0:0|0:0,0:0:0:0:
356,184,68428,1,0,0:0:0:0:
272,52,68565,6,0,L|196:52,1,67.5000025749208,8|0,0:0|0:0,0:0:0:0:
356,184,68837,2,0,B|368:148|368:148|364:104,1,67.5000025749208,0|0,0:0|0:0,0:0:0:0:
296,272,69110,2,0,L|368:288,1,67.5000025749208,2|0,0:0|0:0,0:0:0:0:
504,216,69383,2,0,L|432:232,1,67.5000025749208,0|0,0:0|0:0,0:0:0:0:
284,360,69656,2,0,L|148:328,1,135.000005149842,8|0,0:0|0:0,0:0:0:0:
72,348,70065,1,0,0:0:0:0:
60,68,70201,6,0,L|144:60,1,67.5000025749208,6|0,0:0|0:0,0:0:0:0:
152,40,70747,5,8,0:0:0:0:
196,196,70883,1,0,0:0:0:0:
48,96,71019,1,0,0:0:0:0:
252,136,71156,1,0,0:0:0:0:
112,256,71292,1,2,0:0:0:0:
132,136,71428,1,0,0:0:0:0:
116,156,71837,5,8,0:0:0:0:
200,292,71974,1,0,0:0:0:0:
132,136,72110,1,0,0:0:0:0:
120,352,72247,1,0,0:0:0:0:
288,324,72383,6,0,P|296:280|284:252,1,67.5000025749208,6|0,0:0|0:0,0:0:0:0:
276,240,72928,5,8,0:0:0:0:
404,340,73201,5,0,0:0:0:0:
420,260,73337,1,0,0:0:0:0:
344,156,73474,1,2,0:0:0:0:
360,76,73610,1,0,0:0:0:0:
376,72,74019,5,8,0:0:0:0:
264,104,74156,1,0,0:0:0:0:
432,136,74292,1,0,0:0:0:0:
292,24,74428,1,0,0:0:0:0:
328,180,74565,6,0,L|336:272,1,67.5000025749208,6|0,0:0|0:0,0:0:0:0:
324,280,75110,5,8,0:0:0:0:
180,356,75383,5,0,0:0:0:0:
216,240,75519,1,0,0:0:0:0:
84,160,75656,1,2,0:0:0:0:
128,40,75792,1,0,0:0:0:0:
132,60,76201,5,8,0:0:0:0:
292,168,76337,1,0,0:0:0:0:
72,188,76474,1,0,0:0:0:0:
184,336,76610,1,0,0:0:0:0:
280,180,76747,6,0,P|276:136|248:44,1,135.000005149842,6|0,0:0|0:0,0:0:0:0:
250,49,77156,1,0,0:0:0:0:
376,212,77292,6,0,P|364:256|364:304,1,67.5000025749208,8|0,0:0|0:0,0:0:0:0:
188,120,77565,2,0,P|136:120|100:112,1,67.5000025749208,0|0,0:0|0:0,0:0:0:0:
376,128,77837,2,0,P|424:108|508:104,1,135.000005149842,2|0,0:0|0:0,0:0:0:0:
440,328,78247,1,0,0:0:0:0:
440,328,78383,6,0,L|284:320,1,135.000005149842,4|0,0:0|0:0,0:0:0:0:
228,352,78792,1,0,0:0:0:0:
112,168,78928,6,0,B|112:76|112:76|136:28,1,135.000005149842,6|0,0:0|0:0,0:0:0:0:
148,256,79337,1,0,0:0:0:0:
112,328,79474,6,0,L|32:316,1,67.5000025749208,8|0,0:0|0:0,0:0:0:0:
312,240,79747,1,0,0:0:0:0:
276,168,79884,2,0,L|196:180,1,67.5000025749208,0|2,0:0|0:0,0:0:0:0:
476,104,80156,1,0,0:0:0:0:
440,176,80293,2,0,L|360:164,1,67.5000025749208,0|0,0:0|0:0,0:0:0:0:
276,312,80565,1,8,0:0:0:0:
312,240,80702,2,0,L|392:252,1,67.5000025749208,0|0,0:0|0:0,0:0:0:0:
316,76,80974,1,0,0:0:0:0:
156,128,81110,6,0,B|180:228|180:228|176:276,1,135.000005149842,6|0,0:0|0:0,0:0:0:0:
148,340,81519,1,0,0:0:0:0:
72,372,81656,6,0,B|68:336|68:336|72:300,1,67.5000025749208,8|0,0:0|0:0,0:0:0:0:
20,200,81928,1,0,0:0:0:0:
20,200,82065,2,0,B|52:208|52:208|96:212,1,67.5000025749208,0|2,0:0|0:0,0:0:0:0:
276,164,82337,1,0,0:0:0:0:
276,164,82474,2,0,B|310:167|310:167|342:175,1,67.5000025749208,0|0,0:0|0:0,0:0:0:0:
168,48,82747,2,0,B|112:52|112:52|84:44,2,67.5000025749208,8|0|0,0:0|0:0|0:0,0:0:0:0:
48,104,83156,1,0,0:0:0:0:
48,104,83292,6,0,B|88:80|88:80|208:72,1,135.000005149842,6|0,0:0|0:0,0:0:0:0:
332,28,83837,6,0,B|336:104|336:104|368:164,1,135.000005149842,8|0,0:0|0:0,0:0:0:0:
308,292,84247,2,0,B|304:216|304:216|272:156,1,135.000005149842,0|0,0:0|0:0,0:0:0:0:
412,88,84656,2,0,B|440:152|440:152|420:244,1,135.000005149842,0|8,0:0|0:0,0:0:0:0:
216,236,85065,2,0,B|188:172|188:172|208:80,1,135.000005149842,0|0,0:0|0:0,0:0:0:0:
364,344,85474,6,0,B|324:336|324:336|292:340|292:340|244:332|244:332|152:344,1,202.500007724762,6|0,0:0|0:0,0:0:0:0:
88,316,86019,2,0,B|80:280|80:280|80:228,1,67.5000025749208,8|0,0:0|0:0,0:0:0:0:
40,144,86292,2,0,B|44:108|44:108|40:48,1,67.5000025749208,0|0,0:0|0:0,0:0:0:0:
152,28,86565,6,0,B|160:68|160:68|152:120|152:120|160:184,1,135.000005149842,2|0,0:0|0:0,0:0:0:0:
220,212,86974,1,0,0:0:0:0:
296,236,87110,2,0,B|300:200|300:200|288:160,1,67.5000025749208,8|0,0:0|0:0,0:0:0:0:
372,92,87383,2,0,B|368:128|368:128|380:168,1,67.5000025749208,0|0,0:0|0:0,0:0:0:0:
308,52,87656,6,0,B|348:56|348:56|376:48|376:48|460:60,1,135.000005149842,6|0,0:0|0:0,0:0:0:0:
488,124,88065,1,0,0:0:0:0:
484,204,88201,6,0,B|476:240|476:240|456:268,1,67.5000025749208,8|0,0:0|0:0,0:0:0:0:
328,344,88474,2,0,B|363:332|363:332|397:336,2,67.5000025749208,0|0|2,0:0|0:0|0:0,0:0:0:0:
192,316,88883,1,0,0:0:0:0:
192,316,89019,2,0,B|184:276|184:276|192:224,1,67.5000025749208,0|0,0:0|0:0,0:0:0:0:
272,80,89292,2,0,B|280:112|280:112|272:172,1,67.5000025749208,8|0,0:0|0:0,0:0:0:0:
104,232,89565,2,0,L|32:224,1,67.5000025749208,0|0,0:0|0:0,0:0:0:0:
280,264,89837,6,0,B|328:248|328:248|432:252,1,135.000005149842,6|0,0:0|0:0,0:0:0:0:
412,251,90247,1,0,0:0:0:0:
260,180,90383,6,0,B|212:196|212:196|108:192,1,135.000005149842,8|0,0:0|0:0,0:0:0:0:
60,148,90792,2,0,B|52:112|52:112|56:64,1,67.5000025749208,0|2,0:0|0:0,0:0:0:0:
168,280,91065,1,0,0:0:0:0:
168,280,91201,2,0,B|176:316|176:316|176:360,1,67.5000025749208,0|0,0:0|0:0,0:0:0:0:
172,108,91474,2,0,B|204:88|204:88|248:80,1,67.5000025749208,8|0,0:0|0:0,0:0:0:0:
400,164,91747,5,0,0:0:0:0:
276,280,91883,1,0,0:0:0:0:
416,136,92019,6,0,L|420:288,1,135.000005149842,6|0,0:0|0:0,0:0:0:0:
340,104,92428,1,0,0:0:0:0:
492,292,92565,6,0,B|456:300|456:300|416:300|416:300|344:308,1,135.000005149842,8|0,0:0|0:0,0:0:0:0:
324,232,92974,2,0,B|266:238|266:238|226:238|226:238|190:246,1,135.000005149842,0|0,0:0|0:0,0:0:0:0:
148,316,93383,2,0,B|120:288|120:288|116:248,1,67.5000025749208,0|0,0:0|0:0,0:0:0:0:
144,84,93656,5,8,0:0:0:0:
190,246,93792,1,0,0:0:0:0:
250,154,93928,1,0,0:0:0:0:
83,175,94064,1,0,0:0:0:0:
272,56,94201,6,0,B|356:64|356:64|428:48,1,135.000005149842,6|0,0:0|0:0,0:0:0:0:
472,200,94747,2,0,B|388:192|388:192|316:208,1,135.000005149842,8|0,0:0|0:0,0:0:0:0:
228,320,95292,6,0,P|184:332|112:272,1,135.000005149842,2|0,0:0|0:0,0:0:0:0:
148,124,95837,2,0,P|192:112|264:172,1,135.000005149842,0|0,0:0|0:0,0:0:0:0:
260,160,96383,1,4,0:0:0:0:
136,292,105110,5,0,0:0:0:0:
72,116,105383,1,0,0:0:0:0:
72,116,105656,2,0,L|168:108,1,90,8|0,0:0|0:0,0:0:0:0:
248,176,106201,1,2,0:0:0:0:
356,184,106474,1,0,0:0:0:0:
440,120,106747,1,8,0:0:0:0:
464,16,107019,1,0,0:0:0:0:
356,184,107292,6,0,P|360:224|376:288,1,90,6|0,0:0|0:0,0:0:0:0:
368,60,107837,2,0,P|316:48|272:52,1,90,8|0,0:0|0:0,0:0:0:0:
224,192,108383,2,0,P|164:208|120:204,1,90,2|0,0:0|0:0,0:0:0:0:
40,160,108928,1,8,0:0:0:0:
168,336,109474,6,0,L|264:328,1,90,6|0,0:0|0:0,0:0:0:0:
328,248,110019,2,0,L|424:256,1,90,8|0,0:0|0:0,0:0:0:0:
484,172,110565,1,2,0:0:0:0:
472,64,110837,1,0,0:0:0:0:
372,28,111110,1,8,0:0:0:0:
156,24,111656,5,6,0:0:0:0:
180,128,111928,1,0,0:0:0:0:
44,176,112201,1,8,0:0:0:0:
68,280,112473,1,0,0:0:0:0:
216,252,112747,5,2,0:0:0:0:
204,360,113019,1,0,0:0:0:0:
300,312,113292,2,0,L|304:336,6,22.5,8|0|0|0|0|0|0,0:0|0:0|0:0|0:0|0:0|0:0|0:0,0:0:0:0:
312,292,113837,5,6,0:0:0:0:
468,244,113974,1,0,0:0:0:0:
308,208,114110,1,0,0:0:0:0:
392,100,114247,5,0,0:0:0:0:
236,148,114384,1,8,0:0:0:0:
396,184,114520,1,0,0:0:0:0:
220,240,114656,5,0,0:0:0:0:
308,104,114792,1,0,0:0:0:0:
206,255,114928,1,2,0:0:0:0:
184,56,115065,6,0,L|88:48,1,67.5000025749208,0|0,0:0|0:0,0:0:0:0:
36,36,115337,1,0,0:0:0:0:
196,268,115474,2,0,L|336:264,1,135.000005149842,8|0,0:0|0:0,0:0:0:0:
120,204,115883,1,0,0:0:0:0:
148,344,116019,5,6,0:0:0:0:
200,156,116156,1,0,0:0:0:0:
48,284,116292,1,0,0:0:0:0:
272,312,116428,1,0,0:0:0:0:
88,168,116565,6,0,L|80:312,1,135.000005149842,8|0,0:0|0:0,0:0:0:0:
60,140,116974,1,0,0:0:0:0:
132,104,117110,2,0,L|124:248,1,135.000005149842,2|0,0:0|0:0,0:0:0:0:
160,312,117519,1,0,0:0:0:0:
240,292,117656,2,0,L|320:280,1,67.5000025749208,8|0,0:0|0:0,0:0:0:0:
404,172,117928,2,0,L|448:180,2,33.7500012874604,0|0|0,0:0|0:0|0:0,0:0:0:0:
224,128,118201,5,6,0:0:0:0:
396,264,118337,1,0,0:0:0:0:
392,92,118474,1,0,0:0:0:0:
272,208,118610,5,0,0:0:0:0:
472,120,118747,1,8,0:0:0:0:
320,136,118883,1,0,0:0:0:0:
408,284,119019,6,0,L|500:272,1,67.5000025749208,0|0,0:0|0:0,0:0:0:0:
264,224,119292,1,2,0:0:0:0:
132,280,119428,6,0,L|136:348,2,67.5000025749208,0|0|0,0:0|0:0|0:0,0:0:0:0:
124,132,119837,2,0,L|32:136,1,67.5000025749208,8|0,0:0|0:0,0:0:0:0:
216,148,120110,2,0,P|216:104|204:60,1,67.5000025749208,0|0,0:0|0:0,0:0:0:0:
148,32,120383,5,6,0:0:0:0:
156,208,120519,1,0,0:0:0:0:
320,136,120656,1,0,0:0:0:0:
132,116,120792,1,0,0:0:0:0:
340,156,120928,2,0,L|344:68,1,67.5000025749208,8|0,0:0|0:0,0:0:0:0:
248,224,121201,2,0,L|256:320,1,67.5000025749208,0|0,0:0|0:0,0:0:0:0:
416,240,121474,6,0,L|320:248,1,67.5000025749208,2|0,0:0|0:0,0:0:0:0:
140,304,121747,2,0,L|100:300,2,33.7500012874604,0|0|0,0:0|0:0|0:0,0:0:0:0:
372,336,122019,6,0,L|448:328,1,67.5000025749208,4|0,0:0|0:0,0:0:0:0:
368,116,122292,2,0,L|292:124,1,67.5000025749208,2|0,0:0|0:0,0:0:0:0:
72,184,122565,5,6,0:0:0:0:
216,232,122701,1,0,0:0:0:0:
164,80,122837,2,0,L|88:88,1,67.5000025749208,0|0,0:0|0:0,0:0:0:0:
232,256,123110,2,0,L|308:264,1,67.5000025749208,8|0,0:0|0:0,0:0:0:0:
420,280,123383,1,0,0:0:0:0:
288,184,123519,1,0,0:0:0:0:
144,288,123656,2,0,L|152:360,1,67.5000025749208,2|0,0:0|0:0,0:0:0:0:
240,112,123928,2,0,P|248:64|236:32,1,67.5000025749208,0|0,0:0|0:0,0:0:0:0:
160,168,124201,5,8,0:0:0:0:
352,120,124337,1,0,0:0:0:0:
248,280,124474,1,0,0:0:0:0:
164,80,124610,1,0,0:0:0:0:
376,92,124747,6,0,L|384:236,1,135.000005149842,6|0,0:0|0:0,0:0:0:0:
332,292,125156,1,0,0:0:0:0:
472,216,125292,1,8,0:0:0:0:
240,240,125428,1,0,0:0:0:0:
400,352,125565,2,0,L|484:340,1,67.5000025749208,0|0,0:0|0:0,0:0:0:0:
240,240,125837,6,0,L|164:232,2,67.5000025749208,2|0|0,0:0|0:0|0:0,0:0:0:0:
176,336,126247,1,0,0:0:0:0:
228,148,126383,2,0,B|232:132|232:132|224:96|224:96|224:76,1,67.5000025749208,8|0,0:0|0:0,0:0:0:0:
100,192,126656,2,0,P|88:232|100:276,1,67.5000025749208,0|0,0:0|0:0,0:0:0:0:
140,104,126928,6,0,L|4:88,1,135.000005149842,6|0,0:0|0:0,0:0:0:0:
228,148,127337,1,0,0:0:0:0:
308,72,127474,1,8,0:0:0:0:
160,16,127610,1,0,0:0:0:0:
216,188,127747,1,0,0:0:0:0:
328,44,127883,1,0,0:0:0:0:
204,224,128019,2,0,L|216:316,1,67.5000025749208,2|0,0:0|0:0,0:0:0:0:
360,88,128292,2,0,L|348:-4,1,67.5000025749208,0|0,0:0|0:0,0:0:0:0:
316,200,128565,6,0,P|348:180|444:200,1,135.000005149842,8|0,0:0|0:0,0:0:0:0:
480,268,128974,1,0,0:0:0:0:
480,268,129110,6,0,L|476:360,1,90,6|0,0:0|0:0,0:0:0:0:
384,256,129656,2,0,L|392:348,1,90,2|0,0:0|0:0,0:0:0:0:
288,276,130201,2,0,L|304:376,1,90,2|0,0:0|0:0,0:0:0:0:
208,256,130747,2,0,L|204:352,1,90,2|0,0:0|0:0,0:0:0:0:
136,208,131292,5,2,0:0:0:0:
136,208,131837,1,2,0:0:0:0:
136,208,132383,1,2,0:0:0:0:
136,208,132928,2,0,P|132:168|136:148,1,45,4|0,0:0|0:0,0:0:0:0:
200,24,133201,2,0,P|204:64|200:84,1,45,0|0,0:0|0:0,0:0:0:0:
152,328,133474,6,0,L|16:308,1,135.000005149842,6|0,0:0|0:0,0:0:0:0:
24,228,133883,1,0,0:0:0:0:
232,280,134019,6,0,P|244:332|232:364,1,67.5000025749208,8|0,0:0|0:0,0:0:0:0:
280,180,134292,2,0,P|268:128|280:96,1,67.5000025749208,0|0,0:0|0:0,0:0:0:0:
344,24,134565,5,2,0:0:0:0:
348,228,134701,1,0,0:0:0:0:
408,140,134837,1,0,0:0:0:0:
220,48,134974,1,0,0:0:0:0:
424,120,135110,5,8,0:0:0:0:
168,208,135247,1,0,0:0:0:0:
340,44,135383,1,0,0:0:0:0:
336,252,135519,1,0,0:0:0:0:
148,220,135656,6,0,B|132:176|132:176|140:60,1,135.000005149842,6|0,0:0|0:0,0:0:0:0:
96,16,136065,1,0,0:0:0:0:
64,216,136201,6,0,L|100:300,1,67.5000025749208,8|0,0:0|0:0,0:0:0:0:
224,76,136474,2,0,L|188:-8,1,67.5000025749208,0|0,0:0|0:0,0:0:0:0:
312,356,136747,5,2,0:0:0:0:
308,152,136883,1,0,0:0:0:0:
248,244,137019,1,0,0:0:0:0:
456,312,137156,1,0,0:0:0:0:
232,260,137292,5,8,0:0:0:0:
488,172,137429,1,0,0:0:0:0:
316,336,137565,1,0,0:0:0:0:
320,128,137701,1,0,0:0:0:0:
412,248,137837,6,0,B|404:336|404:336|420:384,1,135.000005149842,6|0,0:0|0:0,0:0:0:0:
418,380,138247,1,0,0:0:0:0:
504,164,138383,6,0,B|504:116|504:116|488:72,1,67.5000025749208,8|0,0:0|0:0,0:0:0:0:
236,108,138656,2,0,B|236:156|236:156|252:200,1,67.5000025749208,0|0,0:0|0:0,0:0:0:0:
408,120,138928,5,2,0:0:0:0:
200,32,139065,1,0,0:0:0:0:
440,48,139201,1,0,0:0:0:0:
144,104,139337,1,0,0:0:0:0:
352,56,139474,5,8,0:0:0:0:
96,24,139610,1,0,0:0:0:0:
360,20,139747,1,0,0:0:0:0:
116,132,139883,1,0,0:0:0:0:
320,156,140019,6,0,L|456:144,1,135.000005149842,6|0,0:0|0:0,0:0:0:0:
388,232,140428,1,0,0:0:0:0:
240,192,140565,6,0,P|232:152|248:116,1,67.5000025749208,8|0,0:0|0:0,0:0:0:0:
336,324,140837,2,0,L|268:328,1,67.5000025749208,0|0,0:0|0:0,0:0:0:0:
104,264,141110,5,2,0:0:0:0:
312,352,141247,1,0,0:0:0:0:
72,336,141383,1,0,0:0:0:0:
368,280,141519,1,0,0:0:0:0:
160,328,141656,5,8,0:0:0:0:
416,360,141792,1,0,0:0:0:0:
152,364,141929,1,0,0:0:0:0:
396,252,142065,1,0,0:0:0:0:
136,236,142201,6,0,B|36:248|36:248|0:232,1,135.000005149842,6|0,0:0|0:0,0:0:0:0:
224,276,142610,1,0,0:0:0:0:
164,124,142747,5,8,0:0:0:0:
224,180,142883,1,0,0:0:0:0:
304,200,143019,1,0,0:0:0:0:
384,180,143156,1,0,0:0:0:0:
420,108,143292,6,0,P|428:68|424:32,1,67.5000025749208,2|0,0:0|0:0,0:0:0:0:
384,180,143565,2,0,P|376:220|380:256,1,67.5000025749208,0|0,0:0|0:0,0:0:0:0:
368,128,143837,2,0,P|328:120|292:124,1,67.5000025749208,8|0,0:0|0:0,0:0:0:0:
440,164,144110,2,0,P|480:172|516:168,1,67.5000025749208,0|0,0:0|0:0,0:0:0:0:
260,36,144383,6,0,P|192:56|120:40,1,135.000005149842,6|0,0:0|0:0,0:0:0:0:
52,28,144792,1,0,0:0:0:0:
28,164,144928,5,8,0:0:0:0:
48,284,145065,1,0,0:0:0:0:
56,164,145201,1,0,0:0:0:0:
20,280,145337,1,0,0:0:0:0:
196,188,145474,6,0,P|227:179|271:183,1,67.5000025749208,2|0,0:0|0:0,0:0:0:0:
136,288,145747,2,0,P|105:297|61:293,1,67.5000025749208
216,272,146019,2,0,P|225:303|221:347,1,67.5000025749208,8|0,0:0|0:0,0:0:0:0:
116,212,146292,2,0,P|107:181|111:137,1,67.5000025749208
288,144,146565,6,0,L|308:288,1,135.000005149842,6|0,0:0|0:0,0:0:0:0:
356,340,146974,1,0,0:0:0:0:
412,112,147110,5,8,0:0:0:0:
252,124,147247,1,0,0:0:0:0:
384,28,147383,1,0,0:0:0:0:
368,188,147519,1,0,0:0:0:0:
136,116,147656,6,0,L|136:28,1,67.5000025749208,2|0,0:0|0:0,0:0:0:0:
184,288,147928,2,0,L|184:376,1,67.5000025749208,0|0,0:0|0:0,0:0:0:0:
248,172,148201,2,0,L|336:172,1,67.5000025749208,8|0,0:0|0:0,0:0:0:0:
76,220,148473,2,0,L|-12:220,1,67.5000025749208,0|0,0:0|0:0,0:0:0:0:
304,248,148747,6,0,B|392:248|392:248|460:224,1,135.000005149842,6|0,0:0|0:0,0:0:0:0:
472,160,149156,1,0,0:0:0:0:
488,80,149292,6,0,B|488:48|488:48|472:0,1,67.5000025749208,8|0,0:0|0:0,0:0:0:0:
460,308,149565,2,0,B|460:340|460:340|476:388,1,67.5000025749208,0|0,0:0|0:0,0:0:0:0:
304,328,149837,6,0,L|276:328,3,22.5,2|0|0|0,0:0|0:0|0:0|0:0,0:0:0:0:
180,224,150383,6,0,L|116:236,3,45
72,312,150928,6,0,P|40:272|48:180,1,135.000005149842,6|0,0:0|0:0,0:0:0:0:
80,120,151337,1,0,0:0:0:0:
128,56,151474,2,0,B|224:48|224:48|288:64,1,135.000005149842,8|0,0:0|0:0,0:0:0:0:
372,240,151883,2,0,L|376:164,1,67.5000025749208,0|2,0:0|0:0,0:0:0:0:
272,256,152156,1,0,0:0:0:0:
464,300,152292,1,0,0:0:0:0:
288,356,152428,1,0,0:0:0:0:
480,328,152565,6,0,L|488:240,1,67.5000025749208,8|0,0:0|0:0,0:0:0:0:
208,128,152837,2,0,L|220:204,1,67.5000025749208,0|0,0:0|0:0,0:0:0:0:
160,356,153110,6,0,P|136:324|36:340,1,135.000005149842,6|0,0:0|0:0,0:0:0:0:
48,326,153519,1,0,0:0:0:0:
44,132,153656,5,8,0:0:0:0:
120,280,153792,1,0,0:0:0:0:
204,92,153928,1,0,0:0:0:0:
20,120,154065,1,0,0:0:0:0:
224,72,154201,6,0,L|232:148,1,67.5000025749208,2|0,0:0|0:0,0:0:0:0:
244,256,154474,1,0,0:0:0:0:
144,184,154610,1,0,0:0:0:0:
328,220,154747,2,0,P|336:264|328:300,1,67.5000025749208,8|0,0:0|0:0,0:0:0:0:
68,220,155019,2,0,P|60:176|68:140,1,67.5000025749208,0|0,0:0|0:0,0:0:0:0:
160,28,155292,6,0,L|324:40,1,135.000005149842,6|0,0:0|0:0,0:0:0:0:
348,100,155701,1,0,0:0:0:0:
428,84,155837,2,0,P|436:48|432:16,2,67.5000025749208,8|0|0,0:0|0:0|0:0,0:0:0:0:
252,184,156247,1,0,0:0:0:0:
252,184,156383,2,0,P|244:220|248:252,1,67.5000025749208,2|0,0:0|0:0,0:0:0:0:
360,320,156656,2,0,L|432:316,1,67.5000025749208,0|0,0:0|0:0,0:0:0:0:
156,208,156928,6,0,L|88:200,1,67.5000025749208,8|0,0:0|0:0,0:0:0:0:
340,224,157201,1,0,0:0:0:0:
332,144,157337,1,0,0:0:0:0:
160,308,157474,6,0,L|8:292,1,135.000005149842,6|0,0:0|0:0,0:0:0:0:
228,256,157883,1,0,0:0:0:0:
168,352,158019,5,8,0:0:0:0:
136,184,158156,1,0,0:0:0:0:
244,224,158292,1,0,0:0:0:0:
212,56,158429,1,0,0:0:0:0:
360,116,158565,2,0,L|352:256,1,135.000005149842,2|0,0:0|0:0,0:0:0:0:
344,332,158974,1,0,0:0:0:0:
244,136,159110,5,4,0:0:0:0:
388,100,159247,1,0,0:0:0:0:
156,204,159383,2,0,L|80:196,1,67.5000025749208,0|0,0:0|0:0,0:0:0:0:
264,120,159656,6,0,L|268:200,1,67.5000025749208,6|0,0:0|0:0,0:0:0:0:
232,316,159928,2,0,L|148:304,1,67.5000025749208,8|0,0:0|0:0,0:0:0:0:
320,264,160201,2,0,L|400:256,1,67.5000025749208,8|0,0:0|0:0,0:0:0:0:
156,190,160474,2,0,L|76:198,1,67.5000025749208,8|0,0:0|0:0,0:0:0:0:
352,152,160747,6,0,L|348:72,1,67.5000025749208,2|0,0:0|0:0,0:0:0:0:
168,40,161019,2,0,L|172:120,1,67.5000025749208,8|0,0:0|0:0,0:0:0:0:
188,300,161292,1,8,0:0:0:0:
272,104,161428,1,0,0:0:0:0:
208,328,161565,2,0,L|132:320,1,67.5000025749208,8|0,0:0|0:0,0:0:0:0:
280,224,161837,6,0,L|432:240,1,135.000005149842,6|0,0:0|0:0,0:0:0:0:
414,238,162247,1,0,0:0:0:0:
468,152,162383,1,8,0:0:0:0:
432,316,162519,1,0,0:0:0:0:
484,128,162656,2,0,L|472:52,1,67.5000025749208,0|0,0:0|0:0,0:0:0:0:
200,192,162928,5,2,0:0:0:0:
232,292,163065,1,0,0:0:0:0:
216,156,163201,2,0,L|128:156,1,67.5000025749208,0|0,0:0|0:0,0:0:0:0:
316,128,163474,2,0,P|320:88|316:56,1,67.5000025749208,8|0,0:0|0:0,0:0:0:0:
152,256,163747,2,0,P|148:296|152:328,1,67.5000025749208,0|0,0:0|0:0,0:0:0:0:
232,76,164019,6,0,L|152:72,1,67.5000025749208,6|0,0:0|0:0,0:0:0:0:
40,192,164292,2,0,L|48:276,1,67.5000025749208,8|0,0:0|0:0,0:0:0:0:
72,88,164565,2,0,L|64:4,1,67.5000025749208,8|0,0:0|0:0,0:0:0:0:
128,164,164837,2,0,L|208:152,1,67.5000025749208,8|0,0:0|0:0,0:0:0:0:
299,83,165110,6,0,L|223:75,1,67.5000025749208,2|0,0:0|0:0,0:0:0:0:
379,163,165383,2,0,L|455:171,1,67.5000025749208,8|0,0:0|0:0,0:0:0:0:
299,159,165656,2,0,L|291:235,1,67.5000025749208,8|0,0:0|0:0,0:0:0:0:
379,79,165929,2,0,L|387:3,1,67.5000025749208,8|0,0:0|0:0,0:0:0:0:
180,268,166201,6,0,L|328:288,1,135.000005149842,6|0,0:0|0:0,0:0:0:0:
360,356,166610,1,0,0:0:0:0:
168,280,166747,5,8,0:0:0:0:
404,288,166883,1,0,0:0:0:0:
92,344,167019,1,0,0:0:0:0:
284,196,167156,1,0,0:0:0:0:
112,360,167292,2,0,L|20:348,1,67.5000025749208,2|0,0:0|0:0,0:0:0:0:
68,112,167565,2,0,P|76:152|72:200,1,67.5000025749208,0|0,0:0|0:0,0:0:0:0:
152,52,167837,2,0,L|232:44,1,67.5000025749208,4|0,0:0|0:0,0:0:0:0:
308,176,168110,2,0,L|228:168,1,67.5000025749208,0|0,0:0|0:0,0:0:0:0:
408,80,168383,6,0,B|404:156|404:156|424:228,1,135.000005149842,4|0,0:0|0:0,0:0:0:0:
452,288,168792,1,0,0:0:0:0:
408,356,168928,2,0,L|328:344,1,67.5000025749208,8|0,0:0|0:0,0:0:0:0:
264,320,169201,1,0,0:0:0:0:
188,292,169337,2,0,L|112:300,1,67.5000025749208,0|2,0:0|0:0,0:0:0:0:
260,212,169610,2,0,L|264:132,2,67.5000025749208,0|0|0,0:0|0:0|0:0,0:0:0:0:
248,360,170019,5,8,0:0:0:0:
164,200,170156,1,0,0:0:0:0:
360,200,170292,2,0,L|352:280,1,67.5000025749208,0|0,0:0|0:0,0:0:0:0:
252,116,170565,6,0,L|392:104,1,135.000005149842,6|0,0:0|0:0,0:0:0:0:
440,164,170974,1,0,0:0:0:0:
376,20,171110,1,8,0:0:0:0:
352,220,171247,1,0,0:0:0:0:
476,56,171383,1,0,0:0:0:0:
232,104,171519,1,0,0:0:0:0:
440,248,171656,6,0,L|508:240,1,67.5000025749208,2|0,0:0|0:0,0:0:0:0:
256,204,171928,2,0,L|188:196,1,67.5000025749208,0|0,0:0|0:0,0:0:0:0:
292,292,172201,2,0,P|292:332|272:364,1,67.5000025749208,8|0,0:0|0:0,0:0:0:0:
152,120,172474,2,0,P|152:80|172:48,1,67.5000025749208,0|0,0:0|0:0,0:0:0:0:
212,304,172747,6,0,L|140:292,1,67.5000025749208,6|0,0:0|0:0,0:0:0:0:
312,136,173019,2,0,L|384:124,1,67.5000025749208,0|0,0:0|0:0,0:0:0:0:
120,332,173292,2,0,P|112:264|76:200,1,135.000005149842,8|0,0:0|0:0,0:0:0:0:
20,152,173701,1,0,0:0:0:0:
52,80,173837,2,0,L|128:64,1,67.5000025749208,2|0,0:0|0:0,0:0:0:0:
228,200,174110,1,0,0:0:0:0:
136,40,174247,1,0,0:0:0:0:
316,164,174383,6,0,B|324:220|324:220|304:312,1,135.000005149842,8|0,0:0|0:0,0:0:0:0:
256,60,174928,6,0,P|312:68|392:32,1,135.000005149842,6|0,0:0|0:0,0:0:0:0:
436,100,175337,1,0,0:0:0:0:
220,148,175474,2,0,P|176:128|128:128,1,67.5000025749208,8|0,0:0|0:0,0:0:0:0:
424,184,175747,2,0,P|464:180|496:152,1,67.5000025749208,0|0,0:0|0:0,0:0:0:0:
156,208,176019,6,0,L|168:344,1,135.000005149842,2|0,0:0|0:0,0:0:0:0:
80,164,176428,1,0,0:0:0:0:
248,272,176565,2,0,L|256:360,1,67.5000025749208,4|0,0:0|0:0,0:0:0:0:
80,164,176837,2,0,L|72:76,1,67.5000025749208,0|0,0:0|0:0,0:0:0:0:
196,24,177110,6,0,L|204:104,1,67.5000025749208,6|0,0:0|0:0,0:0:0:0:
264,252,177383,2,0,L|272:172,1,67.5000025749208,8|0,0:0|0:0,0:0:0:0:
292,12,177656,2,0,L|300:92,1,67.5000025749208,8|0,0:0|0:0,0:0:0:0:
360,240,177929,2,0,L|368:160,1,67.5000025749208,8|0,0:0|0:0,0:0:0:0:
420,104,178201,6,0,L|504:96,1,67.5000025749208,2|0,0:0|0:0,0:0:0:0:
192,176,178474,2,0,L|108:168,1,67.5000025749208,8|0,0:0|0:0,0:0:0:0:
436,200,178747,2,0,L|520:192,1,67.5000025749208,8|0,0:0|0:0,0:0:0:0:
208,272,179020,2,0,L|124:264,1,67.5000025749208,8|0,0:0|0:0,0:0:0:0:
272,360,179292,6,0,P|320:320|392:332,1,135.000005149842,6|0,0:0|0:0,0:0:0:0:
460,368,179701,1,0,0:0:0:0:
484,292,179837,2,0,L|476:208,1,67.5000025749208,8|0,0:0|0:0,0:0:0:0:
332,112,180110,2,0,L|340:196,1,67.5000025749208,0|0,0:0|0:0,0:0:0:0:
424,48,180383,6,0,L|512:40,1,67.5000025749208,2|0,0:0|0:0,0:0:0:0:
236,136,180656,2,0,L|148:128,1,67.5000025749208,0|0,0:0|0:0,0:0:0:0:
24,112,180928,2,0,P|48:184|36:272,1,135.000005149842,8|0,0:0|0:0,0:0:0:0:
100,32,181474,6,0,L|168:40,1,67.5000025749208,6|0,0:0|0:0,0:0:0:0:
216,224,181747,2,0,L|284:216,1,67.5000025749208,8|0,0:0|0:0,0:0:0:0:
448,148,182019,2,0,P|460:212|456:296,1,135.000005149842,8|8,0:0|0:0,0:0:0:0:
420,352,182428,2,0,L|344:344,1,67.5000025749208,0|2,0:0|0:0,0:0:0:0:
276,324,182701,5,0,0:0:0:0:
368,176,182837,2,0,P|376:220|372:252,1,67.5000025749208,8|0,0:0|0:0,0:0:0:0:
256,144,183110,2,0,P|248:100|252:68,1,67.5000025749208,8|0,0:0|0:0,0:0:0:0:
168,292,183383,2,0,L|92:280,1,67.5000025749208,8|0,0:0|0:0,0:0:0:0:
82,202,183656,6,0,L|230:226,1,135.000005149842,6|0,0:0|0:0,0:0:0:0:
168,292,184065,1,0,0:0:0:0:
160,128,184201,2,0,L|176:44,1,67.5000025749208,8|0,0:0|0:0,0:0:0:0:
264,288,184474,2,0,L|248:372,1,67.5000025749208,0|0,0:0|0:0,0:0:0:0:
344,240,184747,6,0,B|332:184|332:184|340:148|340:148|324:84,1,135.000005149842,2|0,0:0|0:0,0:0:0:0:
292,36,185156,1,0,0:0:0:0:
420,192,185292,2,0,L|500:196,1,67.5000025749208,12|0,0:0|0:0,0:0:0:0:
248,148,185565,2,0,L|168:152,1,67.5000025749208,0|0,0:0|0:0,0:0:0:0:
416,88,185837,5,6,0:0:0:0:
176,320,194565,6,0,P|176:280|160:248,1,58.4999973220826,6|0,0:0|0:0,0:0:0:0:
96,156,194837,2,0,L|100:84,1,58.4999973220826,0|0,0:0|0:0,0:0:0:0:
88,296,195110,1,8,0:0:0:0:
192,184,195247,2,0,L|272:180,1,58.4999973220826,0|0,0:0|0:0,0:0:0:0:
320,248,195519,1,0,0:0:0:0:
376,128,195656,2,0,L|368:8,1,116.999994644165,2|0,0:0|0:0,0:0:0:0:
380,328,196201,2,0,P|404:308|432:304,1,58.4999973220826,8|0,0:0|0:0,0:0:0:0:
440,184,196474,2,0,P|416:204|388:208,1,58.4999973220826,0|0,0:0|0:0,0:0:0:0:
208,96,196747,5,6,0:0:0:0:
232,268,196883,1,0,0:0:0:0:
292,108,197019,2,0,L|288:36,1,58.4999973220826,0|0,0:0|0:0,0:0:0:0:
172,184,197292,1,8,0:0:0:0:
300,224,197428,2,0,P|316:264|276:332,1,116.999994644165,0|0,0:0|0:0,0:0:0:0:
148,340,197837,2,0,B|88:328|88:328|56:344|20:332,1,116.999994644165,2|0,0:0|0:0,0:0:0:0:
48,264,198247,1,0,0:0:0:0:
64,80,198383,2,0,L|67:138,1,58.4999973220826,8|0,0:0|0:0,0:0:0:0:
148,260,198656,2,0,L|151:201,1,58.4999973220826
176,16,198928,6,0,P|188:72|200:92,1,58.4999973220826,6|0,0:0|0:0,0:0:0:0:
248,188,199201,2,0,P|288:144|360:136,1,116.999994644165,0|8,0:0|0:0,0:0:0:0:
388,52,199610,2,0,P|424:60|508:40,1,116.999994644165,0|0,0:0|0:0,0:0:0:0:
328,216,200019,2,0,P|320:264|328:344,1,116.999994644165,2|0,0:0|0:0,0:0:0:0:
412,208,200565,2,0,L|476:196,1,58.4999973220826,8|0,0:0|0:0,0:0:0:0:
232,268,200837,2,0,L|168:256,1,58.4999973220826,0|0,0:0|0:0,0:0:0:0:
56,220,201110,6,0,P|84:184|88:156,1,58.4999973220826,6|0,0:0|0:0,0:0:0:0:
176,116,201383,2,0,P|160:80|156:40,1,58.4999973220826,0|0,0:0|0:0,0:0:0:0:
8,156,201656,1,8,0:0:0:0:
228,184,201792,2,0,L|308:200,1,58.4999973220826,0|0,0:0|0:0,0:0:0:0:
244,68,202065,1,0,0:0:0:0:
352,144,202201,2,0,P|368:184|344:260,1,116.999994644165,2|0,0:0|0:0,0:0:0:0:
280,316,202610,1,0,0:0:0:0:
188,336,202747,2,0,L|48:332,1,116.999994644165,8|0,0:0|0:0,0:0:0:0:
256,192,203292,12,0,205201,0:0:0:0:
56,72,205474,6,0,P|96:100|192:88,1,125.999996154785,6|0,0:0|0:0,0:0:0:0:
236,60,205883,1,0,0:0:0:0:
300,20,206019,2,0,L|312:92,1,62.9999980773926,8|0,0:0|0:0,0:0:0:0:
424,172,206292,2,0,L|341:138,1,62.9999980773926,0|0,0:0|0:0,0:0:0:0:
224,200,206564,2,0,L|294:145,1,62.9999980773926,2|0,0:0|0:0,0:0:0:0:
216,364,206837,2,0,L|204:292,1,62.9999980773926,0|0,0:0|0:0,0:0:0:0:
92,212,207110,2,0,L|175:246,1,62.9999980773926,8|0,0:0|0:0,0:0:0:0:
292,183,207382,2,0,L|222:238,1,62.9999980773926,0|0,0:0|0:0,0:0:0:0:
168,148,207656,6,0,B|236:96|236:96|252:56,1,125.999996154785,6|0,0:0|0:0,0:0:0:0:
251,58,208065,1,0,0:0:0:0:
72,232,208201,1,8,0:0:0:0:
144,64,208337,1,0,0:0:0:0:
188,224,208474,1,0,0:0:0:0:
76,120,208610,1,0,0:0:0:0:
260,188,208747,2,0,P|268:232|260:268,1,62.9999980773926,2|0,0:0|0:0,0:0:0:0:
204,368,209019,2,0,P|196:324|204:288,1,62.9999980773926,0|0,0:0|0:0,0:0:0:0:
400,184,209292,2,0,P|408:228|400:264,1,62.9999980773926,8|0,0:0|0:0,0:0:0:0:
372,360,209565,2,0,L|300:352,1,62.9999980773926,0|0,0:0|0:0,0:0:0:0:
120,340,209837,6,0,P|128:268|172:212,1,125.999996154785,6|0,0:0|0:0,0:0:0:0:
216,176,210247,1,0,0:0:0:0:
96,148,210383,1,8,0:0:0:0:
263,66,210519,1,0,0:0:0:0:
96,148,210656,2,0,P|56:160|24:156,1,62.9999980773926,0|0,0:0|0:0,0:0:0:0:
164,32,210928,2,0,P|176:72|176:96,1,62.9999980773926,2|0,0:0|0:0,0:0:0:0:
216,328,211201,2,0,P|217:296|228:267,1,62.9999980773926,0|0,0:0|0:0,0:0:0:0:
323,58,211474,2,0,L|251:50,1,62.9999980773926,8|0,0:0|0:0,0:0:0:0:
332,192,211747,2,0,L|404:184,1,62.9999980773926,0|0,0:0|0:0,0:0:0:0:
204,176,212019,6,0,B|160:188|160:188|44:168,1,125.999996154785,6|0,0:0|0:0,0:0:0:0:
76,260,212428,1,0,0:0:0:0:
288,140,212565,2,0,L|280:52,1,62.9999980773926,8|0,0:0|0:0,0:0:0:0:
88,280,212837,2,0,L|96:368,1,62.9999980773926,0|0,0:0|0:0,0:0:0:0:
152,104,213110,2,0,L|64:88,1,62.9999980773926,2|0,0:0|0:0,0:0:0:0:
236,264,213383,2,0,L|324:280,1,62.9999980773926,0|0,0:0|0:0,0:0:0:0:
184,344,213656,1,8,0:0:0:0:
212,164,213792,1,0,0:0:0:0:
200,360,213928,1,0,0:0:0:0:
204,176,214065,1,0,0:0:0:0:
300,360,214201,6,0,L|448:340,1,125.999996154785,6|0,0:0|0:0,0:0:0:0:
424,343,214610,1,0,0:0:0:0:
444,268,214747,1,8,0:0:0:0:
256,236,214883,1,0,0:0:0:0:
416,176,215019,1,0,0:0:0:0:
352,300,215156,1,0,0:0:0:0:
308,164,215292,2,0,L|296:76,1,62.9999980773926,2|0,0:0|0:0,0:0:0:0:
120,132,215565,2,0,L|129:59,1,62.9999980773926,0|0,0:0|0:0,0:0:0:0:
140,244,215837,2,0,P|96:236|40:248,1,62.9999980773926,8|0,0:0|0:0,0:0:0:0:
284,72,216110,2,0,P|328:80|384:68,1,62.9999980773926,0|0,0:0|0:0,0:0:0:0:
272,208,216383,6,0,L|296:360,1,125.999996154785,6|0,0:0|0:0,0:0:0:0:
208,336,216792,1,0,0:0:0:0:
376,268,216928,2,0,L|392:352,1,62.9999980773926,8|0,0:0|0:0,0:0:0:0:
192,256,217201,2,0,L|176:172,1,62.9999980773926,0|0,0:0|0:0,0:0:0:0:
284,96,217474,2,0,L|416:104,1,125.999996154785,2|0,0:0|0:0,0:0:0:0:
404,180,217883,1,0,0:0:0:0:
144,212,218019,2,0,L|152:108,1,62.9999980773926,8|0,0:0|0:0,0:0:0:0:
268,16,218292,2,0,L|260:120,1,62.9999980773926,0|0,0:0|0:0,0:0:0:0:
52,236,218565,6,0,L|64:84,1,125.999996154785,6|0,0:0|0:0,0:0:0:0:
136,36,218974,1,0,0:0:0:0:
216,168,219110,2,0,P|224:224|208:268,1,62.9999980773926,8|0,0:0|0:0,0:0:0:0:
100,360,219383,2,0,P|144:325|190:316,1,62.9999980773926,0|0,0:0|0:0,0:0:0:0:
269,334,219656,2,0,P|312:352|400:332,1,125.999996154785,2|0,0:0|0:0,0:0:0:0:
428,272,220065,1,0,0:0:0:0:
432,196,220201,2,0,L|416:120,1,62.9999980773926,8|0,0:0|0:0,0:0:0:0:
312,204,220474,2,0,L|328:280,1,62.9999980773926,0|0,0:0|0:0,0:0:0:0:
332,56,220747,6,0,L|164:44,1,125.999996154785,6|0,0:0|0:0,0:0:0:0:
132,68,221156,1,0,0:0:0:0:
72,112,221292,2,0,L|84:216,1,62.9999980773926,8|0,0:0|0:0,0:0:0:0:
152,260,221565,1,0,0:0:0:0:
52,192,221701,1,0,0:0:0:0:
192,164,221837,5,2,0:0:0:0:
72,328,222383,5,8,0:0:0:0:
80,344,222928,6,0,B|132:336|132:336|240:348|240:348|344:328,1,202.500007724762,6|0,0:0|0:0,0:0:0:0:
356,368,223474,5,8,0:0:0:0:
360,288,223610,1,0,0:0:0:0:
292,240,223747,1,0,0:0:0:0:
212,260,223883,1,0,0:0:0:0:
372,196,224019,5,2,0:0:0:0:
224,168,224156,1,0,0:0:0:0:
316,124,224292,1,0,0:0:0:0:
132,216,224428,1,0,0:0:0:0:
164,68,224565,2,0,L|236:80,1,67.5000025749208,8|0,0:0|0:0,0:0:0:0:
108,224,224837,2,0,L|36:212,1,67.5000025749208,0|0,0:0|0:0,0:0:0:0:
336,20,225110,6,0,L|352:224,1,202.500007724762,6|0,0:0|0:0,0:0:0:0:
432,228,225656,5,8,0:0:0:0:
392,300,225792,1,0,0:0:0:0:
312,300,225928,1,0,0:0:0:0:
272,232,226064,1,0,0:0:0:0:
224,348,226201,5,2,0:0:0:0:
392,300,226337,1,0,0:0:0:0:
160,288,226474,1,0,0:0:0:0:
320,336,226610,1,0,0:0:0:0:
84,256,226747,2,0,P|76:300|88:340,1,67.5000025749208,8|0,0:0|0:0,0:0:0:0:
32,120,227019,2,0,P|40:76|28:36,1,67.5000025749208,0|0,0:0|0:0,0:0:0:0:
132,100,227292,6,0,B|168:120|168:120|276:124|276:124|320:88,1,202.500007724762,6|0,0:0|0:0,0:0:0:0:
372,32,227837,5,8,0:0:0:0:
396,108,227974,1,0,0:0:0:0:
344,192,228110,1,0,0:0:0:0:
368,272,228247,1,0,0:0:0:0:
428,204,228383,5,2,0:0:0:0:
260,256,228519,1,0,0:0:0:0:
364,300,228656,1,0,0:0:0:0:
325,162,228792,1,0,0:0:0:0:
500,160,228928,2,0,P|512:204|504:244,1,67.5000025749208,8|0,0:0|0:0,0:0:0:0:
192,300,229201,2,0,P|180:256|188:216,1,67.5000025749208,0|0,0:0|0:0,0:0:0:0:
104,208,229474,6,0,P|204:200|252:104,1,202.500007724762,6|0,0:0|0:0,0:0:0:0:
332,100,230019,5,8,0:0:0:0:
276,44,230156,1,0,0:0:0:0:
196,56,230292,1,0,0:0:0:0:
160,128,230428,1,0,0:0:0:0:
112,32,230565,5,2,0:0:0:0:
251,118,230701,1,0,0:0:0:0:
128,116,230837,1,0,0:0:0:0:
296,24,230974,1,0,0:0:0:0:
276,216,231110,2,0,L|192:200,1,67.5000025749208,8|0,0:0|0:0,0:0:0:0:
248,356,231383,2,0,L|332:340,1,67.5000025749208,0|0,0:0|0:0,0:0:0:0:
384,252,231656,6,0,B|412:180|412:180|380:112|380:112|308:92,1,202.500007724762,6|0,0:0|0:0,0:0:0:0:
296,24,232201,5,8,0:0:0:0:
216,40,232337,1,0,0:0:0:0:
100,140,232474,1,0,0:0:0:0:
180,156,232610,1,0,0:0:0:0:
148,80,232747,5,2,0:0:0:0:
168,244,232883,1,0,0:0:0:0:
128,60,233019,1,0,0:0:0:0:
148,264,233155,1,0,0:0:0:0:
40,64,233292,2,0,P|48:24|72:-4,1,67.5000025749208,8|0,0:0|0:0,0:0:0:0:
284,124,233565,2,0,L|288:208,1,67.5000025749208,0|0,0:0|0:0,0:0:0:0:
232,312,233837,6,0,P|323:286|382:361,1,202.500007724762,6|0,0:0|0:0,0:0:0:0:
300,364,234383,5,8,0:0:0:0:
324,288,234519,1,0,0:0:0:0:
488,264,234656,1,0,0:0:0:0:
464,188,234792,1,0,0:0:0:0:
296,156,234928,5,2,0:0:0:0:
496,108,235065,1,0,0:0:0:0:
404,304,235201,1,0,0:0:0:0:
368,36,235337,1,0,0:0:0:0:
320,192,235474,2,0,L|248:184,1,67.5000025749208,8|0,0:0|0:0,0:0:0:0:
96,56,235747,2,0,L|168:64,1,67.5000025749208,0|0,0:0|0:0,0:0:0:0:
224,300,236019,6,0,B|76:276|76:276|8:288,1,202.500007724762,6|0,0:0|0:0,0:0:0:0:
28,204,236565,5,8,0:0:0:0:
48,124,236702,1,0,0:0:0:0:
140,248,236837,1,0,0:0:0:0:
120,328,236974,1,0,0:0:0:0:
140,148,237110,5,2,0:0:0:0:
232,260,237247,1,0,0:0:0:0:
224,96,237383,1,0,0:0:0:0:
116,232,237519,1,0,0:0:0:0:
308,228,237656,2,0,B|316:260|316:260|304:316,1,67.5000025749208,8|0,0:0|0:0,0:0:0:0:
136,128,237928,2,0,B|128:96|128:96|140:40,1,67.5000025749208,0|0,0:0|0:0,0:0:0:0:
392,52,238201,6,0,B|384:188|384:188|408:264,1,202.500007724762,6|0,0:0|0:0,0:0:0:0:
304,144,238747,1,8,0:0:0:0:
224,152,238883,1,0,0:0:0:0:
144,156,239019,1,0,0:0:0:0:
64,168,239156,1,0,0:0:0:0:
52,296,239292,6,0,L|68:368,3,67.5000025749208,2|0|0|0,0:0|0:0|0:0|0:0,0:0:0:0:
192,300,239837,6,0,L|176:228,1,67.5000025749208,8|0,0:0|0:0,0:0:0:0:
128,68,240110,1,0,0:0:0:0:
128,68,240247,1,0,0:0:0:0:
256,192,240383,5,6,0:0:0:0:
256,192,240519,12,0,242565,0:0:0:0:
